#TITLE:Master Maid;
#SUBTITLE:;
#ARTIST:Dj Sharpnel;
#TITLETRANSLIT:;
#SUBTITLETRANSLIT:;
#ARTISTTRANSLIT:;
#CREDIT:;
#BANNER:ba.banner.jpg;
#BACKGROUND:23.bg.JPG;
#LYRICSPATH:;
#CDTITLE:CDTITLE.jpg;
#MUSIC:02 MASTER MAID.mp3;
#OFFSET:-0.060;
#SAMPLESTART:100.000;
#SAMPLELENGTH:12.000;
#SELECTABLE:YES;
#BPMS:0.000=195.010,612.000=97.509,627.000=195.009,627.667=195.010;
#STOPS:;
#BGCHANGES:;
// cache tags:
#FIRSTBEAT:32.000;
#LASTBEAT:948.500;
#SONGFILENAME:Songs/Definitive Keyboard Megapack/Master maid(Leone51)/master_maid.sm;
#HASMUSIC:1;
#HASBANNER:1;
#MUSICLENGTH:297.900;
// end cache tags

//---------------dance-single - ----------------
#NOTES:
     dance-single:
     :
     Hard:
     13:
     1.000,1.000,1.000,0.178,0.994,2225.000,938.000,53.000,0.000,50.000:
0000
0000
0000
0000
,
0000
0000
0000
0000
,
0000
0000
0000
0000
,
0000
0000
0000
0000
,
0000
0000
0000
0000
,
0000
0000
0000
0000
,
0000
0000
0000
0000
,
0000
0000
0000
0000
,
0010
0000
0001
0000
0100
0000
0100
0010
0001
0000
0100
0000
0100
0000
0000
0000
,
0100
0000
0100
0000
1000
0000
0001
1000
0001
0000
1000
0000
0000
0000
0010
0000
,
0100
0000
0100
0000
0001
0000
1000
0100
0001
0000
1000
0000
0001
0000
0000
0000
,
0100
0000
0100
0000
0001
0000
0100
1000
0010
0000
0100
0000
0000
0000
0010
0000
,
0100
0000
1000
0000
0001
0000
0010
0100
1000
0000
0100
0000
0100
0000
0000
0000
,
0010
0000
0010
0000
0100
0000
1000
0001
1000
0000
0010
0000
0000
0000
0100
0000
,
0010
0000
0001
0000
0100
0000
0000
0001
0010
0000
0001
0000
1000
0000
0000
0001
,
0100
0000
0100
0000
0001
0000
0000
1000
0010
0000
0100
0000
0100
0000
0000
0000
,
0011
1100
0101
1010
,
1001
0000
0110
0000
1001
0000
0110
0100
,
0011
1100
0101
1010
,
1001
0000
0110
0000
1001
0000
0110
0100
,
0011
1100
0101
1010
,
1001
0000
0110
0000
1001
0000
0110
0100
,
0010
0001
0010
0100
1000
0100
0010
0001
1000
0001
0010
0100
1000
0001
1000
0100
,
0010
0001
0010
0100
1000
0100
0010
0001
1000
0001
0010
0100
1000
0001
1000
0100
,
0011
0000
0100
0000
1100
0000
0101
0000
1001
0000
1000
0000
1000
0000
1001
0010
,
1000
0000
0100
0000
1010
0000
1001
0000
1100
0000
1000
0000
1000
0000
1010
0001
,
0100
0000
0010
0000
1001
0000
0011
0000
0110
0000
1000
0000
1000
0000
1100
0010
,
0100
0000
0010
0000
0011
0000
0010
1000
0101
0000
0010
0100
1001
0000
0100
0010
,
0101
0000
0010
0000
1100
0000
0001
0000
1001
0000
0001
0000
1010
0000
1000
0010
,
0101
0000
0100
0000
1010
0000
0100
0000
1010
0000
0010
0000
0110
0000
0001
0010
,
1100
0000
1000
0000
0101
0000
0010
0000
0101
0000
0001
0000
1100
0000
0100
0010
,
1001
0000
0100
0000
0101
0000
0001
0000
0110
0000
0010
0000
1010
0001
0100
0010
,
0101
0000
0100
0000
1100
0000
0101
0000
1001
0000
1000
0000
1000
0000
1001
0010
,
1000
0000
0100
0000
1010
0000
1001
0000
1100
0000
1000
0000
1000
0000
1010
0001
,
0100
0000
0010
0000
1001
0000
0011
0000
0110
0000
1000
0000
1000
0000
1100
0010
,
0100
0000
0010
0000
0011
0000
0010
1000
0101
0000
0010
0100
1001
0000
0100
0010
,
0101
0000
0010
0000
1100
0000
0001
0000
1001
0000
0001
0000
1010
0000
1000
0010
,
0101
0000
0100
0000
1010
0000
0100
0000
1010
0000
0010
0000
0110
0000
0001
0010
,
1100
0000
1000
0000
0101
0000
0010
0000
0101
0000
0001
0000
1100
0000
0100
0010
,
1001
0010
0100
0010
0101
0010
0001
1000
0110
0001
0010
0100
1010
0001
0100
0010
,
0101
0000
0010
0001
1100
0000
0100
1000
0101
1000
0001
0010
0100
0010
0100
0010
,
0000
0000
1100
0000
0011
0100
1000
0000
0101
0000
0100
0000
1010
0001
0100
1000
,
0011
0000
0010
1000
0101
0000
0100
0010
1001
0010
0100
0001
0100
0001
1000
0010
,
0000
0000
0101
0000
0100
0000
0011
0000
1100
0000
0000
0101
0000
0010
1100
0010
,
0101
0000
0001
0010
0101
0000
0010
0100
0011
1000
0001
1000
0100
0001
0100
0001
,
0000
0000
1001
0000
0110
0001
1000
0000
1010
0000
0100
0000
0101
0010
0100
1000
,
0011
0000
0100
0010
0101
0000
0001
0010
1100
0001
0100
0010
1000
0010
0100
0010
,
1100
0000
0000
0101
0000
0000
0011
0000
1100
0000
0000
0101
0000
0000
1010
0000
,
0101
0000
0010
0001
1100
0000
0100
1000
0101
1000
0001
0010
0100
0010
0100
0010
,
0000
0000
1100
0000
0011
0100
1000
0000
0101
0000
0100
0000
1010
0001
0100
1000
,
0011
0000
0010
1000
0101
0000
0100
0010
1001
0010
0100
0001
0100
0001
1000
0010
,
0000
0000
0101
0000
0100
0000
0011
0000
1100
0000
0000
0101
0000
0010
1100
0010
,
0101
0000
0001
0010
0101
0000
0010
0100
0011
1000
0001
1000
0100
0001
0100
0001
,
0000
0000
1001
0000
0110
0001
1000
0000
1010
0000
0100
0000
0101
0010
0100
1000
,
0011
0000
0100
0010
0101
0000
0001
0010
1100
0001
0100
0010
1000
0010
0100
0010
,
1100
0000
0000
0101
0000
0000
0011
0100
1010
0000
0000
0101
0000
0000
1010
0000
,
0100
0000
0100
0000
0010
0000
0010
0100
1000
0000
0001
0000
0100
0000
0100
0010
,
0001
0000
1000
0000
1000
0000
0100
0010
1000
0000
0001
0000
0001
0000
0010
0100
,
1000
0000
0010
0000
0010
0000
0100
0010
0001
0000
0100
0000
1000
0000
0001
0010
,
0001
0000
1000
0000
1000
0000
0100
0010
0001
0000
0100
0000
0101
0000
0000
0000
,
0100
0000
0100
0000
0010
0000
0010
0100
1000
0000
0001
0000
0100
0000
0100
0010
,
0001
0000
1000
0000
1000
0000
0100
0010
1000
0000
0001
0000
0001
0000
0010
0100
,
1000
0000
0010
0000
0010
0000
0100
0010
0001
0000
0100
0000
1000
0000
0001
0010
,
0001
0000
1000
0000
1000
0000
0100
0010
0001
0000
0100
0000
0101
0000
0000
0000
,
0101
0000
0100
0000
1010
0000
0100
1000
0011
0000
0101
0000
1010
0000
0100
0010
,
1001
0000
1010
0000
0101
0000
0010
0100
1001
0000
0101
0000
1010
0000
0100
0000
,
0101
0000
0100
0000
1010
0000
0100
1000
0011
0000
0101
0000
1010
0000
0100
0010
,
1001
0000
1010
0000
0101
0000
0010
0100
1001
0000
0101
0000
1010
0000
0100
0000
,
0101
0000
0100
0000
1010
0000
0100
1000
0011
0000
0101
0000
1010
0000
0100
0010
,
1001
0000
1010
0000
0101
0000
0010
0100
1001
0000
0101
0000
1010
0000
0100
0000
,
0101
0000
0100
0000
1010
0000
0100
1000
0011
0000
0101
0000
1010
0000
0100
0010
,
1001
0100
0010
0001
1000
0001
0010
0100
1001
0010
0100
0010
1000
0010
0100
1000
,
0011
0000
1100
0001
0100
1000
0011
0000
0100
0000
0011
0100
0000
0101
0010
0000
,
0110
0000
1100
0001
0000
1100
0010
0000
0101
0000
0100
0010
1001
0010
0100
0000
,
1001
0000
0011
0100
0000
0101
1000
0000
0011
0000
1010
0100
0000
0101
0010
0000
,
0110
0000
0010
0100
0011
1000
0001
0000
0110
0000
0010
1100
0000
0100
0011
0000
,
0011
0000
1100
0001
0100
1000
0011
0000
0100
0000
0011
0100
0000
0101
0010
0000
,
0110
0000
1100
0001
0000
1100
0010
0000
0101
0000
0100
0010
1001
0010
0100
0000
,
1001
0000
0011
0100
0000
0101
1000
0000
0011
0000
1010
0100
0000
0101
0010
0000
,
0110
0000
0010
0100
0001
1000
0001
0000
0101
0000
0010
1000
0010
0100
0011
0000
,
1100
0000
0000
0000
0101
0000
1000
0000
0101
0000
0001
0010
1100
0000
0101
0000
,
1010
0000
0100
0000
0011
0000
1100
0000
1001
0000
0001
0100
0011
0000
0110
0000
,
0110
0000
0000
0000
1100
0000
0010
0000
1001
0000
0100
0010
1100
0000
0011
0000
,
1001
0000
0010
1000
0110
0000
0101
0000
1010
0000
0000
0101
0000
0000
0110
0000
,
1100
0000
0000
0000
0101
0000
1000
0000
0101
0000
0001
0010
1100
0000
0101
0000
,
1010
0000
0100
0000
0011
0000
1100
0000
1001
0000
0001
0100
0011
0000
0110
0000
,
0110
0000
0000
0000
1100
0000
0010
0000
1001
0000
0100
0010
1100
0000
0011
0000
,
1001
0000
0011
1000
0110
0000
0101
0000
1010
0000
0101
0010
1100
0000
1001
0000
,
0101
0000
0101
1000
0011
0000
0100
0000
1001
0000
1100
0010
0101
0000
0010
0000
,
1001
0000
0101
0010
1100
0000
0010
0000
1001
0000
0011
0100
0000
0010
1100
0000
,
1001
0000
0110
1000
0011
0000
0010
0000
1001
0000
0101
1000
0101
0000
0100
0000
,
1001
0000
0110
0001
1100
0000
0010
0000
1001
0000
0001
1100
0000
0010
1100
0000
,
0101
0000
0101
1000
0011
0000
0100
0000
1001
0000
1100
0010
0101
0000
0010
0000
,
1001
0000
0101
0010
1100
0000
0010
0000
1001
0000
0011
0100
0000
0010
1100
0000
,
1001
0000
0110
1000
0011
0000
0010
0000
1001
0000
0101
1000
0101
0000
0100
0000
,
1001
0000
0110
0001
1100
0000
0010
0000
1001
0000
0001
0010
1100
0000
0100
0000
,
1100
0000
0000
0000
0101
0000
1000
0000
0101
0000
0001
0010
1100
0000
0101
0000
,
1010
0000
0100
0000
0011
0000
1100
0000
1001
0000
0001
0100
0011
0000
0110
0000
,
0110
0000
0000
0000
1100
0000
0010
0000
1001
0000
0100
0010
1100
0000
0011
0000
,
1001
0000
0010
1000
0110
0000
0101
0000
1010
0000
0000
0101
0000
0000
0110
0000
,
1100
0000
0000
0000
0101
0000
1000
0000
0101
0000
0001
0010
1100
0000
0101
0000
,
1010
0000
0100
0000
0011
0000
1100
0000
1001
0000
0001
0100
0011
0000
0110
0000
,
0110
0001
0010
0001
1100
0001
0010
0100
1001
0010
0100
0010
1100
0010
0001
0010
,
1100
0010
0001
1000
0100
0001
0100
0001
1000
0100
0010
0001
0010
0100
1000
0010
,
0101
0000
0100
0000
1000
0000
0001
0000
1010
0000
0001
1000
0100
0000
0010
0000
,
1001
0000
0101
0000
1100
0000
0010
0000
1001
0000
0011
0100
0000
0010
1100
0000
,
0011
0000
0100
0000
0001
0000
0010
0000
1001
0000
0001
1000
0100
0000
0010
0000
,
1001
0000
0101
0000
1100
0000
0010
0000
1001
0000
0001
1000
0101
0010
1000
0000
,
0110
0000
0001
0000
1000
0000
0100
0000
0011
0000
1000
0010
0100
0000
0010
0000
,
1001
0000
0110
0000
0101
0000
1000
0000
0101
0000
0011
1000
0000
0100
1001
0000
,
1010
0000
0100
0000
0010
0000
0100
0000
0011
0000
0100
0010
1000
0000
0001
0000
,
1010
0000
0101
0000
0110
0000
1000
0000
0101
0000
0010
0100
1001
0100
0010
0000
,
0101
0000
0100
0000
1000
0000
0001
0000
1010
0000
0001
1000
0100
0000
0010
0000
,
1001
0000
0101
0000
1100
0000
0010
0000
1001
0000
0011
0100
0000
0010
1100
0000
,
0011
0000
0100
0000
0001
0000
0010
0000
1001
0000
0001
1000
0100
0000
0010
0000
,
1001
0000
0101
0000
1100
0000
0010
0000
1001
0000
0001
1000
0101
0010
1000
0000
,
0110
0000
0001
0000
1000
0000
0100
0000
0011
0000
1000
0010
0100
0000
0010
0000
,
1001
0000
0110
0000
0101
0000
1000
0000
0101
0000
0011
1000
0000
0100
1001
0000
,
1010
0000
0100
0000
0010
0000
0100
0000
0011
0000
0100
0010
1000
0000
0001
0000
,
1010
0001
0100
0001
0110
0001
1000
0010
0101
1000
0010
0100
1001
0100
0010
0001
,
1100
0000
1000
0000
1010
0000
0010
0000
0101
0000
0100
0000
0110
1000
0010
0000
,
0011
0001
1001
1000
1010
0010
0110
1001
,
1001
0000
0001
0000
0011
0000
0010
0000
0110
0000
0100
0000
1010
0001
1000
0000
,
1100
0000
0100
0000
0101
0000
1001
0000
0101
0000
1001
0000
0101
1000
0100
0001
,
1100
0000
1000
0000
1010
0000
0010
0000
0101
0000
0100
0000
0110
1000
0010
0000
,
0011
0001
1001
1000
1010
0010
0110
1001
,
1001
0000
0001
0000
0011
0000
0010
0000
0110
0000
0100
0000
1010
0001
1000
0000
,
1100
0000
0100
0010
0101
0000
1001
0000
0101
0000
1001
0010
0101
0000
0100
0000
,
1100
0000
1000
0000
1010
0000
0010
0000
0101
0000
0100
0000
0110
1000
0010
0000
,
0011
0001
1001
1000
1010
0010
0110
1001
,
1001
0000
0001
0000
0011
0000
0010
0000
0110
0000
0100
0000
1010
0001
1000
0000
,
1100
0000
0100
0000
0101
0000
1001
0000
0101
0000
1001
0000
0101
1000
0100
0001
,
1100
0000
1000
0000
1010
0000
0010
0000
0101
0000
0100
0000
0110
1000
0010
0000
,
0011
0001
1001
1000
1010
0010
0110
1001
,
1001
0000
0001
0000
0011
0000
0010
0000
0110
0000
0100
0000
1010
0001
1000
0000
,
1100
0000
0100
0010
0101
0000
1001
0000
0101
0000
1001
0010
0101
0000
0100
0000
,
0011
0000
1001
0000
1100
0000
1100
0000
1010
0000
0011
0100
0010
1000
0101
0000
,
1001
0000
0010
0000
0101
0000
1001
0000
0011
0000
0100
1010
0100
1000
0110
0000
,
0101
0000
0110
0000
1001
0000
0101
0000
1010
0000
0101
0010
0100
1000
0110
0000
,
1100
0000
0100
0000
0110
0000
1001
0000
0110
0000
0001
1100
0001
0100
0011
0000
,
1001
0000
0101
0000
0011
0000
0011
0000
1010
0000
0101
1000
0001
1000
0110
0000
,
1001
0000
0100
0000
0110
0000
1010
0000
1010
0000
0001
1010
0001
1000
0101
0000
,
0110
0000
1001
0000
0101
0000
1010
0000
0110
0000
0101
1000
0100
0010
0101
0000
,
1100
0000
0100
0001
0110
0000
1001
0000
0110
0000
0001
1100
0001
1000
0110
0000
,
0011
0000
1001
0000
1100
0000
1100
0000
1010
0000
0011
0100
0010
1000
0101
0000
,
1001
0000
0010
0000
0101
0000
1001
0000
0011
0000
0100
1010
0100
1000
0110
0000
,
0101
0000
0110
0000
1001
0000
0101
0000
1010
0000
0101
0010
0100
1000
0110
0000
,
1100
0000
0100
0000
0110
0000
1001
0000
0110
0000
0001
1100
0001
0100
0011
0000
,
1001
0000
0101
0000
0011
0000
0011
0000
1010
0000
0101
1000
0001
1000
0110
0000
,
1001
0000
0100
0000
0110
0000
1010
0000
1010
0000
0001
1010
0001
1000
0101
0000
,
0110
0000
1001
0000
0101
0000
1010
0000
0110
0000
0101
1000
0100
0010
0101
0000
,
1100
0001
0100
0001
0110
0001
1000
0001
0110
1000
0001
1000
0101
1000
0010
0100
,
2002
0000
0000
0000
0000
0000
0000
0000
0000
0000
0000
3003
0000
0000
0000
0000
,
2000
0000
0000
0000
,
0000
0000
0000
0000
,
0000
0000
0000
0000
,
0000
0000
0000
0000
0000
0000
0000
0000
0000
0000
0000
0000
0000
0000
3010
0001
0010
0100
1000
0001
0010
0100
1000
0001
0010
0000
0100
0000
1000
0000
0001
0000
,
0100
1000
0001
0100
1020
0000
1100
0000
0032
1100
0003
0011
0200
0000
0011
0000
,
0320
1100
0030
0011
2000
0000
0101
0000
3020
0101
0030
0011
2000
0000
0101
0000
,
3010
0000
0110
0000
1002
0000
1100
0000
0023
1100
0030
1001
0200
0000
1001
0000
,
0302
1010
0003
1100
0020
0000
0101
0000
2030
0101
3000
1001
0200
0000
0011
0000
,
1300
0000
1001
0000
1020
0000
1100
0000
0032
1100
0003
0011
0200
0000
0011
0000
,
0320
1100
0030
0011
2000
0000
0101
0000
3020
0101
0030
0011
2000
0000
0101
0000
,
3010
0000
0110
0000
1002
0000
1100
0000
0023
1100
0030
1001
0200
0000
1001
0000
,
0302
1010
0003
1100
0011
0000
0101
1000
0010
0001
0010
0001
1100
0000
0011
0000
,
1010
0000
1001
0000
1020
0000
1100
0000
0032
1100
0003
0011
0200
0000
0011
0000
,
0320
1100
0030
0011
2000
0000
0101
0000
3020
0101
0030
0011
2000
0000
0101
0000
,
3010
0000
0110
0000
1002
0000
1100
0000
0023
1100
0030
1001
0200
0000
1001
0000
,
0302
1010
0003
1100
0020
0000
0101
0000
2030
0101
3000
1001
0200
0000
0011
0000
,
1300
0000
1001
0000
1020
0000
1100
0000
0032
1100
0003
0011
0200
0000
0011
0000
,
0320
1100
0030
0011
2000
0000
0101
0000
3020
0101
0030
0011
2000
0000
0101
0000
,
3010
0000
0110
0000
1002
0000
1100
0000
0023
1100
0030
1001
0200
0000
1001
0000
,
0302
1010
0003
1100
0010
0000
0101
0000
1000
0000
0011
0000
0100
0000
0011
0100
,
1000
0000
1001
0100
1010
0000
0010
0000
0101
0000
1010
0000
1001
0000
0101
0010
,
1000
0001
1010
0000
0100
0000
1010
0000
0100
0000
0011
0000
0100
0000
1010
0001
,
0010
0100
0011
0000
0100
0000
1001
0000
0010
0000
1100
0000
0001
0000
0011
0100
,
1000
0100
0011
0000
1100
0000
1001
0000
0011
0000
1001
0010
0100
1000
0011
0100
,
1000
0001
0110
0000
1010
0000
0010
0000
0101
0000
1010
0000
1001
0000
0101
0010
,
1000
0001
1010
0000
0100
0000
1010
0000
0100
0000
0011
0000
0100
0000
1010
0001
,
0010
0100
0011
0000
0100
0000
1001
0000
0010
0000
1100
0000
0001
0000
0011
0100
,
1000
0100
0011
0000
1100
0000
1001
0000
0011
0000
1001
0000
0101
0000
0011
0100
,
1000
0001
1010
0000
1010
0000
0010
0000
0101
0000
1010
0000
1001
0000
0101
0010
,
1000
0001
1010
0000
0100
0000
1010
0000
0100
0000
0011
0000
0100
0000
1010
0001
,
0010
0100
0011
0000
0100
0000
1001
0000
0010
0000
1100
0000
0001
0000
0011
0100
,
1000
0100
0011
0000
1100
0000
1001
0000
0011
0000
1001
0010
0100
1000
0011
0100
,
1000
0001
0110
0000
1010
0000
0010
0000
0101
0000
1010
0000
1001
0000
0101
0010
,
1000
0001
1010
0000
0100
0000
1010
0000
0100
0000
0011
0000
0100
0000
1010
0001
,
0010
0100
0011
0000
0100
0000
1001
0000
0010
0000
1100
0000
0001
0000
0011
0100
,
1000
0100
0011
0000
1100
0010
1000
0010
0101
0010
1000
0100
0011
1000
0001
0100
,
1010
0001
1000
0000
0011
0000
0000
0000
1010
0000
0000
0000
0101
0000
0000
0000
,
1001
0101
1010
1001
,
0110
1010
0110
0101
,
1001
1100
0011
1001
,
1001
0011
1010
0101
,
1001
0101
1010
1001
,
0110
1010
0110
0101
,
1001
1100
0011
1001
,
1001
0010
0101
0010
1100
0000
0100
0000
0010
0000
0001
0000
0100
0000
1000
0000
,
0001
0100
0001
0000
1000
0000
0010
0000
0100
0000
0100
0000
0001
0000
1000
0000
,
0010
0100
1000
0000
0010
0000
0100
0000
0010
0000
0001
0000
0100
0000
1000
0000
,
0001
0100
0001
0000
1000
0000
0010
0000
0100
0000
0100
0010
0001
0000
0001
1000
,
0011
0100
1000
0001
0110
0000
0100
0000
0010
0000
0001
0000
0100
0000
1000
0000
,
0001
0100
0001
0000
1000
0000
0010
0000
0100
0000
0100
0000
0001
0000
1000
0000
,
0010
0100
1000
0000
0010
0000
0100
0000
0010
0000
0001
0000
0100
0000
1000
0000
,
0001
0100
0001
0000
1000
0100
0010
0001
0100
0010
0100
0010
0001
0100
0001
1000
,
0011
0100
1000
0010
0101
0000
0010
0001
1100
0000
0100
1000
0101
1000
0001
0010
,
0100
0010
0100
0010
0000
0000
1100
0000
0011
0100
1000
0000
0101
0000
0100
0000
,
1010
0001
0100
1000
0011
0000
0010
1000
0101
0000
0100
0010
1001
0010
0100
0001
,
0100
0001
1000
0010
0000
0000
0101
0000
0100
0000
0011
0000
1100
0000
0000
0101
,
0000
0010
1100
0010
0101
0000
0001
0010
0101
0000
0010
0100
0011
1000
0001
1000
,
0100
0001
0100
0001
0000
0000
1001
0000
0110
0001
1000
0000
1010
0000
0100
0000
,
0101
0010
0100
1000
0011
0000
0100
0010
0101
0000
0001
0010
1100
0001
0100
0010
,
1000
0010
0100
0010
1100
0000
0000
0101
0000
0000
0011
0000
1100
0000
0000
0101
,
0000
0000
1010
0000
0101
0000
0010
0001
1100
0000
0100
1000
0101
1000
0001
0010
,
0100
0010
0100
0010
0000
0000
1100
0000
0011
0100
1000
0000
0101
0000
0100
0000
,
1010
0001
0100
1000
0011
0000
0010
1000
0101
0000
0100
0010
1001
0010
0100
0001
,
0100
0001
1000
0010
0000
0000
0101
0000
0100
0000
0011
0000
1100
0000
0000
0101
,
0000
0010
1100
0010
0101
0000
0001
0010
0101
0000
0010
0100
0011
1000
0001
1000
,
0100
0001
0100
0001
0000
0000
1001
0000
0110
0001
1000
0000
1010
0000
0100
0000
,
0101
0010
0100
1000
0011
0000
0100
0010
0101
0000
0001
0010
1100
0001
0100
0010
,
1000
0010
0100
0010
1100
0000
0000
0101
0000
0000
0011
0100
1010
0000
0000
0101
,
0000
0000
1010
0000
0101
0000
0010
0001
1100
0000
0100
1000
0101
1000
0001
0010
,
0100
0010
0100
0010
0000
0000
1100
0000
0011
0100
1000
0000
0101
0000
0100
0000
,
1010
0001
0100
1000
0011
0000
0010
1000
0101
0000
0100
0010
1001
0010
0100
0001
,
0100
0001
1000
0010
0000
0000
0101
0000
0100
0000
0011
0000
1100
0000
0000
0101
,
0000
0010
1100
0010
0101
0000
0001
0010
0101
0000
0010
0100
0011
1000
0001
1000
,
0100
0001
0100
0001
0000
0000
1001
0000
0110
0001
1000
0000
1010
0000
0100
0000
,
0101
0010
0100
1000
0011
0000
0100
0010
0101
0000
0001
0010
1100
0001
0100
0010
,
1000
0010
0100
0010
1100
0000
0000
0101
0000
0000
0011
0000
1100
0000
0000
0101
,
0000
0000
1010
0000
0101
0000
0010
0001
1100
0000
0100
1000
0101
1000
0001
0010
,
0100
0010
0100
0010
0000
0000
1100
0000
0011
0100
1000
0000
0101
0000
0100
0000
,
1010
0001
0100
1000
0011
0000
0010
1000
0101
0000
0100
0010
1001
0010
0100
0001
,
0100
0001
1000
0010
0000
0000
0101
0000
0100
0000
0011
0000
1100
0000
0000
0101
,
0000
0010
1100
0010
0101
0000
0001
0010
0101
0000
0010
0100
0011
1000
0001
1000
,
0100
0001
0100
0001
0000
0000
1001
0000
0110
0001
1000
0000
1010
0000
0100
0000
,
0101
0010
0100
1000
0011
1000
0100
0010
0101
1000
0001
0010
1100
0001
0100
0010
,
1001
0010
0100
0010
1100
0000
0000
0101
0000
0000
0011
0100
1010
0000
0000
0101
,
0000
1010
0000
0000
0000
0000
0000
0000
;

//---------------dance-single - Copied from----------------
#NOTES:
     dance-single:
     Copied from:
     Medium:
     12:
     1.000,1.000,0.950,0.010,0.958,2200.000,283.000,3.000,0.000,0.000:
0000
0000
0000
0000
,
0000
0000
0000
0000
,
0000
0000
0000
0000
,
0000
0000
0000
0000
,
0000
0000
0000
0000
,
0000
0000
0000
0000
,
0000
0000
0000
0000
,
0000
0000
0000
0000
,
0010
0000
0001
0000
0100
0000
0100
0010
0001
0000
0100
0000
0100
0000
0000
0000
,
0100
0000
0100
0000
1000
0000
0001
1000
0001
0000
1000
0000
0000
0000
0010
0000
,
0100
0000
0100
0000
0001
0000
1000
0100
0001
0000
1000
0000
0001
0000
0000
0000
,
0100
0000
0100
0000
0001
0000
0100
1000
0010
0000
0100
0000
0000
0000
0010
0000
,
0100
0000
1000
0000
0001
0000
0010
0100
1000
0000
0100
0000
0100
0000
0000
0000
,
0010
0000
0010
0000
0100
0000
1000
0001
1000
0000
0010
0000
0000
0000
0100
0000
,
0010
0000
0001
0000
0100
0000
0000
0001
0010
0000
0001
0000
1000
0000
0000
0001
,
0100
0000
0100
0000
0001
0000
0000
1000
0010
0000
0100
0000
0100
0000
0000
0000
,
0011
1100
0101
1010
,
1001
0000
0110
0000
1001
0000
0110
0100
,
0011
1100
0101
1010
,
1001
0000
0110
0000
1001
0000
0110
0100
,
0011
1100
0101
1010
,
1001
0000
0110
0000
1001
0000
0110
0100
,
0010
0001
0010
0100
1000
0100
0010
0001
1000
0001
0010
0100
1000
0001
1000
0100
,
0010
0001
0010
0100
1000
0100
0010
0001
1000
0001
0010
0100
1000
0001
1000
0100
,
0011
0000
0100
0000
1000
0000
0001
0000
1001
0000
1000
0000
1000
0000
0001
0010
,
1000
0000
0100
0000
1000
0000
0001
0000
1100
0000
1000
0000
1000
0000
0010
0001
,
0100
0000
0010
0000
0001
0000
0010
0000
0110
0000
1000
0000
1000
0000
0100
0010
,
0100
0000
0010
0000
0001
0000
0010
1000
0001
0000
0010
0100
1000
0000
0100
0010
,
0001
0000
0010
0000
1000
0000
0001
0000
1001
0000
0001
0000
1000
0000
1000
0010
,
0100
0000
0100
0000
0010
0000
0100
0000
1010
0000
0010
0000
0010
0000
0001
0010
,
1000
0000
1000
0000
0001
0000
0010
0000
0101
0000
0001
0000
0100
0000
0100
0010
,
0001
0000
0100
0000
0100
0000
0001
0000
0110
0000
0010
0000
1000
0001
0100
0010
,
0001
0000
0100
0000
1000
0000
0001
0000
1001
0000
1000
0000
1000
0000
0001
0010
,
1000
0000
0100
0000
1000
0000
0001
0000
1100
0000
1000
0000
1000
0000
0010
0001
,
0100
0000
0010
0000
0001
0000
0010
0000
0110
0000
1000
0000
1000
0000
0100
0010
,
0100
0000
0010
0000
0001
0000
0010
1000
0001
0000
0010
0100
1000
0000
0100
0010
,
0001
0000
0010
0000
1000
0000
0001
0000
1001
0000
0001
0000
1000
0000
1000
0010
,
0100
0000
0100
0000
0010
0000
0100
0000
1010
0000
0010
0000
0010
0000
0001
0010
,
1000
0000
1000
0000
0001
0000
0010
0000
0101
0000
0001
0000
0100
0000
0100
0010
,
0001
0000
0100
0000
0100
0000
0001
0000
0110
0000
0010
0000
1000
0001
0100
0010
,
0001
0000
0010
0001
1000
0000
0100
1000
0001
1000
0001
0010
0100
0010
0100
0010
,
0000
0000
1000
0000
0001
0100
1000
0000
0001
0000
0100
0000
1000
0001
0100
1000
,
0001
0000
0010
1000
0001
0000
0100
0010
1000
0010
0100
0001
0100
0001
1000
0010
,
0000
0000
0001
0000
0100
0000
0010
0000
1010
0000
0000
0101
0000
0000
1100
0000
,
0101
0000
0001
0010
0001
0000
0010
0100
0010
1000
0001
1000
0100
0001
0100
0001
,
0000
0000
1000
0000
0010
0001
1000
0000
0010
0000
0100
0000
0001
0010
0100
1000
,
0001
0000
0100
0010
0100
0000
0001
0010
1000
0001
0100
0010
1000
0010
0100
0010
,
1100
0000
0000
0101
0000
0000
0011
0000
1100
0000
0000
0101
0000
0000
1010
0000
,
0101
0000
0010
0001
1000
0000
0100
1000
0001
1000
0001
0010
0100
0010
0100
0010
,
0000
0000
1000
0000
0001
0100
1000
0000
0001
0000
0100
0000
1000
0001
0100
1000
,
0001
0000
0010
1000
0001
0000
0100
0010
1000
0010
0100
0001
0100
0001
1000
0010
,
0000
0000
0001
0000
0100
0000
0010
0000
1010
0000
0000
0101
0000
0000
1100
0000
,
0101
0000
0001
0010
0001
0000
0010
0100
0010
1000
0001
1000
0100
0001
0100
0001
,
0000
0000
1000
0000
0010
0001
1000
0000
0010
0000
0100
0000
0001
0010
0100
1000
,
0001
0000
0100
0010
0100
0000
0001
0010
1000
0001
0100
0010
1000
0010
0100
0010
,
1100
0000
0000
0101
0000
0000
0011
0000
1100
0000
0000
0101
0000
0000
1010
0000
,
0100
0000
0100
0000
0010
0000
0010
0100
1000
0000
0001
0000
0100
0000
0100
0010
,
0001
0000
1000
0000
1000
0000
0100
0010
1000
0000
0001
0000
0001
0000
0010
0100
,
1000
0000
0010
0000
0010
0000
0100
0010
0001
0000
0100
0000
1000
0000
0001
0010
,
0001
0000
1000
0000
1000
0000
0100
0010
0001
0000
0100
0000
0001
0000
0000
0000
,
0100
0000
0100
0000
0010
0000
0010
0100
1000
0000
0001
0000
0100
0000
0100
0010
,
0001
0000
1000
0000
1000
0000
0100
0010
1000
0000
0001
0000
0001
0000
0010
0100
,
1000
0000
0010
0000
0010
0000
0100
0010
0001
0000
0100
0000
1000
0000
0001
0010
,
0001
0000
1000
0000
1000
0000
0100
0010
0001
0000
0100
0000
0001
0000
0000
0000
,
0001
0000
0100
0000
1000
0000
0100
1000
0001
0000
0001
0000
1000
0000
0100
0010
,
0001
0000
1010
0000
0101
0000
0010
0100
0001
0000
0001
0000
1000
0000
0100
0000
,
0001
0000
0100
0000
1000
0000
0100
1000
0001
0000
0001
0000
1000
0000
0100
0010
,
0001
0000
1010
0000
0101
0000
0010
0100
0001
0000
0001
0000
1000
0000
0100
0000
,
0001
0000
0100
0000
1000
0000
0100
1000
0001
0000
0001
0000
1000
0000
0100
0010
,
0001
0000
1010
0000
0101
0000
0010
0100
0001
0000
0001
0000
1000
0000
0100
0000
,
0001
0000
0100
0000
1000
0000
0100
1000
0001
0000
0001
0000
1000
0000
0100
0010
,
0001
0010
1000
0010
0001
0100
0010
0100
0001
0100
0001
0010
1000
0010
0100
1000
,
0011
0000
1000
0001
0100
1000
0001
0000
1100
0000
0001
0100
0000
0001
0010
0000
,
0110
0000
1000
0001
0000
1000
0010
0000
0101
0000
0100
0010
0001
0010
0100
0000
,
1001
0000
0001
0100
0000
0001
1000
0000
0011
0000
1000
0100
0000
0100
0010
0000
,
0110
0000
0010
0100
0010
1000
0001
0000
0110
0000
0000
1100
0000
0000
0011
0000
,
0011
0000
1000
0001
0100
1000
0001
0000
1100
0000
0001
0100
0000
0001
0010
0000
,
0110
0000
1000
0001
0000
1000
0010
0000
0101
0000
0100
0010
0001
0010
0100
0000
,
1001
0000
0001
0100
0000
0001
1000
0000
0011
0000
1000
0100
0000
0100
0010
0000
,
0110
0000
0010
0100
0001
1000
0001
0000
0101
0000
0010
1000
0010
0100
0001
0000
,
1100
0000
0000
0000
0001
0000
1000
0000
0001
0000
0001
0010
1000
0000
0001
0000
,
1000
0000
0100
0000
0011
0000
1100
0000
1001
0000
0001
0100
0001
0000
0100
0000
,
0110
0000
0000
0000
1000
0000
0010
0000
0001
0000
0100
0010
1000
0000
0001
0000
,
1000
0000
0010
1000
0100
0000
0001
0000
1010
0000
0000
0101
0000
0000
0110
0000
,
1100
0000
0000
0000
0001
0000
1000
0000
0001
0000
0001
0010
1000
0000
0001
0000
,
1000
0000
0100
0000
0011
0000
1100
0000
1001
0000
0001
0100
0001
0000
0100
0000
,
0110
0000
0000
0000
1000
0000
0010
0000
0001
0000
0100
0010
1100
0000
0011
0000
,
1001
0000
0001
1000
0010
0000
0001
0000
1000
0000
0001
0010
1000
0000
0001
0000
,
0101
0000
0100
1000
0010
0000
0100
0000
1001
0000
1000
0010
0001
0000
0010
0000
,
1001
0000
0001
0010
1000
0000
0010
0000
1001
0000
0001
0100
0000
0010
1000
0000
,
1001
0000
0010
1000
0001
0000
0010
0000
1001
0000
0001
1000
0001
0000
0100
0000
,
1001
0000
0010
0001
1000
0000
0010
0000
1001
0000
0000
1100
0000
0000
1100
0000
,
0101
0000
0100
1000
0010
0000
0100
0000
1001
0000
1000
0010
0001
0000
0010
0000
,
1001
0000
0001
0010
1000
0000
0010
0000
1001
0000
0001
0100
0000
0010
1000
0000
,
1001
0000
0010
1000
0001
0000
0010
0000
1001
0000
0001
1000
0001
0000
0100
0000
,
1001
0000
0100
0001
1000
0000
0010
0000
0001
0000
0001
0010
1000
0000
0100
0000
,
1100
0000
0000
0000
0001
0000
1000
0000
0001
0000
0001
0010
1000
0000
0001
0000
,
1000
0000
0100
0000
0011
0000
1100
0000
1001
0000
0001
0100
0001
0000
0100
0000
,
0110
0000
0000
0000
1000
0000
0010
0000
0001
0000
0100
0010
1000
0000
0001
0000
,
1000
0000
0010
1000
0100
0000
0001
0000
1010
0000
0000
0101
0000
0000
0110
0000
,
1100
0000
0000
0000
0001
0000
1000
0000
0001
0000
0001
0010
1000
0000
0001
0000
,
1000
0000
0100
0000
0011
0000
1100
0000
1001
0000
0001
0100
0001
0000
0100
0000
,
0110
0001
0010
0001
1000
0001
0010
0100
1000
0010
0100
0010
1000
0010
0001
0010
,
0100
0010
0001
1000
0100
0001
0100
0001
1000
0100
0010
0001
0010
0100
1000
0010
,
0101
0000
0100
0000
1000
0000
0001
0000
1000
0000
0001
1000
0100
0000
0010
0000
,
0001
0000
0100
0000
1000
0000
0010
0000
0001
0000
0010
0100
0000
0010
1000
0000
,
0001
0000
0100
0000
0001
0000
0010
0000
0001
0000
0001
1000
0100
0000
0010
0000
,
0001
0000
0100
0000
1000
0000
0010
0000
0001
0000
0001
1000
0001
0010
1000
0000
,
0110
0000
0100
0000
0010
0000
0001
0000
1000
0000
0001
0010
1000
0000
0010
0000
,
0001
0000
0100
0000
1000
0000
0010
0000
0001
0000
0010
1000
0000
0100
0010
0000
,
1000
0000
0100
0000
0001
0000
0010
0000
0001
0000
0001
1000
0100
0000
0010
0000
,
0001
0000
0100
0010
1000
0000
0010
0000
0001
0000
0001
1000
0001
0010
1000
0000
,
0101
0000
0100
0000
1000
0000
0001
0000
1000
0000
0001
1000
0100
0000
0010
0000
,
0001
0000
0100
0000
1000
0000
0010
0000
0001
0000
0010
0100
0000
0010
1000
0000
,
0001
0000
0100
0000
0001
0000
0010
0000
0001
0000
0001
1000
0100
0000
0010
0000
,
0001
0000
0100
0000
1000
0000
0010
0000
0001
0000
0001
1000
0001
0010
1000
0000
,
0110
0000
0100
0000
0010
0000
0001
0000
1000
0000
0001
0010
1000
0000
0010
0000
,
0001
0000
0100
0000
1000
0000
0010
0000
0001
0000
0010
1000
0000
0100
0010
0000
,
1000
0000
0100
0000
0001
0000
0010
0000
0001
0000
0001
1000
0100
0000
0010
0000
,
0001
0010
0100
0010
1000
0100
0010
0100
0001
0100
0001
1000
0001
0010
1000
0001
,
1100
0000
1000
0000
1000
0000
0010
0000
0001
0000
0100
0000
0010
1000
0010
0000
,
0001
0001
1000
1000
0010
0010
0110
1001
,
1001
0000
0001
0000
0001
0000
0010
0000
0100
0000
0100
0000
0010
0001
1000
0000
,
1000
0000
0100
0000
0001
0000
1000
0000
0001
0000
1000
0000
0001
1000
0100
0001
,
1100
0000
1000
0000
1000
0000
0010
0000
0001
0000
0100
0000
0010
1000
0010
0000
,
0001
0001
1000
1000
0010
0010
0110
1001
,
1001
0000
0001
0000
0001
0000
0010
0000
0100
0000
0100
0000
0010
0001
1000
0000
,
1000
0000
0100
0010
0001
0100
1000
0000
0001
0000
1000
0010
0001
0000
0000
0000
,
1100
0000
1000
0000
1000
0000
0010
0000
0001
0000
0100
0000
0010
1000
0010
0000
,
0001
0001
1000
1000
0010
0010
0110
1001
,
1001
0000
0001
0000
0001
0000
0010
0000
0100
0000
0100
0000
0010
0001
1000
0000
,
1000
0000
0100
0000
0001
0000
1000
0000
0001
0000
1000
0000
0001
1000
0100
0001
,
1100
0000
1000
0000
1000
0000
0010
0000
0001
0000
0100
0000
0010
1000
0010
0000
,
0001
0001
1000
1000
0010
0010
0110
1001
,
1001
0000
0001
0000
0001
0000
0010
0000
0100
0000
0100
0000
0010
0001
1000
0000
,
1000
0000
0100
0010
0001
0100
1000
0000
0001
0000
1000
0010
0001
0000
0000
0000
,
0011
0000
1000
0000
1100
0000
0100
0000
1010
0000
0010
0100
0010
1000
0001
0000
,
1001
0000
0010
0000
0101
0000
1000
0000
0011
0000
0100
1000
0100
1000
0010
0000
,
0101
0000
0010
0000
1001
0000
0100
0000
1010
0000
0001
0010
0100
1000
0010
0000
,
1100
0000
0100
0000
0110
0000
0001
0000
0110
0000
0001
1000
0001
0100
0001
0000
,
1001
0000
0001
0000
0011
0000
0010
0000
1010
0000
0001
1000
0001
1000
0010
0000
,
1001
0000
0100
0000
0110
0000
0010
0000
1010
0000
0001
0010
0001
1000
0001
0000
,
0110
0000
1000
0000
0101
0000
0010
0000
0110
0000
0001
1000
0100
0010
0001
0000
,
1100
0000
0100
0001
0100
0000
0001
0000
0110
0000
0001
1000
0001
1000
0100
0000
,
0011
0000
1000
0000
1100
0000
0100
0000
1010
0000
0010
0100
0010
1000
0001
0000
,
1001
0000
0010
0000
0101
0000
1000
0000
0011
0000
0100
1000
0100
1000
0010
0000
,
0101
0000
0010
0000
1001
0000
0100
0000
1010
0000
0001
0010
0100
1000
0010
0000
,
1100
0000
0100
0000
0110
0000
0001
0000
0110
0000
0001
1000
0001
0100
0001
0000
,
1001
0000
0001
0000
0011
0000
0010
0000
1010
0000
0001
1000
0001
1000
0010
0000
,
1001
0000
0100
0000
0110
0000
0010
0000
1010
0000
0001
0010
0001
1000
0001
0000
,
0110
0000
1000
0000
0101
0000
0010
0000
0110
0000
0001
1000
0100
0010
0001
0000
,
1100
0010
0100
0001
0100
0010
0001
0100
0010
0100
0001
1000
0001
1000
0100
0010
,
2002
0000
0000
0000
0000
0000
0000
0000
0000
0000
0000
3003
0000
0000
0000
0000
,
2000
0000
0000
0000
,
0000
0000
0000
0000
,
0000
0000
0000
0000
,
0000
0000
0000
0000
0000
0000
0000
0000
0000
0000
0000
0000
0000
0000
3010
0001
0010
0100
1000
0001
0010
0100
1000
0001
0010
0000
0100
0000
1000
0000
0001
0000
,
0100
1000
0001
0010
1000
0000
0100
0000
0001
1000
0000
0010
0100
0000
0011
0000
,
0010
1000
0000
0010
1000
0000
0001
0000
0010
0001
0000
0010
1000
0000
0101
0000
,
0010
0000
0100
0000
0001
0000
1000
0000
0010
1000
0000
0001
0100
0000
0011
0000
,
0001
1000
0000
1000
0010
0000
0001
0000
1000
0100
0000
0001
0100
0000
0011
0000
,
1000
0000
0001
0000
0010
0000
1000
0000
0001
0100
0000
0010
0100
0000
0011
0000
,
0010
0100
0000
0010
1000
0000
0001
0000
0010
0100
0000
0001
1000
0000
0001
0000
,
0010
0000
0100
0000
0001
0000
1000
0000
0010
1000
0000
0001
0100
0000
1100
0000
,
0001
0010
0000
1000
0010
0000
0001
1000
0010
0001
0010
0001
1000
0000
0010
0000
,
0100
0000
0001
0000
1000
0000
0100
0000
0001
1000
0000
0010
0100
0000
0011
0000
,
0010
1000
0000
0010
1000
0000
0001
0000
0010
0001
0000
0010
1000
0000
0101
0000
,
0010
0000
0100
0000
0001
0000
1000
0000
0010
1000
0000
0001
0100
0000
0011
0000
,
0001
1000
0000
1000
0010
0000
0001
0000
1000
0100
0000
0001
0100
0000
0011
0000
,
1000
0000
0001
0000
0010
0000
1000
0000
0001
0100
0000
0010
0100
0000
0011
0000
,
0010
0100
0000
0010
1000
0000
0001
0000
0010
0100
0000
0001
1000
0000
0001
0000
,
0010
0000
0100
0000
0001
0000
1000
0000
0010
1000
0000
0001
0100
0000
1100
0000
,
0001
0010
0000
1000
0010
0000
0001
0000
0010
0000
0010
0000
1000
0000
0010
1000
,
0100
0000
0001
0100
1000
0000
0010
0000
0001
0000
1000
0000
1000
0000
0001
0010
,
1000
0001
1000
0000
0100
0000
0010
0000
0100
0000
0010
0000
0100
0000
1000
0001
,
0010
0100
0010
0000
0100
0000
0001
0000
0010
0000
1000
0000
0001
0000
0001
0100
,
1000
0100
0010
0000
1000
0000
0001
0000
0010
0000
0001
0010
0100
1000
0001
0100
,
1000
0001
0100
0000
0010
0000
0010
0000
0100
0000
1000
0000
0001
0000
0001
0010
,
1000
0001
1000
0000
0100
0000
0010
0000
0100
0000
0001
0000
0100
0000
1000
0001
,
0010
0100
0001
0000
0100
0000
1000
0000
0010
0000
1000
0000
0001
0000
0010
0100
,
1000
0100
0001
0000
1000
0000
1000
0000
0001
0000
1000
0000
0001
0000
0010
0100
,
1000
0001
1000
0000
1000
0000
0010
0000
0001
0000
1000
0000
1000
0000
0001
0010
,
1000
0001
1000
0000
0100
0000
0010
0000
0100
0000
0010
0000
0100
0000
1000
0001
,
0010
0100
0010
0000
0100
0000
0001
0000
0010
0000
1000
0000
0001
0000
0001
0100
,
1000
0100
0010
0000
1000
0000
0001
0000
0010
0000
0001
0010
0100
1000
0001
0100
,
1000
0001
0100
0000
0010
0000
0010
0000
0100
0000
1000
0000
0001
0000
0001
0010
,
1000
0001
1000
0000
0100
0000
0010
0000
0100
0000
0001
0000
0100
0000
1000
0001
,
0010
0100
0001
0000
0100
0000
1000
0000
0010
0000
1000
0000
0001
0000
0010
0100
,
1000
0100
0001
0000
1000
0010
1000
0010
0001
0100
1000
0100
0001
0100
0010
0100
,
1000
0001
1000
0000
0011
0000
0000
0000
1010
0000
0000
0000
0101
0000
0000
0000
,
1001
0101
1010
1001
,
0110
1010
0110
0101
,
1001
1100
0011
1001
,
1001
0011
1010
0101
,
1001
0101
1010
1001
,
0110
1010
0110
0101
,
1001
1100
0011
1001
,
1001
0010
0001
0010
1000
0000
0100
0000
0010
0000
0001
0000
0100
0000
1000
0000
,
0001
0100
0001
0000
1000
0000
0010
0000
0100
0000
0100
0000
0001
0000
1000
0000
,
0010
0100
1000
0000
0010
0000
0100
0000
0010
0000
0001
0000
0100
0000
1000
0000
,
0001
0100
0001
0000
1000
0000
0010
0000
0100
0000
0100
0010
0001
0000
0001
1000
,
0001
0100
1000
0001
0100
0000
0100
0000
0010
0000
0001
0000
0100
0000
1000
0000
,
0001
0100
0001
0000
1000
0000
0010
0000
0100
0000
0100
0000
0001
0000
1000
0000
,
0010
0100
1000
0000
0010
0000
0100
0000
0010
0000
0001
0000
0100
0000
1000
0000
,
0001
0100
0001
0000
1000
0100
0010
0001
0100
0010
0100
0010
0001
0100
0001
0100
,
1000
0001
0100
0010
0001
0000
0010
0001
1000
0000
0100
1000
0001
1000
0001
0010
,
0100
0010
0100
0010
0000
0000
1000
0000
0001
0100
1000
0000
0001
0000
0100
0000
,
1000
0001
0100
1000
0001
0000
0010
1000
0001
0000
0100
0010
1000
0010
0100
0001
,
0100
0001
1000
0010
0000
0000
0001
0000
0100
0000
0010
0000
1010
0000
0000
0101
,
0000
0000
1100
0000
0101
0000
0001
0010
0001
0000
0010
0100
0010
1000
0001
1000
,
0100
0001
0100
0001
0000
0000
1000
0000
0010
0001
1000
0000
0010
0000
0100
0000
,
0001
0010
0100
1000
0001
0000
0100
0010
0100
0000
0001
0010
1000
0001
0100
0010
,
1000
0010
0100
0010
1100
0000
0000
0101
0000
0000
0011
0000
1100
0000
0000
0101
,
0000
0000
1010
0000
0101
0000
0010
0001
1000
0000
0100
1000
0001
1000
0001
0010
,
0100
0010
0100
0010
0000
0000
1000
0000
0001
0100
1000
0000
0001
0000
0100
0000
,
1000
0001
0100
1000
0001
0000
0010
1000
0001
0000
0100
0010
1000
0010
0100
0001
,
0100
0001
1000
0010
0000
0000
0001
0000
0100
0000
0010
0000
1010
0000
0000
0101
,
0000
0000
1100
0000
0101
0000
0001
0010
0001
0000
0010
0100
0010
1000
0001
1000
,
0100
0001
0100
0001
0000
0000
1000
0000
0010
0001
1000
0000
0010
0000
0100
0000
,
0001
0010
0100
1000
0001
0000
0100
0010
0100
0000
0001
0010
1000
0001
0100
0010
,
1000
0010
0100
0010
1100
0000
0000
0101
0000
0000
0011
0000
1100
0000
0000
0101
,
0000
0000
1010
0000
0101
0000
0010
0001
1000
0000
0100
1000
0001
1000
0001
0010
,
0100
0010
0100
0010
0000
0000
1000
0000
0001
0100
1000
0000
0001
0000
0100
0000
,
1000
0001
0100
1000
0001
0000
0010
1000
0001
0000
0100
0010
1000
0010
0100
0001
,
0100
0001
1000
0010
0000
0000
0001
0000
0100
0000
0010
0000
1010
0000
0000
0101
,
0000
0000
1100
0000
0101
0000
0001
0010
0001
0000
0010
0100
0010
1000
0001
1000
,
0100
0001
0100
0001
0000
0000
1000
0000
0010
0001
1000
0000
0010
0000
0100
0000
,
0001
0010
0100
1000
0001
0000
0100
0010
0100
0000
0001
0010
1000
0001
0100
0010
,
1000
0010
0100
0010
1100
0000
0000
0101
0000
0000
0011
0000
1100
0000
0000
0101
,
0000
0000
1010
0000
0101
0000
0010
0001
1000
0000
0100
1000
0001
1000
0001
0010
,
0100
0010
0100
0010
0000
0000
1000
0000
0001
0100
1000
0000
0001
0000
0100
0000
,
1000
0001
0100
1000
0001
0000
0010
1000
0001
0000
0100
0010
1000
0010
0100
0001
,
0100
0001
1000
0010
0000
0000
0001
0000
0100
0000
0010
0000
1010
0000
0000
0101
,
0000
0000
1100
0000
0101
0000
0001
0010
0001
0000
0010
0100
0010
1000
0001
1000
,
0100
0001
0100
0001
0000
0000
1000
0000
0010
0001
1000
0000
0010
0000
0100
0000
,
0001
0010
0100
0000
0001
0010
0100
0010
0100
1000
0001
0010
1000
0001
0100
0010
,
1000
0010
0100
0010
1100
0000
0000
0101
0000
0000
0011
0000
1100
0000
0000
0101
,
0000
1010
0000
0000
0000
0000
0000
0000
;

//---------------dance-single - ----------------
#NOTES:
     dance-single:
     :
     Easy:
     9:
     0.790,0.796,0.708,0.010,0.087,1433.000,211.000,3.000,0.000,0.000:
0000
0000
0000
0000
,
0000
0000
0000
0000
,
0000
0000
0000
0000
,
0000
0000
0000
0000
,
0000
0000
0000
0000
,
0000
0000
0000
0000
,
0000
0000
0000
0000
,
0000
0000
0000
0000
,
0010
1000
0100
0000
0100
0000
0010
0000
,
0100
0100
0101
0000
0100
0001
0000
0100
,
1000
1000
0011
0000
0100
0010
0100
0000
,
0010
1000
0010
0000
0100
0001
0000
0100
,
1010
1000
0100
0000
0100
0000
0010
0000
,
0100
0100
0101
0000
0100
0001
0000
0100
,
1000
1000
0011
0000
0100
0010
0100
0000
,
0010
1000
0010
0000
0100
0001
0100
0000
,
1010
0110
0101
1001
,
1010
0000
0101
0000
1001
0000
0101
0100
,
1100
0101
1001
1010
,
0011
0000
0110
0000
1001
0000
0011
0010
,
1010
0110
0101
1001
,
1010
0000
0101
0000
1001
0000
0101
0100
,
1100
0101
1001
1010
,
0011
0000
0110
0000
1001
0000
0011
0010
,
0100
0100
1000
0001
1000
0010
0100
0001
,
0100
0100
0010
1000
0010
0001
1000
0001
,
1000
0010
0010
0001
0100
0001
1000
0010
,
0001
0010
0010
1000
0010
0100
0010
1000
,
0100
0100
1000
0001
1000
0010
0100
0001
,
0100
0100
0010
1000
0010
0001
1000
0001
,
1000
0010
0010
0001
0100
0001
1000
0010
,
0001
0010
0010
1000
0010
0100
0010
1000
,
0100
0100
1000
0001
1000
0010
0100
0001
,
0100
0100
0010
1000
0010
0001
1000
0001
,
1000
0010
0010
0001
0100
0001
1000
0010
,
0001
0010
0010
1000
0010
0100
0010
1000
,
0100
0100
1000
0001
1000
0010
0100
0001
,
0100
0100
0010
1000
0010
0001
1000
0001
,
1000
0010
0010
0001
0100
0001
1000
0010
,
0001
0010
0010
1000
0010
0100
0010
1000
,
0101
0000
1100
0000
0100
0001
0100
0010
,
0100
0100
0011
1000
0110
0100
0010
1000
,
0101
0000
1010
0000
0100
0001
0001
1000
,
0010
0000
0100
0000
1000
0000
0010
0000
0100
0000
0000
0100
0000
0000
0100
0000
,
0011
0000
1010
0000
0001
0100
0010
0010
,
1000
0010
1100
0010
0101
0100
1000
0001
,
1010
0000
0011
0000
0100
1000
0010
0100
,
0100
0000
0000
0010
0000
0000
0001
0000
0001
0000
0000
0100
0000
0000
0110
0000
,
0101
0000
1100
0000
0100
0001
0100
0010
,
0100
0100
0011
1000
0110
0100
0010
1000
,
0101
0000
1010
0000
0100
0001
0001
1000
,
0010
0000
0100
0000
1000
0000
0010
0000
0100
0000
0000
0100
0000
0000
0100
0000
,
0011
0000
1010
0000
0001
0100
0010
0010
,
1000
0010
1100
0010
0101
0100
1000
0001
,
1010
0000
0011
0000
0100
1000
0010
0100
,
0100
0000
0000
0010
0000
0000
0001
0000
0001
0000
0000
0100
0000
0000
0110
0000
,
0100
0001
1000
0010
,
0100
0010
0100
0010
,
1000
0010
0001
0010
,
0100
0010
1000
0001
,
0100
0001
1000
0010
,
0100
0010
0100
0010
,
1000
0010
0001
0010
,
0100
0010
1000
0001
,
0100
0001
1000
0010
,
0100
0010
0100
0010
,
1000
0010
0001
0010
,
0100
0010
1000
0001
,
0100
0001
1000
0010
,
0100
0010
0100
0010
,
1000
0010
0001
0010
,
0100
0010
0010
0010
1000
0100
0001
0100
,
1000
0000
0000
0100
0000
0000
0001
0000
1100
0000
0000
0100
0000
0000
0010
0000
,
0101
0000
0000
0010
0000
0000
0100
0000
1100
0000
0000
0100
0000
0000
0001
0000
,
1010
0000
0000
0100
0000
0000
1000
0000
0011
0000
0000
0010
0000
0000
0010
0000
,
1010
0000
0000
0100
0000
0000
0001
0000
1000
0000
0000
0100
0000
0000
0010
0000
,
1000
0000
0000
0100
0000
0000
0001
0000
1100
0000
0000
0100
0000
0000
0010
0000
,
0101
0000
0000
0010
0000
0000
0100
0000
1100
0000
0000
0100
0000
0000
0001
0000
,
1010
0000
0000
0100
0000
0000
1000
0000
0011
0000
0000
0010
0000
0000
0010
0000
,
1010
0100
0010
0001
1000
0010
0100
0000
,
0101
0000
0001
0100
1000
0100
0001
0010
,
0100
0000
1000
0000
0100
0000
0001
0000
0100
0000
0000
1000
0000
0000
0100
0000
,
0010
0000
0100
0010
0001
0100
0010
0100
,
1000
0000
0001
0000
0100
0000
0100
0000
1000
0000
0000
0001
0000
0000
1000
0000
,
0001
0000
0001
0100
1000
0100
0001
0010
,
0100
0000
1000
0000
0100
0000
0001
0000
0100
0000
0000
1000
0000
0000
0100
0000
,
0010
0000
0100
0010
0001
0100
0010
0100
,
1000
0001
0100
0010
1000
0001
0100
0000
,
0100
0000
0000
0100
0000
0000
0100
0000
0100
0000
0000
0010
0000
0000
0100
0000
,
0100
0000
0000
0010
0000
0000
0100
0000
1000
0000
0000
0001
0000
0000
0100
0000
,
0010
0000
0000
1000
0000
0000
0010
0000
0100
0000
0000
1000
0000
0000
0100
0000
,
0010
0000
0000
1000
0000
0000
0100
0000
0001
0000
0000
0010
0000
0000
0100
0000
,
0100
0000
0000
0100
0000
0000
0100
0000
0100
0000
0000
0010
0000
0000
0100
0000
,
0100
0000
0000
0010
0000
0000
0100
0000
1000
0000
0000
0001
0000
0000
0100
0000
,
0010
0000
0000
1000
0000
0000
0010
0000
0100
0000
0000
1000
0000
0000
0100
0000
,
0010
1000
0010
0100
0001
1000
0010
0000
,
0100
0000
0000
0000
0100
0000
0001
0000
0100
0000
0000
0010
0000
0000
0100
0000
,
1000
0000
0010
0000
1000
0000
0010
0000
0100
0000
0000
0010
0000
0000
0001
0000
,
1000
0000
0001
1000
0001
0100
0010
0001
,
1000
0000
0001
0000
1000
0000
0010
0000
0100
0000
0000
1000
0000
0000
0001
0000
,
0100
0100
0010
0100
0010
1000
0001
0010
,
0100
1000
0100
0010
0100
0001
0100
1000
,
0100
0010
0100
0010
1000
0010
0100
0001
,
0200
0000
0000
0300
,
0010
0100
0100
0010
,
0001
0100
1000
0010
,
0100
1000
1000
0001
,
0010
0100
0010
1000
,
0010
0100
0100
0010
,
0001
0100
1000
0010
,
0100
1000
1000
0001
,
0010
0100
0010
1000
,
0010
0100
0100
0010
,
0001
0100
1000
0010
,
0100
1000
1000
0001
,
0010
0100
0010
1000
,
0010
0100
0100
0010
,
0001
0100
1000
0010
,
0100
1000
1000
0001
,
0010
0100
0100
0010
0010
0100
1000
0000
,
0101
0100
0001
0100
1000
0100
0010
1000
,
0011
0100
1000
0100
0010
1000
0010
0100
,
1010
0100
0001
0100
0001
1000
0100
0001
,
0010
0001
0010
0001
0100
1000
0010
1000
,
0011
0010
1000
0010
0001
0100
0001
1000
,
0101
0010
1000
0100
0001
1000
0100
0010
,
1100
0010
0100
0010
0001
1000
0100
0001
,
1000
0001
0100
1000
0100
1000
0010
0000
,
0101
0100
0001
0100
1000
0100
0010
1000
,
0011
0100
1000
0100
0010
1000
0010
0100
,
1010
0100
0001
0100
0001
1000
0100
0001
,
0010
0001
0010
0001
0100
1000
0010
1000
,
0011
0010
1000
0010
0001
0100
0001
1000
,
0101
0010
1000
0100
0001
1000
0100
0010
,
1100
0010
0100
0010
0001
1000
0100
0001
,
1000
0001
0100
1000
0100
1000
0010
0000
,
0101
0100
0001
0100
1000
0100
0010
1000
,
0011
0100
1000
0100
0010
1000
0010
0100
,
1010
0100
0001
0100
0001
1000
0100
0001
,
0010
0001
0010
0001
0100
1000
0010
1000
,
0011
0010
1000
0010
0001
0100
0001
1000
,
0101
0010
1000
0100
0001
1000
0100
0010
,
1100
0010
0100
0010
0001
1000
0100
0001
,
1000
0001
0100
1000
0100
1000
0010
0000
,
0101
0100
0001
0100
1000
0100
0010
1000
,
0011
0100
1000
0100
0010
1000
0010
0100
,
1010
0100
0001
0100
0001
1000
0100
0001
,
0010
0001
0010
0001
0100
1000
0010
1000
,
0011
0010
1000
0010
0001
0100
0001
1000
,
0101
0010
1000
0100
0001
1000
0100
0010
,
1100
0010
0100
0010
0001
1000
0100
0001
,
1000
0001
0100
1000
0100
1000
0010
0000
,
2000
0000
0000
0000
0000
0000
0000
3000
,
2000
0000
0000
0000
,
0000
0000
0000
0000
,
0000
0000
0000
0000
,
0000
0000
0000
3000
,
0000
0000
1000
0010
0100
1000
0010
0100
,
1000
0010
0100
1000
0010
0100
0010
0010
,
0100
0000
0010
1000
0001
0100
0010
1000
,
0001
0100
0010
1000
0001
0100
0100
0010
,
0100
0000
1000
0001
0100
1000
0010
0100
,
1000
0001
0100
1000
0010
0100
1000
1000
,
0010
0000
0100
1000
0010
0100
0100
1000
,
0001
0100
0010
1000
0001
1000
0001
1000
,
0010
0000
1000
0010
0100
1000
0010
0100
,
1000
0010
0100
1000
0010
0100
0010
0010
,
0100
0000
0010
1000
0001
0100
0010
1000
,
0001
0100
0010
1000
0001
0100
0100
0010
,
0100
0000
1000
0001
0100
1000
0010
0100
,
1000
0001
0100
1000
0010
0100
1000
1000
,
0010
0000
0100
1000
0010
0100
0100
1000
,
0001
0100
0010
1000
0001
1000
0001
1000
,
0010
0000
1000
0010
0100
1000
0010
0100
,
1000
0010
0100
1000
0010
0100
0010
0010
,
0100
0000
0010
1000
0001
0100
0010
1000
,
0001
0100
0010
1000
0001
0100
0100
0010
,
0100
0000
1000
0001
0100
1000
0010
0100
,
1000
0001
0100
1000
0010
0100
1000
1000
,
0010
0000
0100
1000
0010
0100
0100
1000
,
0001
0100
0010
1000
0001
1000
0001
1000
,
0010
0000
1000
0010
0100
1000
0010
0100
,
1000
0010
0100
1000
0010
0100
0010
0010
,
0100
0000
0010
1000
0001
0100
0010
1000
,
0001
0100
0010
1000
0001
0100
0100
0010
,
0100
0000
1000
0001
0100
1000
0010
0100
,
1000
0001
0100
1000
0010
0100
1000
1000
,
0010
0000
0100
1000
0010
0100
0100
1000
,
0001
0100
0010
1000
0001
1000
0001
1000
,
0010
1010
0110
0101
,
1001
1010
0101
1001
,
0101
1100
0101
1001
,
1010
0011
0110
1001
,
0011
1010
0110
0101
,
1001
1010
0101
1001
,
0101
1100
0101
1001
,
1010
0011
0110
1001
,
0011
1010
0110
0101
,
1001
1010
0101
1001
,
0101
1100
0101
1001
,
1010
0011
0110
1001
,
0011
1010
0110
0101
,
1001
1010
0101
1001
,
0101
1100
0101
1001
,
1010
0000
0001
0010
0100
1000
0001
1000
,
0001
0010
0101
0000
1100
0000
0100
0001
,
0100
0010
0100
0100
0011
1000
0110
0100
,
0010
1000
0101
0000
1010
0000
0100
0001
,
0001
0000
1000
0000
0010
0000
0100
0000
1000
0000
0010
0000
0100
0000
0000
0100
,
0000
0100
0011
0000
1010
0000
0001
0100
,
0010
0010
1000
0010
1100
0010
0101
0100
,
1000
0001
1010
0000
0011
0000
0100
1000
,
0010
0000
0100
0000
0100
0000
0000
0010
0000
0000
0001
0000
0001
0000
0000
0100
,
0000
0110
0101
0000
1100
0000
0100
0001
,
0100
0010
0100
0100
0011
1000
0110
0100
,
0010
1000
0101
0000
1010
0000
0100
0001
,
0001
0000
1000
0000
0010
0000
0100
0000
1000
0000
0010
0000
0100
0000
0000
0100
,
0000
0100
0011
0000
1010
0000
0001
0100
,
0010
0010
1000
0010
1100
0010
0101
0100
,
1000
0001
1010
0000
0011
0000
0100
1000
,
0010
0000
0100
0000
0100
0000
0000
0010
0000
0000
0001
0000
0001
0000
0000
0100
,
0000
0110
0101
0000
1100
0000
0100
0001
,
0100
0010
0100
0100
0011
1000
0110
0100
,
0010
1000
0101
0000
1010
0000
0100
0001
,
0001
0000
1000
0000
0010
0000
0100
0000
1000
0000
0010
0000
0100
0000
0000
0100
,
0000
0100
0011
0000
1010
0000
0001
0100
,
0010
0010
1000
0010
1100
0010
0101
0100
,
1000
0001
1010
0000
0011
0000
0100
1000
,
0010
0000
0100
0000
0100
0000
0000
0010
0000
0000
0001
0000
0001
0000
0000
0100
,
0000
0110
0101
0000
1100
0000
0100
0001
,
0100
0010
0100
0100
0011
1000
0110
0100
,
0010
1000
0101
0000
1010
0000
0100
0001
,
0001
0000
1000
0000
0010
0000
0100
0000
1000
0000
0010
0000
0100
0000
0000
0100
,
0000
0100
0011
0000
1010
0000
0001
0100
,
0010
0010
1000
0010
1100
0010
0101
0100
,
1000
0001
1010
0010
0100
1000
0100
0010
,
0001
0000
0100
0000
1000
0000
0000
0010
0000
0000
0001
0000
0001
0000
0000
0100
,
0000
0110
0000
0000
0000
0000
0000
0000
;
