#TITLE:Chipland;
#SUBTITLE:;
#ARTIST:nanobii;
#TITLETRANSLIT:;
#SUBTITLETRANSLIT:;
#ARTISTTRANSLIT:;
#CREDIT:owenviau1;
#BANNER:../Banner.PNG;
#BACKGROUND:../BG.PNG;
#LYRICSPATH:;
#CDTITLE:../CDTitleOV1.png;
#MUSIC:nanobii - Chipland.ogg;
#OFFSET:-0.067;
#SAMPLESTART:44.193;
#SAMPLELENGTH:29.999;
#SELECTABLE:YES;
#BPMS:0.000=174.000;
#STOPS:;
#BGCHANGES:;
// cache tags:
#FIRSTBEAT:0.000;
#LASTBEAT:545.500;
#SONGFILENAME:Songs/Index Fusion - Part 2/Chipland - [Owen]/Chipland.sm;
#HASMUSIC:1;
#HASBANNER:1;
#MUSICLENGTH:190.426;
// end cache tags

//---------------dance-single - owenviau1----------------
#NOTES:
     dance-single:
     owenviau1:
     Challenge:
     15:
     1.000,1.000,0.121,0.740,1.000,1347.000,23.000,141.000,167.000,0.000:
MMMM
0000
0000
0000
0000
0000
2000
3000
2000
0000
0000
0000
3200
0000
0320
0000
,
0000
0000
0000
0000
0032
0000
0000
0000
0003
0000
0000
0000
1000
0020
0000
0000
0000
0000
0000
0000
0230
0000
0000
0000
0300
0000
0000
0000
0002
0000
0000
0000
,
0000
0000
0000
0M00
0M03
0000
00M0
M000
,
0000
0000
0000
0000
000M
0000
0000
0000
0000
0000
0000
0000
0M00
00M0
0000
0000
0000
0000
0000
0000
M000
0000
0000
0000
0000
0000
0000
0000
00M0
0000
00M0
0000
,
00M0
00M0
00M0
00M0
00M0
0000
0200
0300
0200
0000
0000
0000
0302
0000
2003
0000
,
0000
0000
0000
0000
3020
0000
0000
0000
0030
0000
0000
0000
0100
0002
0000
0000
0000
0000
0000
0000
2003
0000
0000
0000
3000
0000
0000
0000
0100
0040
0000
0000
,
0000
0000
0000
0000
0000
0000
0000
0000
0000
0032
0000
0000
0003
0000
0000
1000
0020
0000
0000
0000
0000
0230
0000
0000
,
0000
0000
0000
0000
0000
0000
0000
0000
000M
00M0
M000
000M
00M0
0000
0000
0000
030M
M000
00M0
0000
M000
0M00
00M0
000M
M000
0M00
00M0
000M
00M0
0M00
M000
0M00
,
00M0
000M
M000
0M00
00M0
0000
0000
0000
0004
0000
0003
0000
0002
0000
0000
0000
0000
0000
0000
0000
2003
0000
0000
0000
3000
0000
0000
0000
0100
0020
0000
0000
,
0000
0000
0000
0000
0032
0000
0000
0000
0003
0000
0000
0000
1000
0040
0000
0000
0000
0000
0000
0000
0230
0000
0000
0000
0300
0000
0000
0000
0002
0000
0000
0000
,
0000
0000
0000
0000
0000
0000
0000
0000
0000
0000
0000
0000
0003
0000
0000
0000
0000
0000
0000
0000
1000
0200
0000
0000
0320
0000
0000
0000
0032
0000
0000
0000
,
0000
0000
0000
0000
0000
0000
0000
0000
0000
0000
0000
0000
00M3
0000
0000
0000
M000
0M00
00M0
000M
M000
0M00
00M0
000M
2000
0000
0000
0000
3020
0000
0000
0000
,
0230
0000
0000
0000
0000
0000
0000
0000
0302
0000
0003
0000
0002
0000
0000
0000
0003
0000
0000
0000
1000
0020
0000
0000
0000
0000
0000
0000
0230
0000
0000
0000
,
0000
0000
0000
0000
0000
0000
0000
0000
0302
0000
0000
0000
2003
0000
0000
0000
3000
0000
0000
0000
0001
0020
0000
0000
0000
0000
0000
0000
0230
0000
0000
0000
,
0000
0000
0000
2300
0000
3002
00M3
0200
,
0000
0000
M000
0320
0030
M000
0M00
00M0
,
1MM1
1000
0100
0020
0000
0000
0031
0100
,
M11M
0010
1000
0002
0000
0000
0013
0100
,
11MM
1000
0010
M21M
0000
0000
0301
1000
,
0040
0130
0001
0200
0000
0000
0301
1000
,
1M1M
0010
0100
0002
0000
0000
1003
0010
,
M11M
0100
0001
2000
0000
0000
3100
0010
,
MM11
0001
1000
1M2M
0000
0000
0130
0001
,
4000
3100
1000
0002
0000
0000
0103
0010
,
100M
0010
0100
0001
0100
0010
1000
0001
1000
0100
0010
0001
1000
0100
1000
0001
,
0010
0100
1000
0001
0010
0001
0100
0010
1000
0001
0100
0001
1000
0100
0010
0100
,
1000
0001
0100
0010
0100
0001
1000
0010
0100
0001
0100
0010
1000
0001
1000
0100
,
0010
0001
1000
0010
1000
0001
0100
0001
1000
0100
1000
0001
0010
0100
1000
0001
,
0100
0001
0010
0100
1000
0001
1000
0010
0100
0001
0100
0010
1000
0001
1000
0100
,
0010
0001
1000
0100
1000
0001
0010
0001
0100
0010
1000
0001
0100
0010
0100
0001
,
1000
0010
1000
0001
0100
0010
0100
0001
1000
0100
1000
0010
0100
0001
1000
0001
,
0010
0000
0100
0000
1000
00M0
0002
0000
0000
0M00
0000
0M00
1003
0000
0010
0000
,
100M
0100
0010
0001
0100
0010
0100
0001
1000
0010
0100
0001
1000
0100
0010
0001
,
1000
0100
1000
0001
0010
0100
0010
0001
1000
0010
0100
0001
0100
0010
1000
0001
,
1000
0100
0010
0001
0100
0010
1000
0001
0100
0001
0010
0100
1000
0001
0010
0001
,
0100
0010
1000
0010
0100
0001
1000
0001
0100
0010
0100
0001
1000
0100
1000
0001
,
0010
0100
1000
0001
0010
0001
0100
0010
0100
0001
1000
0010
1000
0001
0100
0010
,
0100
0001
1000
0100
1000
0001
0010
0001
0100
0010
1000
0010
0100
0001
1000
0001
,
0100
0010
0100
0001
1000
0100
0010
0001
1000
0100
1000
0001
0010
0001
0100
0010
,
0100
0001
1000
0010
0100
0010
1000
0001
0100
0010
1000
0001
0010
0100
0010
0100
,
10M0
0001
0100
0010
0100
0001
1000
0100
0010
0001
1000
0010
1000
0001
0100
0010
,
0100
0001
1000
0100
1000
0001
0100
0010
1000
0001
0100
0001
0010
0100
1000
0001
,
0010
0001
1000
0010
0100
0010
1000
0001
1000
0100
0010
0001
1000
0001
0100
0010
,
0100
0001
1000
0010
1000
0001
0100
0010
0100
0001
1000
0100
0010
0001
1000
0100
,
1000
0001
0010
0001
0100
0010
1000
0010
0100
0001
1000
0010
0100
0010
1000
0001
,
0100
0001
1000
0100
0010
0001
0100
0010
0100
0001
1000
0010
0100
0001
0100
0001
,
10M0
0100
1000
0001
0100
0001
1000
0100
1000
0010
0100
0010
1000
0001
1000
0100
,
0010
0001
0010
0100
1000
0001
1000
0100
0010
0001
1000
0010
M000
0000
000M
0000
,
1M0M
0010
0100
0001
0100
0010
1000
0001
1000
0100
0010
0001
1000
0100
1000
0001
,
0100
0010
0100
0001
1000
0010
0100
0001
0100
0010
1000
0001
1000
0100
0010
0001
,
1000
0010
0100
0001
0100
0010
1000
0001
1000
0100
0010
0001
1000
0010
0100
0010
,
1000
0001
0100
0001
0010
0100
1000
0001
0010
0001
0100
0010
1000
0010
0100
0001
,
1000
0100
1000
0010
0100
0001
1000
0001
0010
0100
1000
0001
0010
0001
0100
0010
,
0100
0001
1000
0010
1000
0001
0100
0010
1000
0001
1000
0100
0010
0001
1000
0100
,
1000
0001
0100
0010
0100
0001
1000
0010
0100
0001
1000
0001
0010
0100
1000
0001
,
0010
0001
0100
0010
0100
0001
1000
0100
0010
0001
1000
0010
1000
0000
0001
0000
,
0100
0010
1000
0001
1000
0100
0010
0001
1000
0100
1000
0001
0100
0010
1000
0001
,
0100
0001
0010
0100
1000
0001
0010
0001
0100
0010
0100
0001
1000
0010
1000
0100
,
0010
0001
1000
0100
1000
0001
0100
0010
1000
0010
0100
0001
1000
0001
0100
0010
,
0100
0001
1000
0010
1000
0100
0010
0001
1000
0100
1000
0001
0100
0010
0100
0001
,
1000
0010
0100
0001
0100
0010
1000
0001
1000
0100
0010
0001
1000
0010
0100
0001
,
0100
0010
1000
0001
1000
0010
0100
0001
0010
0001
1000
0000
0100
0000
0010
0000
,
0012
0000
0000
0000
2003
3000
2000
0000
3000
0000
0020
0000
0230
0000
0302
0000
,
0000
0000
0000
0000
2003
0000
3020
0000
0030
0000
M200
00M0
000M
M000
03M0
0000
,
1MM2
0000
0000
0000
,
0000
0000
0000
0000
0000
M000
0M00
0000
0000
0000
0000
M000
0M00
00M0
0M00
M000
,
0003
0000
0000
0000
M000
00M0
0000
0000
0000
0000
0M00
00M0
0002
0000
2003
0000
,
0000
0000
3020
0230
0300
0002
0000
2003
,
0000
0000
0000
0000
0000
3000
0020
0230
,
0000
0000
0000
0000
0302
0000
2003
0000
3000
0000
0200
0000
0000
0300
0200
0300
,
0200
0000
0000
0000
0000
0000
2300
3002
,
0000
0000
0000
0000
2003
0000
3020
0000
0030
0000
0200
0000
0000
0300
0200
0300
,
M2M2
0300
0000
0000
0000
0000
2003
3200
,
0000
0000
0000
0000
0000
0000
0000
0000
2300
0000
0000
0000
3020
0000
0000
0000
0030
0000
0000
0000
0100
0002
0000
0000
0000
0000
0000
0000
2003
0000
0000
0000
,
0000
0000
0000
0000
0000
3000
0020
0230
,
0000
0000
0000
0000
0302
0000
0023
0000
0030
0000
0200
0000
0000
0000
4300
3000
,
4000
0000
0000
0000
0000
0000
3002
0203
,
0000
0000
0000
0000
0000
0000
0000
0300
0020
0000
0000
0000
2030
0000
0000
0000
3000
0000
0000
0000
0010
0200
0000
0000
0000
0000
0000
0000
0302
0000
0000
0000
,
0000
0000
0000
0000
0000
2000
3003
0000
,
0000
0000
0000
0000
0000
0000
0000
0000
0000
0000
0000
0000
1000
0200
0000
0000
0000
0000
0000
0000
0320
0000
0000
0000
0000
0000
0000
0000
0000
0000
0000
0000
,
0031
1000
0001
0100
0000
0000
0010
0100
,
0010
1000
0001
0100
0000
0000
0010
1000
,
0100
1000
0001
0010
0000
0000
0100
1000
,
0002
0203
0320
0230
0000
0000
0301
1000
,
0010
1000
0100
0020
0000
0000
0031
1000
,
0010
0100
0010
2000
0000
0000
3100
0010
,
0001
1000
0001
0200
0000
0000
0320
2030
,
3004
0023
0032
0203
0000
0000
0310
1000
,
0001
0100
0010
1000
0010
0100
0001
1000
0100
1000
0001
0010
0100
1000
0001
0010
,
0001
0100
0010
1000
0001
0100
0001
1000
0010
0100
0010
1000
0001
1000
0100
0010
,
0001
1000
0100
1000
0010
0100
0001
1000
0001
0100
0010
1000
0010
0100
0001
1000
,
0100
0010
0001
1000
0100
1000
0001
0010
0100
1000
0001
0100
0010
1000
0001
0010
,
0100
0010
0001
1000
0100
1000
0010
0100
0001
1000
0010
0100
0010
1000
0001
0100
,
0001
1000
0100
0010
0001
1000
0010
0100
0010
1000
0001
1000
0100
0000
0010
0000
,
MM12
0000
0000
0000
2003
3000
4000
0000
3000
0000
2020
3030
0000
0000
0220
0000
,
0300
0000
0000
0000
0M00
000M
0000
0000
0000
0000
0030
0000
1000
0000
0001
0000
,
1M00
0010
1000
0001
0100
0010
0100
0001
1000
0010
0100
0001
1000
0100
0010
0001
,
1000
0100
1000
0001
0010
0100
0010
0001
1000
0010
0100
0001
0100
0010
1000
0001
,
1000
0100
0010
0001
0100
0010
1000
0001
0100
0001
0010
0100
1000
0001
0010
0001
,
0100
0010
1000
0010
0100
0001
1000
0001
0100
0010
0100
0001
1000
0100
1000
0001
,
0010
0100
1000
0001
0010
0001
0100
0010
0100
0001
1000
0010
1000
0001
0100
0010
,
0100
0001
1000
0100
1000
0001
0010
0001
0100
0010
1000
0010
0100
0001
1000
0001
,
0100
0010
0100
0001
1000
0100
0010
0001
1000
0100
1000
0001
0010
0001
0100
0010
,
0100
0001
1000
0010
0100
0010
1000
0001
0100
0010
1000
0001
0010
0100
0010
0100
,
10M0
0001
0100
0010
0100
0001
1000
0100
0010
0001
1000
0010
1000
0001
0100
0010
,
0100
0001
1000
0100
1000
0001
0100
0010
1000
0001
0100
0001
0010
0100
1000
0001
,
0010
0001
1000
0010
0100
0010
1000
0001
1000
0100
0010
0001
1000
0001
0100
0010
,
0100
0001
1000
0010
1000
0001
0100
0010
0100
0001
1000
0100
0010
0001
1000
0100
,
1000
0001
0010
0001
0100
0010
1000
0010
0100
0001
1000
0010
0100
0010
1000
0001
,
0100
0001
1000
0100
0010
0001
0100
0010
0100
0001
1000
0010
0100
0001
0100
0001
,
10M0
0100
1000
0001
0100
0001
1000
0100
1000
0010
0100
0010
1000
0001
1000
0010
,
0100
0001
0100
0010
1000
0000
0001
0100
0000
0010
0100
0000
M001
0000
000M
0000
,
1M0M
0010
0100
0001
0100
0010
1000
0001
1000
0100
0010
0001
1000
0100
1000
0001
,
0100
0010
0100
0001
1000
0010
0100
0001
0100
0010
1000
0001
1000
0100
0010
0001
,
1000
0010
0100
0001
0100
0010
1000
0001
1000
0100
0010
0001
1000
0010
0100
0010
,
1000
0001
0100
0001
0010
0100
1000
0001
0010
0001
0100
0010
1000
0010
0100
0001
,
1000
0100
1000
0010
0100
0001
1000
0001
0010
0100
1000
0001
0010
0001
0100
0010
,
0100
0001
1000
0010
1000
0001
0100
0010
1000
0001
1000
0100
0010
0001
1000
0100
,
1000
0001
0100
0010
0100
0001
1000
0010
0100
0001
1000
0001
0010
0100
1000
0001
,
0010
0001
0100
0010
0100
0001
1000
0100
0010
0001
1000
0010
1000
0000
0001
0000
,
0100
0010
1000
0001
1000
0100
0010
0001
1000
0100
1000
0001
0100
0010
1000
0001
,
0100
0001
0010
0100
1000
0001
0010
0001
0100
0010
0100
0001
1000
0010
1000
0100
,
0010
0001
1000
0100
1000
0001
0100
0010
1000
0010
0100
0001
1000
0001
0100
0010
,
0100
0001
1000
0010
1000
0100
0010
0001
1000
0100
1000
0010
0100
0000
0001
0000
,
2MM1
0000
0000
0000
0000
0000
0000
0000
3020
0000
0030
0000
0020
0000
0000
0000
0030
0000
0000
0000
0100
0002
0000
0000
0000
0000
0000
0000
2003
0000
0000
0000
,
0000
0000
3020
0230
0300
0002
0000
4003
,
3040
0000
0000
0000
0430
0300
0400
0000
0300
0000
0001
0000
1000
0000
0002
0000
,
0000
0000
0000
0000
0203
0000
0320
0000
0030
0000
2000
0000
0000
3000
2000
3000
,
2000
0000
0000
0000
0000
0000
3002
0203
,
0000
0000
0000
0000
0320
0000
0230
0000
0000
0000
0304
0000
0000
0000
2003
3000
,
2MM2
0000
0000
0000
0000
00M0
3M03
00M0
,
000M
00M0
0M00
M000
0M00
00M0
000M
00M0
,
0M00
M000
0M00
00M0
000M
00M0
0M00
M000
,
0M00
00M0
000M
00M0
0M00
M000
0M00
00M0
,
000M
00M0
0M00
M000
0M00
00M0
000M
00M0
,
0M00
M000
0M00
00M0
000M
00M0
0M00
M000
,
0M00
00M0
000M
00M0
0000
0000
0000
0000
,
0000
0000
0000
0000
,
0000
0000
0000
0000
;
