#TITLE:SCREAM SQUAD;
#SUBTITLE:;
#ARTIST:CALF;
#TITLETRANSLIT:;
#SUBTITLETRANSLIT:;
#ARTISTTRANSLIT:;
#CREDIT:Dark Coz;
#BANNER:SCREAM SQUAD -banner.png;
#BACKGROUND:SCREAM SQUAD -bg.png;
#LYRICSPATH:;
#CDTITLE:;
#MUSIC:SCREAM SQUAD.mp3;
#OFFSET:0.900;
#SAMPLESTART:18.653;
#SAMPLELENGTH:17.940;
#SELECTABLE:YES;
#BPMS:0.000=220.000;
#STOPS:;
#BGCHANGES:3.438=SCREAM SQUAD.avi=1.000=1=0=0,
99999=-nosongbg-=1.000=0=0=0 // don't automatically add -songbackground-
;
// cache tags:
#FIRSTBEAT:24.000;
#LASTBEAT:403.000;
#SONGFILENAME:Songs/new cc/SCREAM SQUAD/SCREAM SQUAD.sm;
#HASMUSIC:1;
#HASBANNER:1;
#MUSICLENGTH:111.333;
// end cache tags

//---------------dance-single - R. Cosentino----------------
#NOTES:
     dance-single:
     R. Cosentino:
     Challenge:
     13:
     1.000,1.000,1.000,0.431,0.575,694.000,134.000,48.000,43.000,4.000:
0000
0000
0000
0000
,
0000
0000
0000
0000
,
0000
0000
0000
0000
,
0000
0000
0000
0000
,
0000
0000
0000
0000
,
0000
0000
0000
0000
,
1100
0000
0110
0000
2222
0000
3333
0110
,
0000
1100
0000
0110
1000
0100
0010
0000
,
1001
0000
0101
0000
2222
0000
3333
1001
,
0000
0101
0000
0011
0100
0010
1000
0000
,
1010
0101
0011
0110
,
2222
0000
0000
0000
3333
0000
0000
0000
2002
0000
0000
0000
3003
0000
0000
M00M
,
0110
1001
0101
0011
,
2222
0000
3333
0000
2200
0000
3300
MM00
,
1001
0000
0110
0000
0101
0000
0011
0000
0110
0000
1100
0000
,
1010
0000
0110
0000
0101
0000
1010
0000
0101
0000
1100
0000
,
0011
0000
0000
1000
0100
0000
0000
0000
0101
0000
0000
0001
0010
0000
0000
0000
,
0110
0000
0000
0100
0010
0000
0000
0000
1100
0000
0000
1000
0100
0000
0000
0000
,
0001
0010
0001
0000
0100
0010
0100
0000
1000
0100
1000
0000
0001
1000
0001
0000
,
0100
0010
1000
0100
0010
0100
0001
0010
,
1100
0000
1100
0100
0010
0100
0001
0010
,
0100
1000
0010
0100
0001
0010
0100
0010
,
1000
0100
0010
0000
0101
0000
0000
0000
1010
0000
0000
0000
0101
0000
0000
0000
,
1001
1100
1001
0101
,
0010
0100
0001
0000
0100
0000
0010
0000
1000
0100
0010
0000
1000
0000
0100
0000
,
0001
0010
0001
0000
1000
0100
1000
0000
0010
0100
0010
0000
1000
0100
1000
0000
,
0001
0010
0100
0000
0010
0100
0010
0000
1000
0100
1000
0000
0001
0010
0001
0000
,
0100
0010
0100
0000
1000
0010
0100
0000
0001
0010
0100
0000
1000
0001
0100
0000
,
1001
0000
1100
0100
0010
0001
0101
0000
,
2002
0000
3003
M01M
0100
0110
1001
0000
,
1000
0010
0100
0001
1000
0010
0100
0001
,
0100
0010
1000
0100
0010
0100
1001
0000
,
1000
0100
1000
0000
0001
0010
0001
0000
0100
0000
1000
0000
0010
0000
0100
0000
,
0001
0100
0010
0000
0100
0010
1000
0000
0010
1000
0100
0000
0001
0100
0010
0000
,
1001
0000
0100
0022
0000
0033
10MM
0000
,
M110
0000
0100
1010
M0M0
0101
0M0M
0000
,
1000
0010
0100
2002
0000
3003
M00M
1000
,
0101
0000
0010
1100
MM00
0101
0M0M
0000
,
1000
0010
0100
2002
0000
3003
M00M
0000
,
1001
0101
0011
0110
,
1100
0000
0110
0000
1001
0000
0101
0010
,
1000
0000
0000
0100
0000
0000
0010
0000
0000
0000
1000
0000
0000
0000
0000
0100
0000
0000
0010
0000
0000
0000
0000
0000
,
1000
0100
1000
0100
0010
0001
0010
0001
0100
0010
0100
0010
1000
0001
1000
0001
,
0100
0010
0100
0010
1000
0100
1000
0100
0001
0010
0001
0010
0100
1000
0100
1000
,
0100
0010
0100
0001
0010
0100
1000
0010
,
0101
0M0M
1001
M00M
1100
MM00
1001
M00M
,
1000
0100
1000
0100
0001
0010
0001
0010
0100
0010
0100
0010
1000
0100
1000
0100
,
1000
0001
1000
0001
1000
0001
0100
0010
0100
0010
0100
0010
0100
0001
1000
0001
,
1000
0100
0010
1000
0100
0010
0100
0001
,
2002
0000
0000
0000
0000
0000
0000
3003
,
1000
0000
0010
0000
1000
0100
0010
0000
0100
0000
0001
0000
0010
0100
1000
0000
,
0100
0000
0010
0000
1000
0010
0100
0000
0001
0000
0010
0000
0100
0010
1000
0000
,
0100
0000
0010
0000
1000
0100
0010
0000
0100
0000
0001
0000
0010
0001
0100
0000
,
0010
0000
1000
0000
0100
0010
1000
0000
0100
0000
0010
0000
0100
0001
0010
0000
,
0100
0000
1000
0000
0010
0100
0001
0000
0010
0000
0100
0000
1000
0100
0010
0000
,
0100
0000
0010
0000
0100
0001
1000
0000
0010
0000
0100
0000
1000
0001
0100
0000
,
0010
0000
0100
0000
0010
1000
0100
0000
0010
0000
0001
0000
0010
0100
0001
0000
,
1000
0100
1000
0000
1100
0000
0000
0000
0001
0010
0001
0000
0011
0000
0000
0000
,
1000
0000
0010
0000
0100
0000
0001
0000
0010
0000
0100
0000
1010
0000
0000
0100
,
0010
0000
0100
0000
1000
0000
0010
0000
0001
0000
0100
0000
1001
0000
0000
0100
,
1000
0000
0010
0000
0100
0000
0001
0000
0010
0000
0100
0000
0011
0000
0000
0100
,
0001
0000
0010
0000
0100
0000
0010
0000
1000
0000
0100
0000
0011
0000
0000
1000
,
0100
0000
0010
0000
0100
0000
0001
0000
0010
0000
1000
0000
0101
0000
0000
1000
,
0010
0000
0100
0000
0001
0000
0010
0000
0100
0000
0001
0000
1100
0000
0000
0001
,
0010
0000
0100
0000
0010
0000
1000
0000
0010
0000
0100
0000
1001
0000
0000
0100
,
0010
0000
0001
0000
0010
0000
0100
0000
1000
0000
0010
0000
1001
0000
0000
0100
,
0010
0000
1000
0000
0010
0000
0100
0000
1000
0000
0001
0000
1010
0000
0000
0100
,
0010
0000
0001
0000
0010
0000
1000
0000
0010
0000
0100
0000
1001
0000
0000
0100
,
0010
0000
1000
0000
0100
0000
0010
0000
1000
0000
0001
0000
0110
0000
0000
1000
,
0100
0000
0010
0000
0100
0000
0001
0000
0010
0000
0100
0000
1001
0000
0000
0100
,
0010
0000
1000
0000
0010
0000
0100
0000
0001
0000
0010
0000
1100
0000
0000
0100
,
0001
0000
0010
0000
0100
0000
0001
0000
0010
0000
0100
0000
1001
0000
0000
0001
,
0010
0000
0100
0000
0010
0000
1000
0000
0100
0000
0010
0000
0101
0000
0000
1000
,
0010
0100
0001
0010
0100
0010
1000
0001
,
2002
0000
0000
0000
,
0000
0000
0000
3003
,
1100
0000
0010
0202
0303
0M0M
0000
0000
,
1001
0000
0100
2020
3030
M2M2
0303
0M0M
,
1000
0010
0001
2020
0000
3030
M0M0
0001
,
0110
0000
0001
1100
0000
0101
0000
0000
,
1100
1100
0011
2002
0000
3003
M00M
0000
,
1100
0110
1001
0101
,
1001
0000
0110
0000
1100
0000
0110
1000
,
0001
0000
0000
0010
0000
0000
0100
0000
0000
0000
1000
0000
0000
0000
0000
0100
0000
0000
0010
0000
0000
0000
0000
0000
,
1000
0100
0010
0000
0001
0010
0100
0000
1000
0100
0010
0000
0010
0100
0001
0000
,
1000
0010
0100
1000
0010
0100
0001
1000
,
0110
0000
1000
0010
0100
0001
0010
0100
,
1000
0010
0100
0001
0010
0100
1000
0010
,
0101
0110
1100
0101
,
1001
0110
1001
0101
,
1000
0100
0010
0000
0001
0000
0100
0000
0010
0100
1000
0000
0010
0000
0100
0000
,
0001
0010
0100
0000
1000
0010
0100
0000
0010
0100
0001
0000
0010
0100
1000
0000
,
1000
0100
0010
0100
0001
0010
0100
1000
,
0001
0010
0001
0010
0100
1000
0100
1000
0010
0100
0010
0100
1000
0100
1000
0000
,
1001
0000
0100
0010
1100
0202
0303
0M0M
,
1010
0000
0100
0010
1001
0220
0330
0MM0
,
1000
0010
0100
0001
0010
0100
0010
1000
,
0100
0010
0100
1000
0010
0100
0001
0000
,
1000
0010
0100
0000
0001
0100
0010
0000
0100
0010
1000
0000
0100
0010
0001
0000
,
1000
0100
0010
0000
0100
0010
1000
0000
0001
0010
0100
0000
1000
0010
0100
0000
,
2002
0000
0000
3003
;

//---------------dance-single - R. Cosentino----------------
#NOTES:
     dance-single:
     R. Cosentino:
     Beginner:
     2:
     0.149,0.269,0.036,0.054,0.000,106.000,4.000,6.000,0.000,0.000:
0000
0000
0000
0000
,
0000
0000
0000
0000
,
0000
0000
0000
0000
,
0000
0000
0000
0000
,
0000
0000
0000
0000
,
0000
0000
0000
0000
,
1000
0000
0000
0000
,
0001
0000
0000
0000
,
0100
0000
0000
0000
,
0010
0000
0000
0000
,
1000
0000
0001
0000
,
1000
0000
0001
0000
,
1000
0000
0001
0000
,
1000
0000
0001
0000
,
0100
0000
0000
0000
,
0010
0000
0000
0000
,
1000
0000
0100
0000
,
0010
0000
0001
0000
,
1000
0000
0000
0000
,
0001
0000
0000
0000
,
0100
0000
0000
0000
,
0010
0000
0000
0000
,
1000
0000
0000
0000
,
0100
0000
0000
0000
,
0010
0000
0000
0000
,
0001
0000
0000
0000
,
1000
0000
0000
0000
,
0010
0000
0000
0000
,
0100
0000
0000
0000
,
1000
0000
0000
0000
,
0100
0000
0000
0000
,
0010
0000
0000
0000
,
0001
0000
0100
0000
,
0010
0000
1000
0000
,
0100
0000
0000
0000
,
0010
0000
0000
0000
,
0001
0000
0000
0000
,
0100
0000
0000
0000
,
0010
0000
0000
0000
,
1000
0000
0000
0000
,
0001
0000
0000
0000
,
0100
0000
0000
0000
,
2002
0000
0000
0000
,
0000
0000
0000
3003
,
1000
0000
0000
0000
,
0001
0000
0000
0000
,
2002
0000
0000
0000
,
0000
0000
0000
3003
,
1000
0000
0000
0000
,
0001
0000
0000
0000
,
0100
0000
0000
0000
,
0010
0000
0000
0000
,
1000
0000
0000
0000
,
0100
0000
0000
0000
,
0010
0000
0000
0000
,
0001
0000
0000
0000
,
0100
0000
0000
0000
,
0010
0000
0000
0000
,
1000
0000
0000
0000
,
0100
0000
0000
0000
,
0010
0000
0000
0000
,
1000
0000
0000
0000
,
0001
0000
0000
0000
,
0100
0000
0000
0000
,
0010
0000
0000
0000
,
1000
0000
0000
0000
,
0100
0000
0000
0000
,
0010
0000
0000
0000
,
0001
0000
0000
0000
,
0100
0000
0000
0000
,
0010
0000
0000
0000
,
1000
0000
0000
0000
,
0100
0000
0000
0000
,
0010
0000
0000
0000
,
2002
0000
0000
0000
,
0000
0000
0000
3003
,
0001
0000
0000
0000
,
0100
0000
0000
0000
,
0010
0000
0000
0000
,
1000
0000
0000
0000
,
0100
0000
0000
0000
,
0010
0000
0001
0000
,
0100
0000
0010
0000
,
1000
0000
0000
0000
,
0001
0000
0000
0000
,
0100
0000
0000
0000
,
0010
0000
0000
0000
,
1000
0000
0000
0000
,
0100
0000
0000
0000
,
0010
0000
0000
0000
,
0100
0000
0000
0000
,
0001
0000
0000
0000
,
1000
0000
0001
0000
,
0100
0000
0010
0000
,
1000
0000
0000
0000
,
0100
0000
0000
0000
,
0010
0000
0000
0000
,
0001
0000
0000
0000
,
1000
0000
0001
0000
,
0100
0000
0001
0000
,
1001
0000
0000
0000
;

//---------------dance-single - R. Cosentino----------------
#NOTES:
     dance-single:
     R. Cosentino:
     Easy:
     6:
     0.565,0.769,0.341,0.234,0.000,376.000,38.000,26.000,0.000,0.000:
0000
0000
0000
0000
,
0000
0000
0000
0000
,
0000
0000
0000
0000
,
0000
0000
0000
0000
,
0000
0000
0000
0000
,
0000
0000
0000
0000
,
1000
0000
0001
0000
0110
0000
0000
1000
,
0000
0001
0000
0000
0100
0000
0010
0000
,
1000
0000
0100
0000
0001
0000
0000
1000
,
0000
0100
0000
0000
0010
0000
0100
0000
,
1001
0100
1001
0010
,
2002
3003
0220
0330
,
1100
0010
0101
0010
,
2002
3003
0220
0330
,
1000
0000
0010
0000
,
0100
0000
1000
0000
,
0010
1100
0001
0110
,
0001
0110
1000
0101
,
0010
0100
0010
0100
0001
0010
0001
0000
,
0100
0010
0100
0001
,
0010
0100
1000
0010
,
0100
1000
0010
0100
,
0001
0010
0100
1000
,
0010
0001
1000
0010
,
1000
0100
1000
0001
1000
0010
1000
0100
,
1000
0010
0100
0001
,
0010
0100
1000
0010
,
0100
0001
0010
0100
,
1000
0000
0001
0100
2000
0000
3000
0000
,
1000
0000
0000
1000
0001
0100
0000
0000
,
1000
0010
0100
0001
,
0010
0100
1000
0100
,
1000
0100
0010
0001
1000
0000
0100
0000
,
0010
0100
1000
0010
,
0100
0001
0010
0100
,
1000
0010
0100
0001
,
0010
0100
1000
0010
,
0100
0001
0010
0100
,
1000
0010
0100
0001
,
0010
0100
1000
0010
,
0100
0001
0010
0100
,
0010
1000
0100
0010
,
1000
0001
1000
0001
1000
0001
1000
0001
,
0100
0010
0100
0010
0100
0010
0100
0010
,
0100
0010
1000
0100
,
1001
1001
1001
1001
,
1000
0010
0100
0001
,
0010
0100
0010
1000
,
0100
0010
0100
0001
,
2002
0000
0000
3003
,
1000
0101
0010
1100
,
0010
0101
0010
1001
,
0100
0011
0100
1001
,
0010
1100
0010
0101
,
0010
1001
0100
1001
,
0010
0101
0010
1100
,
0010
1001
0010
1001
,
1000
0001
1000
0000
0001
1000
0001
0000
,
1000
0100
0010
0100
,
0001
0010
0100
0010
,
1000
0100
0010
0100
,
0001
0010
0100
1000
,
0010
0100
0001
0010
,
0100
1000
0010
0100
,
0001
1000
0010
0100
,
0010
0100
1000
0100
,
0010
0100
0001
0010
,
0100
1000
0010
0100
,
0001
0010
0100
1000
,
0010
0100
0001
1000
,
0010
0100
0001
0100
,
0010
1000
0100
0010
,
0100
1000
0010
0100
,
0001
0010
0100
0010
,
2002
0000
0000
0000
,
0000
0000
0000
3003
,
2000
0000
0000
3020
0000
0000
0030
0000
,
2000
0000
0000
3020
0000
0230
0000
0300
,
1000
0001
2000
0002
0000
0000
3003
0000
,
0020
0000
0000
0230
0000
0302
0000
0003
,
1000
0100
1000
0020
0000
0000
0030
0000
,
1100
0010
0101
0010
,
0100
1010
0100
0011
,
0100
0010
1000
0100
,
0001
0010
0001
0010
0001
0010
0001
0010
,
0001
0100
0010
1000
,
0100
0010
0100
0001
,
0010
0100
1000
0010
,
0100
0001
0010
0100
,
1000
0010
0100
0010
,
1000
0100
0010
0100
,
0001
0010
0100
1000
,
0100
0010
0100
0001
,
0010
0100
1000
0010
,
0100
0001
0010
0100
,
0010
1000
0010
1000
,
0100
0010
0100
0001
,
0010
0100
1000
0010
,
0100
0001
0010
0100
,
1000
0010
0001
0100
,
2002
0000
0000
3003
;

//---------------dance-single - R. Cosentino----------------
#NOTES:
     dance-single:
     R. Cosentino:
     Medium:
     9:
     0.779,0.860,0.665,0.341,0.045,495.000,74.000,38.000,0.000,0.000:
0000
0000
0000
0000
,
0000
0000
0000
0000
,
0000
0000
0000
0000
,
0000
0000
0000
0000
,
0000
0000
0000
0000
,
0000
0000
0000
0000
,
0100
0000
0010
0000
0202
0000
0303
1010
,
0000
0101
0000
1000
0001
1000
0001
0000
,
0100
0000
0010
0000
2002
0000
3003
1100
,
0000
0110
0000
0001
0010
0100
1000
0000
,
1010
0100
0011
0100
,
2002
3003
0220
0330
,
1100
0100
0110
0010
,
0022
0033
2002
3003
,
1000
0000
0001
0000
1000
0000
0001
0000
0100
0000
0010
0000
,
0100
0000
0010
0000
0100
0000
0001
0000
0010
0000
0001
0000
,
0010
1001
0100
0011
,
0100
1001
0010
1001
,
1000
0010
1000
0001
1000
0100
1000
0010
,
1000
0100
0010
0100
,
0001
0000
0001
0010
0100
0010
0100
1000
,
0100
0010
0100
0001
,
0010
1100
0010
0101
,
0010
0110
0001
1100
,
0010
0100
1000
0010
0100
0001
0010
0100
,
1000
0001
1000
0001
1000
0001
1000
0001
,
0100
0010
0100
0010
0100
0010
0100
0010
,
1000
0100
1000
0100
1000
0100
1000
0000
,
0001
0000
0010
0100
1000
0200
0000
0300
,
0010
0000
1000
0001
0100
0020
0000
0030
,
0100
0010
0100
0010
0100
0010
0100
0010
,
1000
0001
1000
0001
1000
0001
1000
0000
,
1000
0100
1000
0100
1000
0100
1000
0100
,
0010
0001
0010
0001
0010
0001
0010
0001
,
0100
0000
1000
0200
0000
0000
0000
0300
,
1001
0000
0010
2000
0000
0002
0000
3003
,
1000
0100
0010
0002
0000
0000
0000
0003
,
1010
0000
1000
0200
0000
0020
0000
0330
,
1000
0010
0100
0002
0000
0000
0000
0003
,
1010
0110
1001
0101
,
0011
0000
0110
0000
1000
0100
0010
0100
,
0001
0000
0000
0010
0000
0000
0100
0000
0000
0000
0010
0000
0000
0000
0000
0100
0000
0000
0010
0000
0000
0000
0000
0000
,
1000
0100
1000
0100
1000
0100
1000
0100
,
0010
0001
0010
0001
0010
0001
0010
0001
,
1000
0100
1000
0100
1000
0100
1000
0100
,
1001
0110
1001
0101
,
1000
0010
0100
0001
0010
0100
1000
0100
,
0010
0001
0010
0100
1000
0100
0010
0001
,
1000
0001
1000
0001
1000
0001
1000
0001
,
2002
0000
0000
3003
,
1000
1100
0001
0101
,
1000
1100
0010
0011
,
0010
1010
0100
1100
,
0010
0101
0010
1001
,
0100
0011
0100
1010
,
0100
1001
0010
0101
,
0010
1001
0100
0011
,
1000
0010
1000
0000
0001
0010
0001
0000
,
1000
0000
0010
0000
0100
0000
0010
0001
,
0100
0000
1000
0000
1000
0000
0010
0001
,
0100
0000
0010
0000
0100
0000
0001
1000
,
0010
0000
0100
0000
0010
0000
1000
0100
,
0001
0000
0100
0000
0010
0000
1000
0100
,
0001
0000
0010
0000
0100
0000
1000
0001
,
0100
0000
0010
0000
0100
0000
1000
0100
,
0001
0000
0010
0000
0100
0000
0001
0010
,
1000
0000
0100
0000
0010
0000
1000
0100
,
0001
0000
0010
0000
0100
0000
1000
0010
,
0100
0000
0001
0000
0010
0000
0100
0001
,
1000
0000
0010
0000
0100
0000
1000
0100
,
0010
0000
0001
0000
0100
0000
0010
1000
,
0100
0000
0001
0000
0010
0000
0100
0010
,
1000
0000
0100
0000
0010
0000
0100
0001
,
0010
0000
0100
0000
1000
0000
0001
1000
,
2002
0000
0000
0000
,
0000
0000
0000
3003
,
2002
0000
3003
0202
0000
0000
0000
0303
,
2002
3003
0000
0101
0000
2002
0000
3003
,
0010
0100
0001
2000
0000
0000
3000
0000
,
1010
0000
0100
0101
0000
1001
0000
0000
,
1000
0100
0010
0002
0000
0000
0000
0003
,
1001
0101
0011
0110
,
1001
0000
1100
0000
0110
0000
0010
0001
,
1000
0000
0000
0001
0000
0000
0010
0000
0000
0000
1000
0000
0000
0000
0000
0100
0000
0000
0010
0000
0000
0000
0000
0000
,
1000
0010
1000
0100
1000
0001
1000
0010
,
0100
0001
0100
0010
0100
0001
0100
0010
,
0100
0000
1000
0001
0010
0100
1000
0100
,
0010
0001
0010
0100
0010
0100
0010
0100
,
0010
1001
0010
0101
,
1000
0110
0001
1100
,
0010
0100
0001
0010
0100
1000
0010
0100
,
0001
0010
0100
1000
0010
0100
0001
0000
,
1000
0110
0001
1100
,
1000
0010
0100
0001
0010
0100
1000
0000
,
1100
0000
0001
1000
0100
0020
0000
0030
,
1001
0000
0100
0010
0100
0010
0000
0000
,
1000
0001
1000
0100
1000
0010
0100
0001
,
0010
0001
0010
0001
0010
0001
0010
0000
,
1000
0001
1000
0001
1000
0001
1000
0001
,
0100
0010
0100
0010
0100
0010
0100
0010
,
2002
0000
0000
3003
;

//---------------dance-single - R. Cosentino----------------
#NOTES:
     dance-single:
     R. Cosentino:
     Hard:
     10:
     0.959,1.000,0.988,0.395,0.135,593.000,110.000,44.000,0.000,0.000:
0000
0000
0000
0000
,
0000
0000
0000
0000
,
0000
0000
0000
0000
,
0000
0000
0000
0000
,
0000
0000
0000
0000
,
0000
0000
0000
0000
,
1001
0000
0101
0000
0011
0000
0000
1001
,
0000
0101
0000
0010
1000
0010
0101
0000
,
1001
0000
1100
0000
0101
0000
0000
1010
,
0000
0101
0000
0010
0001
1000
0101
0000
,
1010
0100
0011
0100
,
0022
0033
2002
3003
,
1100
0010
0101
0010
,
2002
3003
0220
0330
,
1000
0000
0100
0000
0010
0000
0001
0000
0010
0000
0100
0000
,
0010
0000
1000
0000
0001
0000
0010
0000
0100
0000
1000
0000
,
0010
1100
0010
0101
,
0010
1100
0010
1001
,
1000
0010
1000
0100
1000
0010
0100
0001
,
0010
0100
1000
0100
0010
0100
0001
0010
,
0101
0000
1000
0010
0100
0001
0010
0100
,
1000
0010
0100
1000
0010
0100
0001
0010
,
1001
1100
1001
0101
,
0011
1001
0101
0011
,
1000
0010
0100
0001
0010
0100
1000
0001
,
0100
0010
1000
0010
0100
0001
0010
0100
,
1000
0010
0100
1000
0001
0010
0100
1000
,
0010
0100
0001
0010
0100
0001
0010
0100
,
1001
0000
1100
1000
0001
0202
0000
0303
,
1010
0000
0100
0010
0001
2200
0000
3300
,
0001
0100
0010
1000
0010
0100
0001
0010
,
0100
1000
0010
0100
0001
0010
0100
0000
,
0010
1000
0001
0010
0100
1000
0010
0100
,
0001
1000
0001
0000
0010
0000
0100
0000
0001
0010
0001
0000
0010
0000
0100
0000
,
1001
0000
0100
2002
0000
0000
3003
0000
,
1100
0000
0010
0101
0000
2002
0000
3003
,
1100
1000
0001
0202
0000
0000
0000
0303
,
1010
0000
0100
0011
0000
2002
0000
3003
,
1100
0010
0100
0022
0000
0000
0000
0033
,
1001
0101
0011
0110
,
1001
0000
0110
0000
1100
0100
0010
0001
,
0010
0000
0000
0100
0000
0000
0001
0000
0000
0000
1000
0000
0000
0000
0000
0010
0000
0000
0100
0000
0000
0000
0000
0000
,
1000
0001
1000
0001
1000
0001
1000
0001
1000
0001
1000
0001
1000
0001
1000
0001
,
0100
0010
0100
0010
0100
0010
0100
0010
0100
0010
0100
0010
0100
0010
0100
0010
,
0100
0010
0100
0001
1000
0010
0100
0001
,
1001
0101
0011
1001
,
1000
0010
0100
0001
0010
0100
1000
0010
,
0100
0001
0010
0100
0001
1000
0010
0100
,
1000
0100
0010
0001
0010
0100
0001
1000
,
2002
0000
0000
3003
,
1000
0010
0101
0000
0010
0100
1001
0000
,
0100
1000
0011
0000
0100
0010
1001
0000
,
0010
0100
1001
0000
0100
1000
0011
0000
,
1000
0100
0011
0000
0100
0010
1001
0000
,
0100
0001
1100
0000
0100
0010
1001
0000
,
0001
0010
1100
0000
1000
0010
0101
0000
,
0010
0100
0011
0000
0100
1000
0101
0000
,
1000
0100
1000
0000
0100
0000
0000
0000
0001
0010
0001
0000
0010
0000
0000
0000
,
1000
0010
0100
0001
0010
0100
1000
0010
,
0100
0001
0010
0100
1000
0001
0100
0010
,
1000
0001
0010
0100
0001
0010
0100
1000
,
0010
0100
0001
0010
0100
1000
0010
0100
,
0001
0010
0100
1000
0010
0100
0001
0010
,
0100
1000
0001
0010
1000
0010
0001
0100
,
0010
1000
0100
0010
0100
0001
0010
0100
,
0001
1000
0010
0100
0001
1000
0010
0100
,
0001
1000
0100
0010
0100
0001
0010
0100
,
1000
0010
0100
0001
0010
0100
1000
0001
,
1000
0010
0100
1000
0010
0100
0001
0100
,
0010
1000
0010
0100
0001
0010
0100
1000
,
0010
0100
0001
0010
0100
0010
0100
0001
,
1000
0100
0010
0100
0001
0010
0100
1000
,
0010
0100
0001
0010
0100
1000
0010
0100
,
0001
0010
0100
1000
0100
0010
0100
0001
,
2002
0000
0000
0000
,
0000
0000
0000
3003
,
2002
0000
3003
0202
0000
0000
0000
0303
,
1001
0000
0100
0011
0000
2002
0000
3003
,
1100
1000
0001
0202
0000
0000
0000
0303
,
1100
0000
0010
0101
0000
2002
0000
3003
,
0101
0001
1000
2200
0000
0000
0000
3300
,
1001
0101
0011
0110
,
1001
0000
0101
0000
0011
0010
0100
1000
,
0010
0000
0000
0100
0000
0000
0001
0000
0000
0000
1000
0000
0000
0000
0000
0100
0000
0000
0010
0000
0000
0000
0000
0000
,
1000
0010
0100
0001
0010
0100
1000
0010
,
0100
0001
0010
0100
1000
0010
0100
0010
,
1001
0000
0001
0010
0100
1000
0010
0100
,
0001
1000
0010
0100
1000
0100
0010
0100
,
1001
1100
0101
0011
,
0110
1100
1001
0011
,
1000
0010
0100
0001
0010
0100
1000
0010
,
0100
0001
0010
0100
1000
0010
0100
1000
,
0100
0010
0100
0001
0010
0100
1000
0010
,
0100
0001
0010
0100
1000
0010
0100
0000
,
1001
0000
0100
0010
1000
0202
0000
0303
,
1001
0000
1000
0010
0100
2002
0000
3003
,
1000
0010
0100
0001
0010
0100
1000
0010
,
0100
0001
0010
0100
1000
0001
0010
0000
,
1000
0010
0100
0001
0010
1000
0010
0001
,
0100
0010
1000
0100
0010
0001
0100
0010
,
2002
0000
0000
3003
;

//---------------dance-double - R. Cosentino----------------
#NOTES:
     dance-double:
     R. Cosentino:
     Easy:
     6:
     0.559,0.769,0.305,0.234,0.000,376.000,34.000,26.000,0.000,0.000:
00000000
00000000
00000000
00000000
,
00000000
00000000
00000000
00000000
,
00000000
00000000
00000000
00000000
,
00000000
00000000
00000000
00000000
,
00000000
00000000
00000000
00000000
,
00000000
00000000
00000000
00000000
,
01000000
00000000
00001000
00000000
00110000
00000000
00000000
01000000
,
00000000
00001000
00000000
00000000
00100000
00000000
00010000
00000000
,
00100000
00000000
00010000
00000000
00000100
00000000
00000000
00100000
,
00000000
00010000
00000000
00000000
00001000
00000000
00010000
00000000
,
00100000
00010000
00100000
00001000
,
00200200
00300300
00022000
00033000
,
00011000
00000100
00001010
00000100
,
00020020
00030030
00002200
00003300
,
00010000
00000000
00000100
00000000
,
00001000
00000000
00010000
00000000
,
00000010
00001100
00000001
00000110
,
00000001
00000110
00001000
00000101
,
00000010
00000100
00000010
00000100
00000001
00000010
00000001
00000000
,
00000100
00000010
00000100
00000001
,
00000100
00001000
00010000
00000100
,
00001000
00010000
00000100
00001000
,
00000010
00000100
00001000
00010000
,
00000100
00000010
00010000
00000100
,
00100000
00010000
00100000
00000100
00100000
00001000
00100000
00010000
,
00100000
00001000
00010000
00000100
,
00001000
00010000
00100000
00001000
,
00010000
00000100
00001000
00010000
,
01000000
00000000
00001000
00100000
02000000
00000000
03000000
00000000
,
01000000
00000000
00000000
01000000
00001000
00100000
00000000
00000000
,
01000000
00010000
00100000
00001000
,
00010000
00100000
01000000
00100000
,
10000000
01000000
00100000
00010000
10000000
00000000
01000000
00000000
,
00100000
01000000
10000000
00100000
,
01000000
00010000
00100000
01000000
,
10000000
00100000
01000000
00010000
,
00010000
00100000
01000000
00010000
,
00100000
00001000
00010000
00100000
,
01000000
00010000
00100000
00001000
,
00010000
00100000
01000000
00010000
,
00010000
00000100
00001000
00010000
,
00001000
00100000
00010000
00001000
,
00100000
00000100
00100000
00000100
00100000
00000100
00100000
00000100
,
00010000
00001000
00010000
00001000
00010000
00001000
00010000
00001000
,
00001000
00000100
00010000
00001000
,
00010010
00010010
00010010
00010010
,
00010000
00000100
00001000
00000010
,
00000100
00001000
00000100
00010000
,
00000100
00000010
00000100
00000001
,
00002002
00000000
00000000
00003003
,
00001000
00000101
00000010
00001100
,
00000010
00000101
00000010
00001001
,
00001000
00000110
00001000
00010010
,
00000100
00011000
00000100
00001010
,
00000100
00010010
00001000
00010010
,
00000100
00001010
00000100
00011000
,
00001000
00100000
00001000
00100000
,
00100000
00000100
00100000
00000000
00000100
00100000
00000100
00000000
,
00100000
00010000
00001000
00010000
,
00000100
00001000
00010000
00001000
,
01000000
00100000
00010000
00100000
,
00001000
00010000
00100000
01000000
,
00010000
00100000
00001000
00010000
,
00100000
01000000
00010000
00100000
,
00010000
10000000
00100000
01000000
,
00100000
01000000
10000000
01000000
,
00100000
01000000
00010000
00100000
,
01000000
10000000
00100000
01000000
,
00001000
00010000
00100000
01000000
,
00010000
00100000
00001000
01000000
,
00010000
00100000
00001000
00100000
,
00010000
01000000
00100000
00010000
,
00010000
00100000
00001000
00010000
,
00000100
00001000
00010000
00001000
,
00200200
00000000
00000000
00000000
,
00000000
00000000
00000000
00300300
,
00020000
00000000
00000000
00030200
00000000
00000000
00000300
00000000
,
00020000
00000000
00000000
00030200
00000000
00002300
00000000
00003000
,
00010000
00000010
00020000
00000020
00000000
00000000
00030030
00000000
,
00000200
00000000
00000000
00002300
00000000
00003020
00000000
00000030
,
00001000
00000100
00001000
00000020
00000000
00000000
00000030
00000000
,
00001100
00000010
00000101
00000010
,
00000100
00001010
00000100
00000011
,
00000100
00000010
00001000
00000100
,
00000010
00000100
00000010
00000100
00000010
00000100
00000010
00000100
,
00000010
00001000
00000100
00010000
,
00001000
00000100
00001000
00000010
,
00000100
00001000
00010000
00000100
,
00010000
00000100
00001000
00010000
,
00100000
00001000
00010000
00001000
,
00100000
00010000
00001000
00010000
,
00000100
00001000
00010000
00100000
,
00100000
00010000
00100000
00001000
,
00010000
00100000
01000000
00010000
,
00100000
00001000
00010000
00100000
,
00010000
01000000
00010000
01000000
,
01000000
00100000
01000000
00010000
,
00100000
01000000
10000000
00100000
,
01000000
00010000
00100000
01000000
,
10000000
00100000
00010000
01000000
,
02002000
00000000
00000000
03003000
;

//---------------dance-double - R. Cosentino----------------
#NOTES:
     dance-double:
     R. Cosentino:
     Medium:
     9:
     0.776,0.860,0.647,0.341,0.045,495.000,72.000,38.000,0.000,0.000:
00000000
00000000
00000000
00000000
,
00000000
00000000
00000000
00000000
,
00000000
00000000
00000000
00000000
,
00000000
00000000
00000000
00000000
,
00000000
00000000
00000000
00000000
,
00000000
00000000
00000000
00000000
,
00100000
00000000
00010000
00000000
00202000
00000000
00303000
01010000
,
00000000
00101000
00000000
01000000
00001000
01000000
00001000
00000000
,
00010000
00000000
00001000
00000000
00200200
00000000
00300300
00110000
,
00000000
00011000
00000000
00000100
00001000
00010000
00100000
00000000
,
00101000
00010000
00001100
00010000
,
00200200
00300300
00022000
00033000
,
00011000
00001000
00001100
00000100
,
00000220
00000330
00020020
00030030
,
00010000
00000000
00000010
00000000
00010000
00000000
00000010
00000000
00001000
00000000
00000100
00000000
,
00001000
00000000
00000100
00000000
00001000
00000000
00000010
00000000
00000100
00000000
00000010
00000000
,
00000010
00001001
00000100
00000011
,
00000100
00001001
00000010
00001001
,
00001000
00000010
00001000
00000001
00001000
00000100
00001000
00000010
,
00001000
00000100
00000010
00000100
,
00000010
00000000
00000010
00000100
00001000
00000100
00001000
00010000
,
00001000
00000100
00001000
00000010
,
00000100
00011000
00000100
00001010
,
00000100
00001100
00000010
00011000
,
00001000
00010000
00100000
00001000
00010000
00000100
00001000
00010000
,
00100000
00000100
00100000
00000100
00100000
00000100
00100000
00000100
,
00010000
00001000
00010000
00001000
00010000
00001000
00010000
00001000
,
00100000
00010000
00100000
00010000
00100000
00010000
00100000
00000000
,
00001000
00000000
00010000
00100000
01000000
00200000
00000000
00300000
,
00010000
00000000
01000000
00001000
00100000
00020000
00000000
00030000
,
00100000
00010000
00100000
00010000
00100000
00010000
00100000
00010000
,
01000000
00001000
01000000
00001000
01000000
00001000
01000000
00000000
,
10000000
01000000
10000000
01000000
10000000
01000000
10000000
01000000
,
00100000
00010000
00100000
00010000
00100000
00010000
00100000
00010000
,
01000000
00000000
10000000
02000000
00000000
00000000
00000000
03000000
,
10010000
00000000
00100000
20000000
00000000
00020000
00000000
30030000
,
01000000
00100000
00010000
00002000
00000000
00000000
00000000
00003000
,
01010000
00000000
01000000
00200000
00000000
00020000
00000000
00330000
,
01000000
00010000
00100000
00002000
00000000
00000000
00000000
00003000
,
01010000
00110000
01001000
00101000
,
00001100
00000000
00011000
00000000
00100000
00010000
00001000
00010000
,
00000100
00000000
00000000
00001000
00000000
00000000
00010000
00000000
00000000
00000000
00001000
00000000
00000000
00000000
00000000
00010000
00000000
00000000
00001000
00000000
00000000
00000000
00000000
00000000
,
00100000
00010000
00100000
00010000
00100000
00010000
00100000
00010000
,
00001000
00000100
00001000
00000100
00001000
00000100
00001000
00000100
,
00010000
00001000
00010000
00001000
00010000
00001000
00010000
00001000
,
00010010
00001100
00010010
00001010
,
00010000
00000100
00001000
00000010
00000100
00001000
00010000
00001000
,
00000100
00000010
00000100
00001000
00010000
00001000
00000100
00000010
,
00001000
00000001
00001000
00000001
00001000
00000001
00001000
00000001
,
00002002
00000000
00000000
00003003
,
00001000
00001100
00000001
00000101
,
00001000
00001100
00000010
00000011
,
00000100
00010100
00001000
00011000
,
00000100
00001010
00000100
00010010
,
00001000
00000110
00001000
00010100
,
00001000
00010010
00000100
00001010
,
00001000
00100000
00010000
00001100
,
00100000
00001000
00100000
00000000
00000100
00001000
00000100
00000000
,
00100000
00000000
00001000
00000000
00010000
00000000
00001000
00000100
,
00010000
00000000
00100000
00000000
00100000
00000000
00001000
00000100
,
00100000
00000000
00010000
00000000
00100000
00000000
00001000
01000000
,
00010000
00000000
00100000
00000000
00010000
00000000
01000000
00100000
,
00001000
00000000
00100000
00000000
00010000
00000000
01000000
00100000
,
00001000
00000000
00010000
00000000
00100000
00000000
01000000
00001000
,
01000000
00000000
00100000
00000000
01000000
00000000
10000000
01000000
,
00010000
00000000
00100000
00000000
01000000
00000000
00010000
00100000
,
10000000
00000000
01000000
00000000
00100000
00000000
10000000
01000000
,
00010000
00000000
00100000
00000000
01000000
00000000
10000000
00100000
,
00100000
00000000
00001000
00000000
00010000
00000000
00100000
00001000
,
01000000
00000000
00010000
00000000
00100000
00000000
01000000
00100000
,
00010000
00000000
00001000
00000000
00100000
00000000
00010000
01000000
,
00100000
00000000
00001000
00000000
00010000
00000000
00100000
00010000
,
00100000
00000000
00010000
00000000
00001000
00000000
00010000
00000100
,
00001000
00000000
00010000
00000000
00100000
00000000
00000100
00100000
,
00200200
00000000
00000000
00000000
,
00000000
00000000
00000000
00300300
,
00020020
00000000
00030030
00002020
00000000
00000000
00000000
00003030
,
00020020
00030030
00000000
00001010
00000000
00020020
00000000
00030030
,
00000100
00001000
00000010
00020000
00000000
00000000
00030000
00000000
,
00010100
00000000
00001000
00001010
00000000
00010010
00000000
00000000
,
00001000
00000100
00000010
00000002
00000000
00000000
00000000
00000003
,
00001001
00000101
00000011
00000110
,
00001001
00000000
00001100
00000000
00000110
00000000
00000010
00000001
,
00001000
00000000
00000000
00000001
00000000
00000000
00000010
00000000
00000000
00000000
00001000
00000000
00000000
00000000
00000000
00000100
00000000
00000000
00000010
00000000
00000000
00000000
00000000
00000000
,
00010000
00000100
00010000
00001000
00010000
00000010
00010000
00000100
,
00001000
00000010
00001000
00000100
00001000
00000010
00001000
00000100
,
00001000
00000000
00010000
00000010
00000100
00001000
00010000
00001000
,
00000100
00000010
00000100
00001000
00000100
00001000
00000100
00001000
,
00001000
00100000
00001000
00010100
,
00100000
00011000
00000100
00110000
,
00001000
00010000
00000100
00001000
00010000
00100000
00001000
00010000
,
00000100
00001000
00010000
00100000
00001000
00010000
00000100
00000000
,
01000000
00110000
00001000
01100000
,
01000000
00010000
00100000
00001000
00010000
00100000
01000000
00000000
,
01100000
00000000
00001000
01000000
00100000
00020000
00000000
00030000
,
01001000
00000000
00100000
00010000
00100000
00010000
00000000
00000000
,
10000000
00010000
10000000
01000000
10000000
00100000
01000000
00010000
,
00100000
00010000
00100000
00010000
00100000
00010000
00100000
00000000
,
10000000
00010000
10000000
00010000
10000000
00010000
10000000
00010000
,
01000000
00100000
01000000
00100000
01000000
00100000
01000000
00100000
,
02002000
00000000
00000000
03003000
;

//---------------dance-double - R. Cosentino----------------
#NOTES:
     dance-double:
     R. Cosentino:
     Hard:
     10:
     0.953,1.000,0.952,0.395,0.135,593.000,106.000,44.000,0.000,0.000:
00000000
00000000
00000000
00000000
,
00000000
00000000
00000000
00000000
,
00000000
00000000
00000000
00000000
,
00000000
00000000
00000000
00000000
,
00000000
00000000
00000000
00000000
,
00000000
00000000
00000000
00000000
,
01001000
00000000
00101000
00000000
00011000
00000000
00000000
01001000
,
00000000
00101000
00000000
00010000
01000000
00010000
00101000
00000000
,
00100000
00000000
00110000
00000000
00010100
00000000
00000000
00101000
,
00000000
00010100
00000000
00001000
00000100
00100000
00010100
00000000
,
00101000
00010000
00001100
00010000
,
00002200
00003300
00200200
00300300
,
00011000
00000100
00001010
00000100
,
00020020
00030030
00002200
00003300
,
00010000
00000000
00001000
00000000
00000100
00000000
00000010
00000000
00000100
00000000
00001000
00000000
,
00000100
00000000
00010000
00000000
00000010
00000000
00000100
00000000
00001000
00000000
00010000
00000000
,
00000010
00001100
00000010
00000101
,
00000010
00001100
00000010
00001001
,
00001000
00000010
00001000
00000100
00001000
00000010
00000100
00000001
,
00000010
00000100
00001000
00000100
00000010
00000100
00000001
00000010
,
00001010
00000000
00010000
00000100
00001000
00000010
00000100
00001000
,
00010000
00000100
00001000
00010000
00000100
00001000
00000010
00000100
,
00010010
00011000
00010010
00001010
,
00000110
00010010
00001010
00000110
,
00100000
00001000
00010000
00000100
00001000
00010000
00100000
00000100
,
00010000
00001000
00100000
00001000
00010000
00000100
00001000
00010000
,
00100000
00001000
00010000
00100000
00000100
00001000
00010000
00100000
,
00001000
00010000
00000100
00001000
00010000
00000100
00001000
00010000
,
01001000
00000000
01100000
01000000
00001000
00202000
00000000
00303000
,
01010000
00000000
00100000
00010000
00001000
02200000
00000000
03300000
,
00001000
00100000
00010000
01000000
00010000
00100000
00001000
00010000
,
00100000
01000000
00010000
00100000
00001000
00010000
00100000
00000000
,
00100000
10000000
00010000
00100000
01000000
10000000
00100000
01000000
,
00010000
10000000
00010000
00000000
00100000
00000000
01000000
00000000
00010000
00100000
00010000
00000000
00100000
00000000
01000000
00000000
,
10010000
00000000
01000000
20020000
00000000
00000000
30030000
00000000
,
11000000
00000000
00100000
01010000
00000000
20020000
00000000
30030000
,
01100000
01000000
00001000
00202000
00000000
00000000
00000000
00303000
,
01010000
00000000
00100000
00011000
00000000
02002000
00000000
03003000
,
01100000
00010000
00100000
00022000
00000000
00000000
00000000
00033000
,
01001000
00101000
00011000
00110000
,
00100000
00000000
00011000
00000000
00110000
00010000
00001000
00000100
,
00001000
00000000
00000000
00010000
00000000
00000000
00000100
00000000
00000000
00000000
00100000
00000000
00000000
00000000
00000000
00001000
00000000
00000000
00010000
00000000
00000000
00000000
00000000
00000000
,
00100000
00000100
00100000
00000100
00100000
00000100
00100000
00000100
00100000
00000100
00100000
00000100
00100000
00000100
00100000
00000100
,
00010000
00001000
00010000
00001000
00010000
00001000
00010000
00001000
00010000
00001000
00010000
00001000
00010000
00001000
00010000
00001000
,
00001000
00000100
00001000
00000010
00010000
00000100
00001000
00000010
,
00010010
00001010
00000110
00010010
,
00010000
00000100
00001000
00000010
00000100
00001000
00010000
00000100
,
00001000
00000010
00000100
00001000
00000010
00010000
00000100
00001000
,
00001000
00000100
00000010
00000001
00000010
00000100
00000001
00001000
,
00002002
00000000
00000000
00003003
,
00001000
00000010
00000101
00000000
00000010
00000100
00001001
00000000
,
00000100
00001000
00000011
00000000
00000100
00000010
00001001
00000000
,
00000100
00001000
00010010
00000000
00001000
00010000
00000110
00000000
,
00010000
00001000
00000110
00000000
00001000
00000100
00010010
00000000
,
00001000
00000010
00011000
00000000
00001000
00000100
00010010
00000000
,
00000010
00000100
00011000
00000000
00010000
00000100
00001010
00000000
,
00001000
00010000
00001100
00000000
00010000
00100000
00010100
00000000
,
00100000
00010000
00100000
00000000
00010000
00000000
00000000
00000000
00000100
00001000
00000100
00000000
00001000
00000000
00000000
00000000
,
00100000
00001000
00010000
00000100
00001000
00010000
00100000
00001000
,
00010000
00000100
00001000
00010000
00100000
00000100
00010000
00001000
,
01000000
00001000
00010000
00100000
00001000
00010000
00100000
01000000
,
00010000
00100000
00001000
00010000
00100000
01000000
00010000
00100000
,
00001000
00010000
00100000
01000000
00010000
00100000
00001000
00010000
,
00100000
01000000
00001000
00010000
01000000
00010000
00001000
00100000
,
00100000
10000000
01000000
00100000
01000000
00010000
00100000
01000000
,
00010000
10000000
00100000
01000000
00010000
10000000
00100000
01000000
,
00010000
10000000
01000000
00100000
01000000
00010000
00100000
01000000
,
10000000
00100000
01000000
00010000
00100000
01000000
10000000
00010000
,
01000000
00010000
00100000
01000000
00010000
00100000
00001000
00100000
,
00010000
01000000
00010000
00100000
00001000
00010000
00100000
01000000
,
00010000
00100000
00001000
00010000
00100000
00010000
00100000
00001000
,
01000000
00100000
00010000
00100000
00001000
00010000
00100000
01000000
,
00001000
00010000
00000100
00001000
00010000
00100000
00001000
00010000
,
00000100
00001000
00010000
00100000
00010000
00001000
00010000
00000100
,
00200200
00000000
00000000
00000000
,
00000000
00000000
00000000
00300300
,
00020020
00000000
00030030
00002020
00000000
00000000
00000000
00003030
,
00010010
00000000
00001000
00000110
00000000
00020020
00000000
00030030
,
00011000
00010000
00000010
00002020
00000000
00000000
00000000
00003030
,
00011000
00000000
00000100
00001010
00000000
00020020
00000000
00030030
,
00000101
00000001
00001000
00002200
00000000
00000000
00000000
00003300
,
00001001
00000101
00000011
00000110
,
00001001
00000000
00000101
00000000
00000011
00000010
00000100
00001000
,
00000010
00000000
00000000
00000100
00000000
00000000
00000001
00000000
00000000
00000000
00001000
00000000
00000000
00000000
00000000
00000100
00000000
00000000
00000010
00000000
00000000
00000000
00000000
00000000
,
00010000
00000100
00001000
00000010
00000100
00001000
00010000
00000100
,
00001000
00000010
00000100
00001000
00010000
00000100
00001000
00000100
,
00010010
00000000
00000010
00000100
00001000
00010000
00000100
00001000
,
00000010
00010000
00000100
00001000
00010000
00001000
00000100
00001000
,
00100000
00110000
00010100
00001100
,
00011000
00110000
00100000
00001100
,
00100000
00001000
00010000
00000100
00001000
00010000
00100000
00001000
,
00010000
00000100
00001000
00010000
00100000
00001000
00010000
00100000
,
00100000
00010000
00100000
00001000
00010000
00100000
01000000
00010000
,
00100000
00001000
00010000
00100000
01000000
00010000
00100000
00000000
,
01001000
00000000
00100000
00010000
01000000
00202000
00000000
00303000
,
01001000
00000000
01000000
00010000
00100000
02002000
00000000
03003000
,
10000000
00100000
01000000
00010000
00100000
01000000
10000000
00100000
,
01000000
00010000
00100000
01000000
10000000
00010000
00100000
00000000
,
10000000
00100000
01000000
00010000
00100000
10000000
00100000
00010000
,
01000000
00100000
10000000
01000000
00100000
00010000
01000000
00100000
,
02002000
00000000
00000000
03003000
;

//---------------dance-double - R. Cosentino----------------
#NOTES:
     dance-double:
     R. Cosentino:
     Challenge:
     13:
     1.000,1.000,1.000,0.431,0.575,694.000,128.000,48.000,43.000,4.000:
00000000
00000000
00000000
00000000
,
00000000
00000000
00000000
00000000
,
00000000
00000000
00000000
00000000
,
00000000
00000000
00000000
00000000
,
00000000
00000000
00000000
00000000
,
00000000
00000000
00000000
00000000
,
01100000
00000000
00110000
00000000
02222000
00000000
03333000
00110000
,
00000000
01100000
00000000
00110000
01000000
00100000
00010000
00000000
,
00100000
00000000
00010100
00000000
00222200
00000000
00333300
00100000
,
00000000
00010100
00000000
00001100
00010000
00001000
00100000
00000000
,
00101000
00010100
00001100
00011000
,
00222200
00000000
00000000
00000000
00333300
00000000
00000000
00000000
00200200
00000000
00000000
00000000
00300300
00000000
00000000
00M00M00
,
00001100
00010010
00001010
00000110
,
00022220
00000000
00033330
00000000
00022000
00000000
00033000
000MM000
,
00010010
00000000
00001100
00000000
00001010
00000000
00000110
00000000
00001100
00000000
00011000
00000000
,
00010100
00000000
00001100
00000000
00001010
00000000
00010100
00000000
00001010
00000000
00011000
00000000
,
00000011
00000000
00000000
00001000
00000100
00000000
00000000
00000000
00000101
00000000
00000000
00000001
00000010
00000000
00000000
00000000
,
00000110
00000000
00000000
00000100
00000010
00000000
00000000
00000000
00001100
00000000
00000000
00001000
00000100
00000000
00000000
00000000
,
00000001
00000010
00000001
00000000
00000100
00000010
00000100
00000000
00001000
00000100
00001000
00000000
00000001
00001000
00000001
00000000
,
00000100
00000010
00001000
00000100
00000010
00000100
00000001
00000010
,
00011000
00000000
00011000
00001000
00000100
00001000
00000010
00000100
,
00001000
00010000
00000100
00001000
00000010
00000100
00001000
00000100
,
00010000
00001000
00000100
00000000
00001010
00000000
00000000
00000000
00010100
00000000
00000000
00000000
00001010
00000000
00000000
00000000
,
00010010
00011000
00010010
00001010
,
00001000
00010000
00000100
00000000
00010000
00000000
00001000
00000000
00100000
00010000
00001000
00000000
00100000
00000000
00010000
00000000
,
00000100
00001000
00000100
00000000
00100000
00010000
00100000
00000000
00001000
00010000
00001000
00000000
00100000
00010000
00100000
00000000
,
00000100
00001000
00010000
00000000
00001000
00010000
00001000
00000000
00100000
00010000
00100000
00000000
00000100
00001000
00000100
00000000
,
00010000
00001000
00010000
00000000
00100000
00001000
00010000
00000000
00000100
00001000
00010000
00000000
00100000
00000100
00010000
00000000
,
01001000
00000000
01100000
00100000
00010000
00001000
00101000
00000000
,
02002000
00000000
03003000
0M01M000
00100000
00110000
01001000
00000000
,
01000000
00010000
00100000
00001000
01000000
00010000
00100000
00001000
,
00100000
00010000
01000000
00100000
00010000
00100000
01001000
00000000
,
10000000
01000000
10000000
00000000
00010000
00100000
00010000
00000000
01000000
00000000
10000000
00000000
00100000
00000000
01000000
00000000
,
00010000
01000000
00100000
00000000
01000000
00100000
10000000
00000000
00100000
10000000
01000000
00000000
00010000
01000000
00100000
00000000
,
10010000
00000000
01000000
00220000
00000000
00330000
10MM0000
00000000
,
M1100000
00000000
01000000
10100000
M0M00000
01010000
0M0M0000
00000000
,
01000000
00010000
00100000
02002000
00000000
03003000
0M00M000
01000000
,
00101000
00000000
00010000
01100000
0MM00000
00101000
00M0M000
00000000
,
01000000
00010000
00100000
02002000
00000000
03003000
0M00M000
00000000
,
01001000
00101000
00011000
00110000
,
00110000
00000000
00011000
00000000
00100000
00000000
00010100
00001000
,
00100000
00000000
00000000
00010000
00000000
00000000
00001000
00000000
00000000
00000000
00100000
00000000
00000000
00000000
00000000
00010000
00000000
00000000
00001000
00000000
00000000
00000000
00000000
00000000
,
00100000
00010000
00100000
00010000
00001000
00000100
00001000
00000100
00010000
00001000
00010000
00001000
00100000
00000100
00100000
00000100
,
00010000
00001000
00010000
00001000
00100000
00010000
00100000
00010000
00000100
00001000
00000100
00001000
00010000
00100000
00010000
00100000
,
00001000
00000100
00001000
00000010
00000100
00001000
00010000
00000100
,
00001010
0000M0M0
00010010
000M00M0
00011000
000MM000
00010010
000M00M0
,
00010000
00001000
00010000
00001000
00000010
00000100
00000010
00000100
00001000
00000100
00001000
00000100
00010000
00001000
00010000
00001000
,
00010000
00000010
00010000
00000010
00010000
00000010
00001000
00000100
00001000
00000100
00001000
00000100
00001000
00000010
00010000
00000010
,
00001000
00000100
00000010
00001000
00000100
00000010
00000100
00000001
,
00002002
00000000
00000000
00000000
00000000
00000000
00000000
00003003
,
00001000
00000000
00000010
00000000
00001000
00000100
00000010
00000000
00000100
00000000
00000001
00000000
00000010
00000100
00001000
00000000
,
00000100
00000000
00000010
00000000
00001000
00000010
00000100
00000000
00000001
00000000
00000010
00000000
00000100
00000010
00001000
00000000
,
00001000
00000000
00000100
00000000
00010000
00001000
00000100
00000000
00001000
00000000
00000010
00000000
00000100
00000010
00001000
00000000
,
00000100
00000000
00010000
00000000
00001000
00000100
00010000
00000000
00001000
00000000
00000100
00000000
00001000
00000010
00000100
00000000
,
00001000
00000000
00010000
00000000
00000100
00001000
00000010
00000000
00000100
00000000
00001000
00000000
00010000
00001000
00000100
00000000
,
00001000
00000000
00000100
00000000
00001000
00000010
00010000
00000000
00000100
00000000
00001000
00000000
00010000
00000010
00001000
00000000
,
00001000
00000000
00010000
00000000
00001000
00100000
00010000
00000000
00001000
00000000
00000100
00000000
00001000
00010000
00000100
00000000
,
00100000
00010000
00100000
00000000
00110000
00000000
00000000
00000000
00000100
00001000
00000100
00000000
00001100
00000000
00000000
00000000
,
00100000
00000000
00001000
00000000
00010000
00000000
00000100
00000000
00001000
00000000
00010000
00000000
00101000
00000000
00000000
00010000
,
00001000
00000000
00010000
00000000
00100000
00000000
00001000
00000000
00000100
00000000
00010000
00000000
00100000
00000000
00000000
00010000
,
01000000
00000000
00010000
00000000
00100000
00000000
00001000
00000000
00010000
00000000
00100000
00000000
00011000
00000000
00000000
00100000
,
00001000
00000000
00010000
00000000
00100000
00000000
00010000
00000000
01000000
00000000
00100000
00000000
00011000
00000000
00000000
01000000
,
00100000
00000000
00010000
00000000
00100000
00000000
00001000
00000000
00010000
00000000
01000000
00000000
00101000
00000000
00000000
01000000
,
00010000
00000000
00100000
00000000
00001000
00000000
00010000
00000000
00100000
00000000
00001000
00000000
01100000
00000000
00000000
00001000
,
00100000
00000000
01000000
00000000
00100000
00000000
10000000
00000000
00100000
00000000
01000000
00000000
10010000
00000000
00000000
01000000
,
00100000
00000000
00010000
00000000
00100000
00000000
01000000
00000000
10000000
00000000
00100000
00000000
10010000
00000000
00000000
01000000
,
00100000
00000000
10000000
00000000
00100000
00000000
01000000
00000000
10000000
00000000
00010000
00000000
10100000
00000000
00000000
01000000
,
00100000
00000000
00010000
00000000
00100000
00000000
10000000
00000000
00100000
00000000
01000000
00000000
10010000
00000000
00000000
01000000
,
00010000
00000000
01000000
00000000
00100000
00000000
00010000
00000000
01000000
00000000
00001000
00000000
00110000
00000000
00000000
01000000
,
00100000
00000000
00010000
00000000
00100000
00000000
00001000
00000000
00010000
00000000
00100000
00000000
01001000
00000000
00000000
00100000
,
00010000
00000000
01000000
00000000
00010000
00000000
00100000
00000000
00001000
00000000
00010000
00000000
01100000
00000000
00000000
00100000
,
00001000
00000000
00010000
00000000
00100000
00000000
00001000
00000000
00010000
00000000
00100000
00000000
01001000
00000000
00000000
00001000
,
00001000
00000000
00010000
00000000
00001000
00000000
00100000
00000000
00010000
00000000
00001000
00000000
00010100
00000000
00000000
00100000
,
00001000
00010000
00000100
00001000
00010000
00001000
00100000
00000100
,
00200200
00000000
00000000
00000000
,
00000000
00000000
00000000
00300300
,
00011000
00000000
00000100
00002020
00003030
0000M0M0
00000000
00000000
,
00010010
00000000
00001000
00020200
00030300
000M2M20
00003030
0000M0M0
,
00010000
00000100
00000010
00020200
00000000
00030300
000M0M00
00000010
,
00001100
00000000
00000010
00011000
00000000
00001010
00000000
00000000
,
00001100
00001100
00000011
00002002
00000000
00003003
0000M00M
00000000
,
00001100
00000110
00001001
00000101
,
00001001
00000000
00000110
00000000
00001100
00000000
00000110
00001000
,
00000001
00000000
00000000
00000010
00000000
00000000
00000100
00000000
00000000
00000000
00001000
00000000
00000000
00000000
00000000
00000100
00000000
00000000
00000010
00000000
00000000
00000000
00000000
00000000
,
00010000
00001000
00000100
00000000
00000010
00000100
00001000
00000000
00010000
00001000
00000100
00000000
00000100
00001000
00000010
00000000
,
00010000
00000100
00001000
00010000
00000100
00001000
00000010
00010000
,
00001100
00000000
00010000
00000100
00001000
00000010
00000100
00001000
,
00010000
00000100
00001000
00000010
00000100
00001000
00010000
00000100
,
00010100
00011000
00110000
00010100
,
00100000
00011000
00100000
00010100
,
00100000
00010000
00001000
00000000
00000100
00000000
00010000
00000000
00001000
00010000
00100000
00000000
00001000
00000000
00010000
00000000
,
00000100
00001000
00010000
00000000
00100000
00001000
00010000
00000000
00001000
00010000
00000100
00000000
00001000
00010000
00100000
00000000
,
01000000
00100000
00010000
00100000
00001000
00010000
00100000
01000000
,
00001000
00010000
00001000
00010000
00100000
01000000
00100000
01000000
00010000
00100000
00010000
00100000
01000000
00100000
01000000
00000000
,
01001000
00000000
00100000
00010000
01100000
00202000
00303000
00M0M000
,
01010000
00000000
00100000
00010000
01001000
00220000
00330000
00MM0000
,
10000000
00100000
01000000
00010000
00100000
01000000
00100000
10000000
,
01000000
00100000
01000000
10000000
00100000
01000000
00010000
00000000
,
10000000
00100000
01000000
00000000
00010000
01000000
00100000
00000000
01000000
00100000
10000000
00000000
01000000
00100000
00010000
00000000
,
10000000
01000000
00100000
00000000
01000000
00100000
10000000
00000000
00010000
00100000
01000000
00000000
10000000
00100000
01000000
00000000
,
02002000
00000000
00000000
03003000
;
