#TITLE:Pandemonium;
#SUBTITLE:;
#ARTIST:ZiGZaG;
#TITLETRANSLIT:;
#SUBTITLETRANSLIT:;
#ARTISTTRANSLIT:;
#CREDIT:;
#BANNER:pandemonium-banner.png;
#BACKGROUND:pandemonium-bg.png;
#LYRICSPATH:;
#CDTITLE:V.png;
#MUSIC:Pandemonium.mp3;
#OFFSET:-0.145;
#SAMPLESTART:69.950;
#SAMPLELENGTH:13.000;
#SELECTABLE:YES;
#BPMS:0.000=330.000;
#STOPS:;
#BGCHANGES:;
// cache tags:
#FIRSTBEAT:24.000;
#LASTBEAT:620.000;
#SONGFILENAME:Songs/Essential Sim Collection/(Vince) Pandemonium/Pandemonium.sm;
#HASMUSIC:1;
#HASBANNER:1;
#MUSICLENGTH:115.023;
// end cache tags

//---------------dance-single - ----------------
#NOTES:
     dance-single:
     :
     Hard:
     11:
     1.000,1.000,1.000,0.609,0.000,852.000,186.000,70.000,0.000,0.000:
0000
0000
0000
0000
,
0000
0000
0000
0000
,
0000
0000
0000
0000
,
0000
0000
0000
0000
,
0000
0000
0000
0000
,
0000
0000
0000
0000
,
1001
0000
1001
0000
,
1000
0001
1000
0001
1000
0001
1000
0001
,
1100
0010
1000
0010
0100
0001
0010
0100
,
0010
0001
1000
0100
0010
0100
0010
0001
,
0100
0010
1000
0001
0010
0001
0100
0010
,
1000
0100
0010
0001
0100
0010
1100
0000
,
0011
1000
0100
1000
0010
1000
0100
0010
,
0001
0010
0001
0100
0010
1000
0100
1000
,
0010
0100
0001
1000
0001
0010
0100
0010
,
0001
1000
0001
0010
0001
0010
1001
0000
,
1010
0100
0010
0001
1000
0100
0010
0100
,
0010
0001
0010
0100
1000
0010
0100
0001
,
0010
0001
0010
0100
1000
0100
1000
0100
,
0010
0001
0100
0010
1000
0100
0011
0000
,
1100
0001
1000
0010
0100
0001
1000
0001
,
1000
0010
1000
0001
0100
0001
1000
0010
,
1000
0010
1000
0001
0100
0001
0100
0001
,
1000
0001
0100
0010
1000
0100
0011
0000
,
2200
0000
0000
3300
0001
0000
0220
0000
,
0000
0000
0330
0000
1000
0100
1000
0100
,
0022
0000
0000
0033
1000
0000
0202
0000
,
0000
0000
0303
0000
0100
0001
0100
0001
,
2020
0000
0000
3030
0000
0000
1010
0000
,
2002
0000
3003
1100
,
0110
0110
0011
0110
,
2200
0000
0000
3300
,
1000
0100
1000
0010
1000
0001
1000
0010
,
1000
0100
1000
0010
1000
0001
1000
0010
,
1000
0100
0010
0001
0100
0010
1000
0001
,
1000
0010
0100
0010
1000
0100
0011
0000
,
0001
0010
0001
0100
0001
1000
0001
0100
,
0001
0010
0001
0100
0001
1000
0001
0100
,
0001
0010
0100
1000
0010
0100
0001
1000
,
0001
0100
0010
0100
0001
0010
1100
0000
,
1100
0010
1000
0100
0010
0100
0010
0001
,
0010
0100
1000
0100
1000
0100
0010
0001
,
0010
0001
1000
0100
0010
0001
1000
0100
,
1000
0001
0010
0001
1000
0100
0011
0000
,
0011
1000
0100
1000
0001
0010
0001
0100
,
0010
0100
0001
0010
0001
1000
0100
1000
,
0010
0100
0010
1000
0100
1000
0001
0010
,
0001
0010
0100
1000
0010
0100
0011
0000
,
1100
0000
1001
0000
1100
0000
1000
0100
,
0011
0000
0101
0000
0011
0000
0010
0001
,
1100
0000
1010
0000
1001
0000
1000
0100
,
1000
0010
0100
0001
0100
0010
1100
0000
,
0011
0000
0101
0000
0011
0000
1000
0100
,
0022
0000
0000
0033
0000
0000
0001
0010
,
1100
0000
1010
0000
1100
0000
1000
0001
,
1000
0010
1000
0100
1000
0100
0010
0001
,
1100
0110
0011
0101
,
0011
0101
1010
1100
,
0011
0101
1100
0011
,
1100
0000
0110
0000
0001
0010
0001
0000
,
1010
1001
0101
1100
,
0101
1100
0011
1010
,
0101
1100
1010
0101
,
1010
0000
1001
0000
0100
0001
0100
0000
,
2100
0010
0100
0010
,
0001
0010
0100
0010
,
0100
0010
0001
3010
,
0012
0000
0103
0000
1000
0100
0010
0000
,
0012
0100
1000
0100
,
0010
1000
0100
1000
,
0010
0100
1000
0103
,
0210
0000
0301
0000
0010
0001
0100
0000
,
1010
0000
0001
0010
0100
0000
0100
1000
,
0001
0000
0010
0001
0100
0000
1000
0100
,
1000
0010
0100
0010
1000
0100
0010
0100
,
1000
0001
0100
0010
1001
0000
0110
0000
,
0101
0000
1000
0100
1000
0000
0010
0100
,
0001
0000
0100
0010
1000
0000
0010
0100
,
0001
1000
0100
1000
0010
0100
0010
1000
,
0100
0010
1100
0000
0011
0000
0110
0000
,
0001
0100
0010
1000
0100
1000
0001
0010
,
0001
1000
0010
0100
0010
1000
0100
0010
,
0100
1000
0001
0100
0010
1000
0100
1000
,
0010
1000
0001
0010
0001
1000
0110
0000
,
0011
0000
0100
0001
0100
0010
1000
0010
,
0100
0001
1000
0100
1000
0010
0100
0010
,
1000
0001
0100
0010
0100
0001
0010
0100
,
0010
0001
1000
0100
1000
0010
0100
0010
,
1001
0000
0000
0001
1100
0000
1010
0000
,
0202
0303
2020
3030
,
0011
0000
0000
1000
0011
0000
0110
0000
,
0101
1100
0022
0033
,
0110
0000
0000
1000
0101
0000
0011
0000
,
2200
3300
0220
0330
,
1000
0100
1000
0000
0010
0100
0010
0000
,
1000
0001
1000
0001
1000
0001
1000
0001
,
1100
0000
0110
0000
,
2020
3030
0000
0202
0303
0000
0220
0330
,
1100
0000
1100
1001
,
0022
0033
0000
2020
3030
0000
0220
0330
,
0101
0000
1010
0000
,
2200
3300
0000
0202
0303
0000
0220
0330
,
1100
0000
1010
0110
,
0001
0010
0000
0010
0001
0000
0110
0000
,
1010
0000
1001
0000
,
0022
0033
0000
2200
3300
0000
2002
3003
,
1010
0000
1010
0110
,
0202
0303
0000
0022
0033
0000
2002
3003
,
1100
0000
0011
0000
,
2020
3030
0000
2200
3300
0000
2002
3003
,
1000
0100
1000
0000
0001
0010
0001
0000
,
0100
0001
0100
0001
0100
0001
0100
0001
,
1100
0010
1000
0100
1000
0010
1000
0001
,
1000
0010
1000
0100
0010
0001
0100
0010
,
1000
0100
1000
0010
0100
0010
0100
0001
,
0100
0010
1000
0100
0010
0001
1100
0000
,
0101
1000
0010
0100
0001
1000
0010
0100
,
0001
1000
0100
0010
0100
1000
0001
0010
,
0001
0100
0010
0100
0001
1000
0001
0100
,
0010
0100
0010
0100
0010
1000
0101
0000
,
0001
0100
0001
0010
0001
0100
0001
1000
,
0001
0100
0001
0010
0100
1000
0010
0100
,
0001
0010
0001
0100
0010
0100
0010
1000
,
0010
0100
0001
0010
0100
1000
0011
0000
,
1001
0010
0100
0010
0100
0010
0100
0010
,
1100
0001
0100
0001
0100
0001
0100
0001
,
1100
0010
0000
0010
1100
0000
1010
0000
,
1001
0000
0100
0010
0100
0010
0100
0010
,
1100
0000
0110
0000
1100
0000
0000
0011
,
0000
1000
0100
0010
0001
0010
0100
0010
,
0001
0000
0110
0000
0101
0000
0000
1001
,
0000
0100
0010
1000
0010
0100
0001
1000
,
0100
0000
0011
0000
1100
0000
0000
0110
,
0000
1000
0100
0010
0001
0010
0100
1000
,
0001
0010
0001
0000
1000
0100
1000
0000
,
0100
0010
0100
0010
0100
0010
0100
0010
,
0101
0000
1001
0000
0101
0000
0000
1010
,
0000
0100
0001
1000
0010
1000
0001
1000
,
0010
0000
1001
0000
0011
0000
0000
0110
,
0000
0001
1000
0100
1000
0001
0010
0100
,
1000
0000
1010
0000
0101
0000
0000
1001
,
0000
0100
0001
1000
0010
1000
0001
0100
,
0010
1000
0010
0000
0100
0001
0100
0000
,
0001
1000
0001
1000
0001
1000
0001
1000
,
0101
0000
0101
0000
0101
0000
0010
0001
,
1100
0000
1100
0000
1100
0000
0100
1000
,
0011
0000
0011
0000
0011
0000
0010
0100
,
1000
0001
0000
0001
1100
0000
1100
0000
,
0110
0000
1001
0000
0110
0000
1000
0001
,
0220
0000
0000
0000
0330
0000
0010
0100
,
1000
0100
0010
0001
1000
0010
0100
0001
,
1000
0100
0010
0001
1000
0010
0100
0001
,
2200
0000
0000
0000
,
0000
0000
0000
0000
,
0000
0000
0000
0000
,
3300
0000
0000
0000
;
