#TITLE:Killing the orks;
#SUBTITLE:spill their blooooooood;
#ARTIST:3 " of blud;
#TITLETRANSLIT:;
#SUBTITLETRANSLIT:;
#ARTISTTRANSLIT:;
#CREDIT:;
#BANNER:;
#BACKGROUND:;
#LYRICSPATH:;
#CDTITLE:;
#MUSIC:11 Destroy The Orcs.mp3;
#OFFSET:0.000;
#SAMPLESTART:100.000;
#SAMPLELENGTH:12.000;
#SELECTABLE:YES;
#BPMS:0.000=205.020,5.000=240.640,351.000=-45.640,354.000=100.000,365.167=10.000,365.250=449.998;
#STOPS:;
#BGCHANGES:;
// cache tags:
#FIRSTBEAT:0.750;
#LASTBEAT:496.063;
#SONGFILENAME:Songs/toune 2/11 Destroy The Orcs/11 Destroy The Orcs.sm;
#HASMUSIC:1;
#HASBANNER:0;
#MUSICLENGTH:141.374;
// end cache tags

//---------------dance-single - ----------------
#NOTES:
     dance-single:
     :
     Hard:
     1:
     1.000,1.000,1.000,1.000,1.000,1817.000,395.000,1828.000,53.000,521.000:
0000
0000
0000
2000
0000
0000
0000
0000
3001
0000
0000
0000
0021
0000
0000
1201
,
0030
0000
0000
0000
0300
0000
1000
0000
0100
0000
0010
1010
0000
0000
0100
0001
,
1010
0000
0000
1000
0000
0000
0000
0000
0000
1000
0000
0000
0200
0000
0000
0310
0000
0000
0001
0000
0000
0000
0000
0000
0000
0000
0000
0000
0000
0000
0010
0000
0000
0100
0000
0000
2001
0000
0000
0000
0000
0000
0000
0000
0100
0000
0010
0000
,
3102
0000
0010
0000
0000
0000
0000
0000
0000
2000
0000
0000
0100
0000
0000
0010
0000
0000
0000
0000
0000
0110
0000
0000
3000
0000
0000
0003
0000
0000
0000
0000
0000
1000
0000
0000
0000
0000
0000
0010
0000
0000
0100
0000
0000
0000
0000
0000
,
1001
0000
0000
0101
2000
0200
3020
0332
0003
0222
0003
2330
3200
0020
0332
2000
,
0003
3000
0000
2000
3002
2003
3002
0203
0321
0230
0310
1122
0033
2200
3022
0333
,
0000
0000
0000
1010
0000
0000
0000
0000
0000
0000
0000
0000
0000
0000
0000
2222
0000
0000
3330
0000
0000
0003
0000
0000
0210
0000
0000
2300
0000
0000
0000
0000
0000
3010
0000
0000
0100
0210
0302
0200
0013
0300
0000
2101
3220
0330
0000
0000
,
0000
0000
2000
0020
3100
0030
0000
0000
0200
0300
0020
0032
0003
2000
3000
0000
0000
0020
0032
0003
0000
2000
3002
0000
2000
0003
3000
0000
0020
2000
0000
0000
0000
0000
0000
0000
0000
0000
0000
0000
0000
0000
0200
0002
0030
3000
0000
0000
,
0020
2303
0000
0000
0000
0000
0000
0002
0000
0200
0000
0000
0000
0000
0000
0000
0000
0003
3330
2000
0020
0000
0000
0030
3002
0200
0000
0000
0303
2020
0000
0000
0000
3030
0202
0000
0000
0000
0303
0002
0003
0000
0200
0300
0020
0030
2000
3020
,
0032
0003
0000
0200
0320
0031
0000
0200
0301
0000
0020
0030
2000
3000
0200
0300
0002
0003
0000
0010
0000
0000
0200
0302
0003
0000
2000
3020
0030
0000
0200
0302
0003
0000
0020
0030
0100
0000
2000
3000
0000
0200
0300
0002
0003
0000
0010
0200
,
0300
0000
0202
0300
0003
0000
2220
3330
0000
0102
0003
0000
0000
0000
2001
3000
0002
0220
0333
2022
0200
0000
0330
3203
0012
0303
0220
0330
2020
0200
0300
3030
0022
0200
0333
2000
3000
0200
2020
3002
0333
0000
0000
0000
0000
0020
2030
3000
,
0000
0000
0000
0000
2000
0000
0000
0000
3000
0000
0000
0000
2000
0000
0000
0000
0000
0000
0000
0000
0000
0000
0000
0000
0000
0000
0000
0000
0000
0000
0000
0000
0000
0000
0000
0000
0000
0000
0000
0000
0000
0000
0200
0000
0000
0000
0000
0000
0300
0000
0000
0000
0000
0000
0000
0000
0000
0000
0000
0000
0200
0000
0000
0000
0000
0000
0002
0000
0000
0000
0000
0000
0300
0000
0000
0000
0000
0000
0003
0000
0000
0000
0000
0000
0000
0000
0000
0000
0000
0000
0000
0000
0000
0000
0000
0000
0020
0000
0000
0000
0000
0000
0200
0000
0000
0000
0000
0000
0030
0000
0000
0000
0000
0000
0300
0000
0000
0000
0000
0000
0000
0000
0000
0000
0000
0000
0000
0000
0000
0000
0000
0000
0200
0000
0000
0000
0000
0000
0000
0000
0000
0000
0000
0000
0300
0000
0000
0000
0000
0000
0002
0000
0000
0000
0000
0000
0003
0000
0000
0000
0000
0000
0000
0000
0000
0000
0000
0000
0000
0000
0000
0000
0000
0000
0000
0000
0000
0000
0000
0000
0000
0000
0000
0000
0000
0000
0000
0000
0000
0000
0000
0000
,
0002
0003
0001
0002
0000
0000
0000
0000
0020
0030
0000
0020
0033
0022
0000
0030
0000
0000
0200
0300
0000
0020
0030
0000
0000
0020
0030
0000
0020
0003
0002
0030
,
0000
0000
0000
0003
0020
0000
0230
0000
0002
0000
0000
0303
0020
0000
0030
0020
3000
0000
2030
0020
3000
2000
0000
0000
0000
0000
0032
3000
0200
0000
0000
0020
,
0303
0000
0000
0000
0000
0000
2000
0000
0000
0000
0000
0000
0030
0000
0000
0000
0000
0000
3000
0000
0000
0000
0000
0000
0202
0000
0000
0000
0000
0000
0000
0000
0000
0000
0000
0000
0000
0000
0000
0000
0000
0000
0000
0000
0000
0000
0000
0000
0000
0000
0000
0000
0000
0000
0020
0000
0000
0000
0000
0000
0000
0000
0000
0000
0000
0000
0000
0000
0000
0000
0000
0000
0000
0000
0000
0000
0000
0000
0000
0000
0000
0000
0000
0000
0000
0000
0000
0000
0000
0000
0000
0000
0000
0000
0000
0000
2033
0000
0000
0000
0000
0000
0300
0000
0000
0000
0000
0000
0000
0000
0000
0000
0000
0000
3000
0000
0000
0000
0000
0000
0000
0000
0000
0000
0000
0000
0000
0000
0000
0000
0000
0000
0000
0000
0000
0000
0000
0000
0000
0000
0000
0000
0000
0000
0000
0000
0000
0000
0000
0000
0000
0000
0000
0000
0000
0000
0000
0000
0000
0000
0000
0000
0000
0000
0000
0000
0000
0000
0000
0000
0000
0000
0000
0000
0000
0000
0000
0000
0000
0000
0000
0000
0000
0000
2000
0000
0000
0000
0000
0000
0000
0000
,
0000
0000
0000
0000
0000
0000
0000
0000
3000
0000
0000
0000
0200
0000
0000
0000
0300
0000
0000
0000
0020
0000
0000
0000
0000
0000
0000
0000
0000
0000
0000
0000
0000
0000
0000
0000
0000
0000
0000
0000
0000
0000
0000
0000
0000
0000
0000
0000
0030
0000
0000
0000
0000
0000
0000
0000
0000
0000
0000
0000
0002
0000
0000
0000
0000
0000
0000
0000
0000
0000
0000
0000
0203
0000
0000
0000
0000
0000
0000
0000
0000
0000
0000
0000
0320
0000
0000
0000
0000
0000
0030
0000
0000
0000
0000
0000
0000
0000
0000
0000
0000
0000
0000
0000
0000
0000
0000
0000
1000
0000
0000
0000
0000
0000
0000
0000
0000
0000
0000
0000
0000
0000
0000
0000
0000
0000
0200
0000
0000
0000
0000
0000
0300
0000
0000
0000
0000
0000
0020
0000
0000
0000
0000
0000
0030
0000
0000
0000
0000
0000
0002
0000
0000
0000
0000
0000
0200
0000
0000
0000
0000
0000
0000
0000
0000
0000
0000
0000
0000
0000
0000
0000
0000
0000
0000
0000
0000
0000
0000
0000
0000
0000
0000
0000
0000
0000
0000
0000
0000
0000
0000
0000
,
0000
0000
0000
0000
0000
0000
0000
0000
0000
0000
0000
0000
0000
0000
0000
0000
0000
0000
0000
0000
0000
2300
0003
3000
0000
0200
0300
0010
0000
0000
0000
0001
,
0000
0000
0000
0000
0000
0000
0200
0000
0000
0000
0000
0000
0300
0000
0000
0000
0000
0000
0001
0000
0000
0000
0000
0000
0000
0000
0000
0000
0000
0000
0000
0000
0000
0000
0000
0000
0100
0000
0000
0000
0000
0000
0000
0000
0000
0000
0000
0000
2000
0000
0000
0000
0000
0000
0000
0000
3000
0000
0000
0000
0000
0000
0000
0000
0000
0000
0000
0000
0000
0000
0000
0000
0200
0000
0000
0000
0000
0000
0000
0000
0302
0000
0000
0000
0000
0000
0000
0000
0003
0000
0000
0000
0000
0000
0000
0000
0000
0000
0000
0000
0000
0000
0000
0000
0000
0000
0000
0000
0200
0000
0000
0000
0000
0000
0300
0000
0000
0000
0000
0000
0000
0000
0000
0000
0000
0000
0200
0000
0000
0000
0000
0000
0301
0000
0000
0000
0000
0000
0000
0000
0000
0000
0000
0000
0020
0000
0000
0000
0000
0000
0030
0000
0000
0000
0000
0000
1020
0000
0000
0000
0000
0000
0030
0000
0000
0000
0000
0000
0000
0000
0000
0000
0000
0000
0210
0000
0000
0000
0000
0000
0300
0000
0000
0000
0000
0000
0000
0000
0000
0000
0000
0000
,
0000
0002
0103
0002
0103
0020
2202
0000
0000
3300
0230
0000
0000
0000
2320
0003
0000
0000
0002
3230
0300
0023
0000
0230
0000
2300
0000
0000
0000
0000
0000
0000
,
0000
0000
0000
0000
0000
0000
0000
0000
0000
0000
0000
3200
0000
0020
0300
0032
0000
0000
0000
0203
0000
0020
0300
2000
0030
0000
3000
0000
0000
0000
0020
0032
,
0023
0030
0000
2000
3200
2300
3000
0000
0000
0000
0000
0000
0000
0000
0020
0030
0000
0000
0000
0000
0000
0000
0000
0000
2000
0000
3001
2002
3003
0200
0300
0020
,
0030
0200
0300
0200
0300
0020
0032
0203
0320
0000
2030
0000
3200
0300
0000
0000
0000
0000
0000
1000
0000
0002
0003
0000
0020
0230
2300
0000
0000
0000
0000
0000
,
0000
0000
0000
0000
0000
0000
0000
0000
0000
3000
0101
0000
0020
0000
0000
0000
0000
2030
0000
0000
0000
0200
3000
0000
0000
0000
0000
0000
0002
0000
0000
0020
,
0003
0000
0000
2300
0030
3200
0000
0000
0000
0000
0002
0000
0000
0000
0000
0000
0000
0000
0000
0000
0000
0000
0320
0003
2030
0000
3200
0000
0000
0000
0002
0300
,
0203
0000
0320
0000
0000
2000
0030
0200
3300
0000
0002
0203
0301
0000
0020
2002
0000
0000
0000
0000
0000
0000
0000
0000
0000
0000
0000
0000
0000
0000
0000
0000
,
3000
0033
0000
0000
0000
0000
0000
0200
0000
0300
0000
0002
0003
2002
0000
0000
0000
0000
0000
0000
0000
0000
0000
0000
0000
0000
0000
0000
0000
0000
3003
0000
,
0000
0000
0000
0000
0000
0200
0300
0000
0020
0030
0000
0002
0003
0000
0000
0202
0000
0000
0000
0000
0000
0000
0000
0000
0003
0300
0000
0000
0000
0000
1111
0000
,
0000
0000
0000
0000
0000
0000
0000
0000
2000
0200
3000
0320
0032
0003
0000
0002
0203
0300
0000
1000
0000
0000
0000
0000
0000
0020
0030
0020
0030
0000
0200
0302
,
0103
0000
0000
2000
0002
3000
0003
0022
0033
0000
0010
0002
2023
3030
0022
2100
3033
0100
0200
0300
0200
0002
0303
0010
0000
2000
0200
3000
0302
0020
0203
0030
,
2300
3000
0000
0200
0020
0331
0000
0202
0003
0300
2000
0002
3003
0200
0002
0000
0303
0020
0000
0030
0200
0300
0202
0303
0000
2020
3030
0200
0002
0303
0000
0222
,
0003
0330
2000
0022
3030
0003
0202
0020
2303
3030
0200
0002
0300
0003
0200
2000
0020
0002
3330
0003
0000
0002
0200
0303
0000
0202
0000
0020
2303
0000
0000
0000
,
3202
0030
2020
0303
0000
0000
3002
0030
0103
0000
0100
0000
0000
0100
0000
2002
0000
0000
0000
0000
0000
0000
0000
0000
0000
0000
0000
0000
0000
0000
0000
0000
,
0000
0000
0200
3023
0000
0300
2032
0000
0000
0000
0000
0220
3003
0000
0000
2300
0032
0000
0000
3200
0003
0320
0000
0000
0030
0002
2000
0000
0000
0000
0000
0000
,
3203
0000
0000
0000
0000
0020
0300
0032
0000
0000
2000
0003
0000
0000
0000
0000
0000
0000
3002
0000
0000
0023
0200
0030
0300
0000
2000
0000
0000
0000
0000
0000
,
0000
0000
0000
0000
0000
0000
0000
0000
0000
0000
0000
3000
0000
0000
0002
0000
0000
0000
0000
0000
0020
0003
0000
0000
0000
0200
0030
0000
0000
0000
0000
0000
,
0000
2002
0300
0000
0000
3220
0003
2300
0030
0000
0000
3000
2000
0000
0000
0000
0000
0000
0000
0000
0000
0000
0002
0000
0003
0000
0020
0000
0000
0000
0000
0032
,
0000
0000
0200
0003
0000
0000
0000
0000
0300
0000
0200
0000
0300
0200
0000
0300
0000
0002
0020
0003
0230
0000
0302
0000
3023
2000
0030
0200
0000
0000
0000
0000
,
0000
0000
0000
0000
0000
0000
0300
3000
0000
0000
2020
3000
0002
0000
0000
0000
0000
0000
0000
0200
0030
0300
0020
0000
0200
0033
0002
0000
0000
0003
0000
0002
,
0000
0000
2300
3200
0000
0000
0000
0300
0000
0000
0000
0000
0200
0003
0000
0020
2000
0000
0000
0000
0002
0000
0030
3003
0322
2200
0000
0000
0000
0000
0000
0000
,
0000
0000
0000
0000
0000
0000
0000
0000
0000
0000
0000
0000
0000
0000
0000
0000
0000
0000
0000
0000
0000
0000
0000
0000
0000
0000
0000
0000
0000
0000
0000
3333
,
0000
0000
0000
0002
0000
0203
0300
0000
0010
0000
0000
2000
3200
0300
0000
0200
0302
0000
0003
0220
2300
3030
0000
0000
0002
0200
0303
0000
0200
0300
0000
0020
,
0032
0203
0300
0000
0220
0332
2203
3300
0000
2000
3000
0000
1000
0000
2000
0220
3002
0330
0223
0000
2330
0200
3020
0300
0032
0023
2030
0000
3200
0320
0032
0200
,
0003
0300
0000
0000
0000
0000
0000
0000
0000
0000
0000
0000
0020
0230
0310
0100
0210
0320
0230
0310
0100
0210
0320
0230
0310
0100
0210
0300
0020
0230
0320
0230
,
0310
0000
0000
0000
0000
2000
3002
2003
3000
2001
3002
2003
0002
3003
0002
0003
0002
2000
0003
3002
2003
3002
0203
0300
0000
0000
0200
0002
0300
0203
0302
0203
,
0302
0003
0020
2000
0030
3020
2030
3020
2000
3030
0000
2020
3030
0020
2030
3000
0000
2020
3030
2010
3000
2000
3020
1030
0000
0020
2030
3010
0000
0020
2032
0000
,
0000
0000
0000
0000
,
0000
0000
0000
0000
0100
0000
0010
0100
0010
0100
0010
0000
,
0000
0010
0000
0000
0000
0000
0000
0000
0000
0000
0000
0000
,
0003
0000
0000
0000
0000
0000
3001
0000
0000
0000
0010
0020
0030
0200
0000
0000
0300
0000
0000
0000
0002
0000
0000
0000
0000
0000
2003
0000
0000
3000
0200
0300
0020
0030
0002
0003
0000
0200
0320
0000
2000
0030
3200
0302
0200
0323
0030
0000
,
0000
0000
0000
0000
0200
0300
0100
0000
0200
0300
0000
0020
0030
0000
0020
0030
0000
0002
0003
0000
0002
0003
0010
0000
0020
0030
0020
2030
3000
0000
0000
0010
0000
0001
0000
0000
0200
0320
0032
0003
0000
2200
0000
3302
0020
0203
0030
2300
,
3200
0300
0002
0020
0003
2030
0200
3000
0320
0032
0023
0000
2000
0230
3000
0020
0332
0020
0000
0233
2300
0200
3000
0322
0030
0023
0200
2330
0200
3000
0320
0032
0023
0000
0030
0000
0000
0002
2000
0000
3000
0023
2000
0000
0000
0000
0000
0000
,
0232
3000
0000
0000
0000
0320
0000
0000
0000
0000
0000
0200
0000
0000
2000
0303
0000
0000
0000
0032
3003
0000
0002
0003
0020
0230
0000
0000
2300
0000
3200
0320
0031
0200
0302
0003
0200
0302
0003
0202
0303
0000
0201
0300
0022
2033
3020
1000
,
0030
0020
1030
0000
0010
0000
0020
0031
0000
2020
3030
0000
2010
3000
0020
1030
0000
2020
0000
0000
0000
0000
0000
3032
0000
0203
0000
0300
2000
0000
3200
0020
0332
0020
0003
0230
0300
0000
0000
0020
0030
0001
0200
0302
0003
0010
2000
3000
,
2000
3200
0300
0001
0000
0200
0300
0100
0100
0000
0000
0000
0000
0200
0300
0100
0100
0100
0100
0100
0100
0000
0000
0200
0300
0000
0000
0000
0000
0000
0100
0100
0100
0100
0100
0000
0100
0200
0300
0000
0200
0300
0000
1002
2003
0200
0020
0002
,
3000
0330
2023
3030
0000
2000
0222
0000
0000
0000
0000
0000
0000
0000
0000
0000
0000
0000
0000
0000
0000
0000
0000
0000
0000
0000
0000
0000
0000
0000
0000
0000
0000
0000
0000
0000
0000
0000
0000
0000
0000
0000
0000
0000
0000
0000
0000
0303
,
3030
0000
0000
0000
0000
0000
0000
0000
1000
0000
0000
0000
0000
0000
0000
0000
0200
0000
0000
0000
0000
0000
0000
0000
0020
0000
0000
0000
0000
0000
0000
0000
0330
0000
0000
0000
0000
0000
0000
0000
0000
0000
0000
0000
0000
0000
0000
0000
0002
0000
0000
0000
0000
0000
0000
0000
0003
0000
0000
0000
0000
0000
0000
0000
0000
0000
0000
0000
0000
0000
0000
0000
0200
0000
0000
0000
0000
0000
0000
0000
0300
0000
0000
0000
0000
0000
0000
0000
0020
0000
0000
0000
0000
0000
0000
0000
0032
0000
0000
0000
0000
0000
0000
0000
0003
0000
0000
0000
0000
0000
0000
0000
0100
0000
0000
0000
0000
0000
0000
0000
2000
0000
0000
0000
0000
0000
0000
0000
0000
0000
0000
0000
0000
0000
0000
0000
0200
0000
0000
0000
0000
0000
0000
0000
3300
0000
0000
0000
0000
0000
2200
0000
0000
0000
0000
0000
3020
0000
0000
0000
0000
0000
0300
0000
0000
0000
0000
0000
0032
0000
0000
0000
0000
0000
0003
0000
0000
0000
0000
0000
0100
0000
0000
0000
0000
0000
0200
0000
0000
0000
0000
0000
,
0320
0030
0000
0000
0000
2000
3000
0000
0000
0100
0020
0032
0003
0100
0020
2030
3000
0200
0320
0032
0203
0320
0030
0000
0000
2000
3000
0000
0000
0001
0000
0000
,
0000
0200
0300
0000
0010
0020
0030
0000
2000
3200
0300
0002
0003
0100
0200
0310
0000
0000
0000
0010
0020
0030
0000
0200
0300
0200
0300
2000
3000
2000
3000
2000
,
3000
0200
0300
0002
0003
0100
0200
0300
0020
0030
0010
0020
0030
0200
0301
0000
0000
2000
3020
0030
0200
0300
0202
0303
0000
0000
0000
2020
3030
0002
0203
0320
,
0030
0000
0000
0100
0000
0000
0000
0101
2000
3000
0000
0000
0000
0010
0000
0201
0300
0000
0000
0000
0200
0300
0200
0300
0000
0000
0000
0002
1003
2000
0002
0000
,
3200
0323
0000
0230
0000
2300
0000
3200
0000
0000
0320
0000
0000
0000
0000
0032
0000
0200
0003
0020
0300
0000
2000
0030
0000
0000
0000
0200
3000
0320
0000
0000
,
0000
0000
0032
0000
0000
0200
0003
0020
0300
0000
2030
0000
0000
0000
0000
3200
0000
0000
0322
0030
0000
0003
0002
0100
0003
0202
0303
0020
1030
0000
0200
0000
,
2020
3300
0032
0000
0200
0000
0000
0000
0000
0000
0323
2000
0000
0200
3032
0000
0300
0020
0003
0200
0030
0000
2300
0000
0000
3002
0000
0000
0000
0000
0000
0000
,
0000
0203
0302
0200
0003
0020
0330
0000
0020
0030
0000
0200
0002
0300
0203
0300
0020
0030
0000
0020
0030
0200
0000
0302
0203
0300
0020
0030
0000
0010
0000
0000
,
0000
2000
3000
0002
0000
0200
1003
0300
0200
0300
0000
1000
2000
0002
3000
0000
0203
0300
0000
0100
0000
0000
2000
0002
3000
0000
0200
0303
0000
0100
0000
0000
,
2000
0000
3002
0000
0203
0300
0000
0200
0300
0002
0003
0001
0002
0003
0200
0000
0320
0030
0002
0003
0000
2000
3000
0000
0002
0003
0000
0010
0000
0200
0300
0001
,
0000
0100
0000
0000
0020
2030
0200
3000
0020
0332
0003
0200
0000
0320
0030
2000
3000
0200
0002
0300
0203
0300
0000
0010
0000
2000
3000
0000
0200
0300
0002
0003
,
0200
0300
0020
0030
0010
0002
0103
0000
0200
0301
0002
0000
0000
0200
0000
2000
0020
0300
0000
0203
0002
3300
2003
0030
0000
0000
0002
3200
0003
0302
0203
0320
,
2000
3030
0200
0020
0302
0033
0002
0203
0020
0300
0030
2000
0200
0000
3320
0032
0200
0303
0000
0010
0000
0010
0020
0030
0100
0000
2000
0000
0000
3000
0200
0300
,
0000
0020
0030
0000
0002
0003
0000
0100
0000
0000
0020
0030
0000
0000
0000
2002
0000
0000
3003
0000
0000
0220
0000
0000
0000
0000
0000
0000
0000
0000
0000
0330
,
0002
2000
0003
3200
0000
0302
0203
0300
0020
2000
0030
3000
0200
0320
0032
0203
0320
0000
2030
0200
3000
0322
0030
0203
0302
0200
0303
0000
0000
0000
0000
0000
,
0000
0000
0000
0000
0000
0000
0000
0000
0000
0000
0000
0000
0000
0000
0000
0000
0000
0000
0000
0000
0000
0002
0023
2230
3320
2030
3200
2300
3010
0020
2030
3200
,
0320
0130
1200
0300
2000
3200
2300
3020
0230
2310
3020
1030
0000
0110
0021
2230
3311
1100
2220
3300
2032
3113
1012
0023
2032
3003
2001
3010
0200
2312
3203
1000
,
2001
0310
3002
0020
2033
0220
3300
0032
0220
2333
0000
0000
3202
1300
2023
3200
0030
0000
0302
0200
2003
0300
3002
0123
0232
0320
0233
0000
2300
3000
0002
2003
,
3000
0002
0003
2000
3200
0301
2200
3302
0023
0031
2010
3201
0302
2023
3032
0023
0032
2103
3002
0013
0001
2002
0003
0012
3003
0002
0023
2030
3002
2003
0000
0020
,
3030
2100
3011
0002
1203
2302
3203
1302
2203
3302
1103
2021
0030
3202
2300
3000
0203
2302
3223
0300
0230
0002
2300
3020
2103
0030
0000
0200
3022
0330
2203
0302
,
3023
0000
0032
0000
2023
0000
0032
0000
3203
0000
0302
0000
0200
0000
2023
0000
3302
0000
2230
0000
3003
0000
0302
0000
0223
0000
0002
0000
2330
0000
0203
0000
0000
0000
0022
0000
3330
0000
2113
0000
0121
0000
3130
0000
0000
0000
0000
0000
MMMM
0000
MMMM
0000
MMMM
MMMM
M0MM
MMMM
MMMM
MMMM
MMMM
MMMM
MMMM
MMMM
MMMM
2222
,
3333
0000
0000
2222
0000
0000
3333
0000
0000
1000
0000
0000
2222
0000
0000
3333
0000
0000
1MM1
0000
0000
2022
0000
0000
3200
0000
0000
0330
0000
0000
1010
0000
0000
2023
0000
0000
0000
0000
0000
3030
0000
0000
0000
0000
0000
0011
0000
0000
0000
0000
0000
0000
0000
0000
2000
0000
0000
0002
0000
0000
3003
0000
0000
0002
0000
0000
0200
0000
0000
0303
0000
0000
0000
0000
0000
0002
0000
0000
0023
0000
0000
0032
0000
0000
0203
0000
0000
0302
0000
0000
0023
0000
0000
2030
0000
0000
0200
0000
0000
3020
0000
0000
0332
0000
0000
0023
0000
0000
0030
0000
0000
0200
0000
0000
0002
0000
0000
0303
0000
0000
1201
0000
0000
0000
0000
0000
0000
0000
0001
0000
0000
0000
0300
0000
0000
0000
0000
0000
0000
0000
0000
0000
0000
0000
0000
0000
0000
0000
0000
0000
0000
0000
0000
0000
0000
0000
0000
0000
0000
0000
0002
0000
0000
0000
0000
0000
0000
0000
0000
0000
0000
0000
0000
0000
0000
0000
0023
0000
0000
0000
0000
0000
0000
0000
0000
0000
0000
0000
0000
0000
0000
0000
,
0032
2003
3022
0033
0021
0032
0023
2200
3330
0022
2200
0000
,
0000
0000
0000
0000
0000
0000
0000
0000
0000
3333
2220
3332
0023
2100
3032
2023
3032
0013
0022
2003
3032
0203
2300
0000
,
0000
0000
0000
0000
3020
0000
0030
0220
0300
0230
0002
0320
2000
0033
0000
0000
0000
0000
0000
0000
0002
0000
0000
3000
,
0023
0000
0200
0030
0000
0000
0302
0203
0000
0000
0000
0000
0000
0020
0300
0000
2030
0000
3200
0000
0000
0302
0000
0200
,
0003
0320
0000
0000
0000
0000
0000
0000
0030
0000
0222
0333
2020
0102
0000
0003
3030
0222
0333
2212
3303
0220
0330
0022
,
1200
0000
0000
0000
0000
0000
0000
0000
0333
0000
0000
0000
2220
0000
0000
0000
0000
0000
3330
0000
0000
0000
0000
0000
0222
0000
0000
0000
0000
0000
0333
0000
0000
0000
0000
0000
0220
0000
0000
0000
0000
0000
0331
0000
0000
0000
0000
0000
0010
0000
0000
0000
0000
0000
2022
0000
0000
0000
0000
0000
3033
0000
0000
0000
0000
0000
0001
0000
0000
0000
0000
0000
0002
0000
0000
0000
0000
0000
0203
0000
0000
0000
0000
0000
0022
0000
0000
0000
0000
0000
0333
0000
0000
0000
0000
0000
2020
0000
0000
0000
0000
0000
0000
0000
0000
0000
0000
0000
0000
0000
0000
0000
0000
0000
3030
0000
0000
0000
0000
0000
0000
0000
0000
0000
0000
0000
2000
0000
0000
0000
0000
0000
3000
0000
0000
0000
0000
0000
0100
0000
0000
0000
0000
0000
0000
0000
0000
0000
0000
0000
0200
0000
0000
0000
0000
0000
0300
0000
0000
0000
0000
0000
0000
0000
0000
0000
0000
0000
0020
0000
0000
0000
0000
0000
0032
0000
0000
0000
0000
0000
0203
0000
0000
0000
0000
0000
0302
0000
0000
0000
0000
0000
,
0003
0000
0000
0000
0000
0000
0022
0000
0000
0000
0000
0000
2200
0000
0000
0000
0000
0000
3330
0000
0000
0000
0000
0000
0203
0000
0000
0000
0000
0000
1321
0000
0000
0000
0000
0000
2202
0000
0000
0000
0000
0000
0000
0000
3330
0000
0000
0000
0003
0000
0000
0000
0000
0000
0000
0000
2000
0000
0000
0000
0210
0000
0000
0000
3300
0000
0000
0000
2220
0000
0000
0000
3330
0000
0000
0000
0202
0000
0000
0000
0303
0000
0000
0000
0200
0000
0000
0000
0300
0000
0000
0000
0002
0000
0000
0000
0203
0000
0000
0000
0302
0000
0000
0000
2023
0000
0000
0000
0030
0000
0000
0000
0020
0000
0000
0000
0000
0000
0000
0000
0000
0000
0000
0000
0000
0000
0000
0000
0000
0000
0000
0000
0002
0000
0000
0000
3230
0000
0000
0000
0000
0000
0000
0000
2023
0000
0000
0000
0302
0000
0000
0000
0030
0000
0000
0000
0203
0000
0000
0000
0000
0000
0000
0000
3002
0000
0000
0000
0300
0000
0000
0000
0203
0000
0000
0000
0302
0000
0000
0000
2003
0000
0000
0000
0002
0000
0000
0000
3020
0000
0000
0000
,
0003
2000
3000
0002
2000
0003
3002
2003
3002
0203
0332
2023
3002
2003
3002
2003
3000
2002
3000
0000
2000
0000
0000
0000
0000
3033
2020
3030
1000
1000
0002
1103
1001
1000
0002
0013
0012
0013
2011
3001
2120
3002
0130
0003
0001
0020
0030
2000
,
3020
1030
0000
0011
0011
0011
0000
0000
0022
2033
3021
0030
1000
0000
1020
1030
1001
0001
0000
1000
0000
2002
3013
1100
1002
0003
1100
0000
1000
0000
1000
0000
0002
0003
0002
1023
1131
2010
3200
2002
3320
0203
0330
0022
0000
0203
0332
0023
,
2000
3030
0202
0003
0300
0200
0020
0330
0002
0200
0023
0300
2030
0112
3020
2203
3330
2020
3132
0223
1332
2003
3022
2203
0332
0223
0300
0030
0000
0000
0000
0000
0000
0000
0000
0000
0020
0000
0000
0000
0000
0000
0000
0000
0100
0000
0000
0000
,
3232
0310
0000
2220
0000
0000
0033
0000
0010
3310
0010
0000
,
0220
0330
0110
0110
0110
0000
0000
0020
0030
0110
0110
0010
,
0000
0220
0330
0110
0110
0110
0220
2330
3200
0000
0000
2300
,
3002
0000
0000
0000
0000
0000
0000
0000
0000
0000
0000
0000
0000
0000
0000
0000
0200
0000
0000
0000
0000
0000
0000
0000
0000
0000
0000
0000
0000
0000
0000
0000
2303
0000
0000
0000
0000
0000
0000
0000
0000
0000
0000
0000
0000
0000
0000
0000
3000
0000
0000
0000
0000
0000
0000
0000
0000
0000
0000
0000
1022
0000
0000
0030
0000
0000
0220
0000
0000
0333
0000
0000
0212
0000
0000
2323
0000
0000
0030
0000
0000
3212
0000
0000
0000
0000
0000
0003
0000
0000
0302
0000
0000
2220
0000
0000
0333
0000
0000
3111
1010
0000
0000
0000
0020
0000
0000
0000
0030
0000
0000
0000
2020
0000
0000
0000
3032
0000
0000
0000
2023
0000
0000
0000
3032
0000
0000
0000
2023
0000
0000
0000
0032
0000
0000
0000
3200
0000
0000
0000
0303
0000
0000
0000
0000
0000
0000
0000
2002
0000
0000
0000
0000
0000
0000
0000
0000
0000
0000
0000
0000
0000
0000
0000
0000
0000
0000
0000
0000
0000
0000
0000
0000
0000
0000
0000
0000
0000
0000
0000
0000
0000
0000
0000
0000
0000
0000
0000
0000
0000
0000
0000
,
0000
0000
0000
0000
0000
0000
0000
0000
0000
0000
3200
0000
0003
0300
0100
2100
0200
3322
0033
0000
0000
0000
0000
0000
0000
0000
0000
0000
0000
2000
3000
0000
0100
0100
0101
0110
0100
0102
0103
0101
0201
0320
0030
0010
0010
0210
0310
0110
,
0200
0302
0123
0131
0100
1010
1200
0300
0202
2300
0023
3032
0203
0002
0303
0202
0000
0000
0000
0000
2000
0323
0000
0000
3000
0032
0200
0003
0322
0230
0003
0302
0000
2003
0020
3000
0030
0202
0303
0000
0001
0202
0303
0200
0301
2002
0120
0033
,
3022
2230
3303
0000
0222
0030
0000
0000
0000
0000
0000
0000
0000
0000
0000
0000
0000
0000
0000
0000
0000
0000
0320
0200
0000
0030
0000
0023
0000
0300
2032
0000
0003
0002
0000
0023
3002
0230
0003
0302
2000
0003
3002
0003
2020
3032
2003
0002
,
3200
0003
0320
0200
0000
0332
0203
0000
0302
2003
0000
3200
0022
0300
0233
0020
0302
0030
2003
3000
2000
3200
0000
0000
0302
0003
0000
0100
0000
0000
0000
0000
0000
0000
0000
0000
0000
0000
0000
0000
0000
2000
0200
3002
0300
0203
0302
0003
,
0020
0000
0230
2300
0200
3000
0300
0200
0002
0300
2003
0200
3300
0000
0000
0000
0000
0000
0000
2020
0102
0000
0000
0000
0000
0000
0000
0000
0203
0000
0000
0000
0000
0000
0000
0002
0000
0000
0000
0000
0000
0000
0000
0000
0000
0000
0000
0000
,
0000
0000
0000
0000
0000
0000
0000
0300
0000
0000
0200
0000
,
0000
0000
0000
0000
0000
0000
0000
0000
0000
0000
0000
0000
0000
0000
0000
0000
0000
0000
0000
0000
0000
0000
0000
0000
0000
0000
0000
0000
0000
0000
0000
0000
0000
0000
0000
0000
0000
0000
0000
0000
0000
0000
0000
0000
0000
0000
0003
3330
,
1111
0000
0000
0000
0000
0000
2200
0002
3300
0203
0302
0203
0022
0300
2003
0030
0200
0000
3020
0332
0203
0302
2003
0000
0000
0000
0000
0000
0200
0000
0000
0000
0000
0000
0000
0000
3000
0000
0020
0302
0000
0230
0023
0300
0000
0000
2030
0000
,
0000
0200
3020
0302
2203
0300
0000
3030
0000
0000
0000
0000
0000
0000
2000
0200
0022
3330
2023
0100
3230
0302
0200
0000
0000
0000
0000
0000
0023
2300
0002
3030
0003
0002
0210
0003
0322
2203
0302
0003
3032
0023
0030
0022
2200
3330
0003
0222
,
2330
3003
0212
0303
2000
0000
0200
3000
0322
0233
2300
0002
0223
3002
0003
2330
0000
0000
0000
0000
0000
0000
0000
0000
0000
0000
0000
0000
3000
0000
0000
2200
3020
0332
0203
0302
0203
0302
2023
0000
3030
0000
0000
0002
0203
0300
0000
0020
,
0032
0023
0232
0000
0003
0320
2030
0000
0200
3000
0000
0000
0000
0000
0302
0023
0032
0203
0000
0300
0100
0000
0000
0000
2000
3000
1000
2000
3100
1000
0200
0310
0002
0003
0022
0033
0120
0230
2300
3000
0000
0021
0031
0020
0200
0330
0000
0000
,
0000
2100
3000
0200
0320
0100
0031
0200
0020
0330
1200
0300
0200
2300
3010
0100
0002
0003
0220
0300
0030
0000
0000
2000
3200
0000
0320
0030
0022
0033
0210
0320
2030
3200
2300
3010
0000
0220
0332
2220
0333
0022
3000
2003
0032
0223
0332
3003
,
1000
0000
0010
0000
2002
0010
3003
0022
0033
2020
3031
0001
0002
0023
0031
0110
0201
0322
0133
0000
0011
2020
3030
2010
3000
1200
0320
0131
2010
3200
0322
0133
0122
0033
2000
3022
1033
0021
0031
1020
0032
0220
2333
3202
0303
0102
2003
0202
,
3303
0000
0000
0000
1001
0000
0000
0000
0222
0000
0000
0000
1333
0000
0000
0000
1101
0000
0000
0000
0022
0000
0000
0000
0033
0000
0000
0000
0000
0000
0000
0000
0011
0000
0000
0000
0022
0000
0000
0000
2200
0000
0000
0000
0000
0000
0000
0000
0000
0000
0000
0000
0000
0000
0000
0000
0300
0000
0000
0000
3033
0000
0000
0000
0000
0000
0002
0000
0000
0000
0000
0000
1203
0000
0000
0000
0000
0000
2302
0000
0000
0000
0000
0000
3023
0000
0000
0000
0000
0000
0031
0000
0000
0000
0000
0000
2000
0000
0000
0000
0000
0000
3222
0000
0000
0000
0000
0000
1333
0000
0000
0000
0000
0000
1000
0000
0000
0000
0000
0000
1200
0000
0000
0000
0000
0000
0300
0000
0000
0000
0000
0000
0122
0000
0000
0000
0000
0000
1133
0000
0000
0000
0000
0000
0020
0000
0000
0000
0000
0000
1030
0000
0000
0000
0000
0000
0000
0000
0000
0000
0000
0000
2002
0000
0000
0000
0000
0000
0000
0000
0000
0000
0000
0000
0000
0000
0000
0000
0000
0000
0020
0000
0000
0000
0000
0000
0000
0000
0000
0000
0000
0000
,
0000
0000
0000
0000
0000
0000
0000
3000
1003
0032
0223
0332
0223
0332
0203
2300
0200
3020
0332
0203
0320
0032
2003
0000
0000
0000
3200
0020
0332
0203
0302
0203
,
0302
0023
2000
0230
3002
0300
0203
0000
0000
0300
2000
3000
0002
0203
0002
0320
2003
0030
3200
0022
0330
0203
0322
0030
0203
0000
0000
0000
0000
0320
0000
0232
,
0303
0022
0003
0030
2000
0200
3000
0010
0000
0000
0302
0023
0202
0033
0000
0000
0000
0302
0000
0200
0003
0302
0003
0002
0200
0303
2002
0003
3200
0020
0302
0233
,
2300
3000
0002
0000
0000
0003
0002
0000
0000
0023
0032
0023
2000
0030
0000
0000
0000
3000
0002
0000
0000
0000
0000
0000
0000
0023
0032
0023
2030
0000
0000
3000
,
0200
2300
0200
3022
0330
0000
0000
0000
0000
0000
0000
0000
0000
0220
2303
3032
2023
0202
0000
0000
0033
3000
0302
0223
2000
0330
0000
0000
3200
0300
2000
0020
,
3202
0330
0000
0000
0000
0003
0000
0000
0000
0000
0000
0000
1000
2000
0002
3003
0002
0203
2300
0000
3220
0302
0030
0003
2000
3200
0302
0000
0000
0000
0023
0200
,
2030
0300
3000
2000
0002
3000
2003
0000
3000
2000
0202
3300
0000
2003
0200
3020
0302
0030
0000
0000
0000
0003
0000
1000
2000
0200
3022
0330
0003
0222
0300
0033
,
0202
2003
0302
3003
2022
3033
2020
3032
0000
0000
0003
0000
0002
0023
0230
0302
0023
0002
0233
0300
0020
0232
0003
0302
2000
0203
3020
0302
0030
0000
0000
0000
,
0000
0000
0000
0000
0000
0003
0000
0002
0000
0000
0000
0000
0000
0000
0000
0000
0000
0000
0000
0000
0000
0000
0000
0000
0000
0000
0000
0000
0000
0000
0000
0000
,
0000
0000
0000
0000
0000
0000
0000
0000
0000
0000
0000
0000
0000
0000
0000
0000
0000
0000
0000
0000
0000
0000
2000
0000
3000
0000
0000
0000
2000
0000
0000
3000
,
2000
0000
3000
0000
0000
0000
0000
0000
0000
2000
0000
3000
2000
0000
3000
2000
3000
2000
3000
2000
0000
3000
0200
0000
0300
0020
0000
0030
2000
3000
0200
0000
,
0300
2000
3200
0000
0300
0000
0020
0030
0203
0302
0000
0000
0200
0000
0300
0000
0000
0000
0000
0000
0000
0003
0000
0000
0020
0032
0020
0200
0030
0000
2003
0000
,
3300
0020
0030
0002
0203
0000
0300
0000
2000
0000
3000
0200
0000
0000
2322
0000
0200
0000
0000
0000
0000
0000
0000
0000
0000
0000
0000
0000
0000
0000
0000
0000
,
0000
0000
0000
0000
,
0000
0000
0000
0000
0000
0000
0000
0000
0000
0000
0000
0000
0000
0003
0000
0002
0000
0000
0000
0000
0000
0000
0000
3033
2300
0200
3300
2020
0002
3230
0320
0003
,
0032
0023
2200
3330
0010
0002
0203
0302
0003
0202
0320
2003
0030
3002
0003
0001
0001
0000
0002
0003
2220
0000
0000
0000
0002
0003
0000
0000
0002
0003
0000
0002
,
0000
0000
0003
0000
0000
0000
0000
0000
0000
0000
3002
0330
0020
1000
0033
0000
0000
0200
0300
0000
0000
2200
3000
0320
0000
0232
0003
0301
2001
3000
0000
0002
0003
2001
3000
0020
0202
2033
0300
0000
0020
3000
0000
0232
2003
0300
3022
0003
0000
0200
0032
0303
0001
1001
0000
0000
0000
2002
3003
0000
0002
0223
0301
0230
,
2002
0303
3201
0020
0302
0233
2000
0300
3022
0203
0030
0302
2003
3000
0000
0002
0003
2001
3002
0003
0201
0302
0013
0200
0301
0020
0032
2003
3000
0202
0303
0020
0030
0002
0203
0300
2200
0002
0303
3000
0020
0230
0302
0003
0001
0002
0203
0321
0002
0203
2032
0303
3022
0203
2031
0302
3023
0002
0233
0302
0223
0031
0300
2000
,
3000
0001
0000
0000
0000
0000
0000
0000
0000
0000
0000
0000
0000
0000
0000
0000
0000
0000
0000
0000
0000
0000
0000
0000
0000
0000
0000
0000
0000
0000
0000
0000
0000
0000
0000
0000
0000
0000
0000
0000
0000
0000
0000
0000
0000
0000
0000
0000
0000
0000
0000
0000
0000
0000
0000
0000
0000
0000
0000
0000
0000
0000
0000
0000
;
