#TITLE:Crystal Wind;
#SUBTITLE:;
#ARTIST:MaxXx65535;
#TITLETRANSLIT:;
#SUBTITLETRANSLIT:;
#ARTISTTRANSLIT:;
#CREDIT:;
#BANNER:../banner.png;
#BACKGROUND:../bg.png;
#LYRICSPATH:;
#CDTITLE:;
#MUSIC:Crystal Wind.ogg;
#OFFSET:0.012;
#SAMPLESTART:106.486;
#SAMPLELENGTH:20.740;
#SELECTABLE:YES;
#BPMS:0.000=186.995;
#STOPS:;
#BGCHANGES:;
// cache tags:
#FIRSTBEAT:4.000;
#LASTBEAT:404.000;
#SONGFILENAME:Songs/Cirque du Lykan/Crystal Wind - [Zaia]/Crystal Wind.sm;
#HASMUSIC:1;
#HASBANNER:1;
#MUSICLENGTH:137.138;
// end cache tags

//---------------dance-single - Zaia - 14(mid)----------------
#NOTES:
     dance-single:
     Zaia - 14(mid):
     Challenge:
     14:
     1.000,1.000,0.080,0.241,1.000,1141.000,11.000,33.000,0.000,0.000:
0000
0000
0000
0000
,
1000
1001
0000
0001
0000
0010
0100
1000
,
0000
0000
0000
0000
0000
0001
1000
0010
,
0101
0001
0000
1000
0000
0001
0010
0100
,
0000
0000
0000
0000
0000
1000
0100
0010
,
1001
0001
0100
0010
0000
0100
0001
1000
,
0000
0000
0000
0000
0000
0100
0010
0001
,
0011
0010
0000
0001
0000
1000
0001
0100
,
0000
0000
0000
0000
0000
0010
1000
0001
,
0100
0001
1000
0001
0010
0001
1000
0010
,
1000
0001
1000
0100
0010
0100
1000
0001
,
0100
0001
0010
0001
1000
0001
0010
0100
,
1000
0001
0100
0010
0100
0001
1000
0100
,
1000
0000
1100
0000
0000
0001
1001
0000
,
1000
0000
1010
0000
0000
0010
0110
0000
,
0001
0000
0101
0000
0000
1000
1001
0000
,
0001
0000
0000
0000
1000
0000
0001
0100
0001
1000
0001
0000
1000
0000
0000
0000
,
0001
0100
0010
1000
0001
1000
0001
0100
0001
0010
0100
0010
0100
1000
0001
0100
,
0010
0100
0001
1000
0100
1000
0001
0010
0100
0010
0001
1000
0010
1000
0100
1000
,
0001
1000
0001
0100
0010
0100
0001
1000
0100
0010
0100
1000
0001
0010
0001
1000
,
0001
0100
0010
0100
0010
1000
0001
1000
0100
1000
0001
0010
0100
1000
0001
1000
,
0001
0000
0000
0100
0000
0000
0010
0000
0000
0100
0000
0000
0001
0000
0000
1000
0000
0000
0100
0000
0000
0010
0000
0000
0100
0000
0000
1000
0000
0000
0001
0000
0000
0000
0000
0000
0100
0000
0000
0000
0000
0000
0002
0000
0000
0000
0003
0000
,
1000
0100
0010
0100
1000
0001
1000
0001
0100
0010
0100
0001
1000
0100
0010
0001
,
0100
0010
1000
0010
0100
0001
1000
0100
1000
0001
0010
0100
0010
0100
1000
0001
,
0100
0010
1000
0001
0010
0001
1000
0100
1000
0001
0100
0010
0100
0001
1000
0001
,
1000
0010
0100
0001
1000
0100
1000
0010
0100
0001
0010
0100
0010
0001
0100
0010
,
1000
0001
1000
0100
1000
0010
0100
0001
1000
0100
0010
0100
1000
0010
0100
0001
,
1000
0100
0010
0001
1000
0100
1000
0010
0100
0001
0100
0010
1000
0001
0010
0100
,
0010
0001
0100
0010
1000
0100
1000
0001
0100
0010
0100
0001
1000
0100
0010
0001
,
1000
0010
0100
0010
1000
0001
0010
0001
0100
0010
1000
0001
0100
0001
0010
0100
,
1000
0100
1000
0001
0100
0010
1000
0001
1000
0100
0010
0001
1000
0010
0100
0001
,
1000
0100
0010
0100
1000
0001
0100
0001
0010
0001
1000
0100
0010
0100
1000
0001
,
0100
0010
1000
0010
0100
0001
1000
0100
0010
0100
1000
0001
0100
0010
0100
0001
,
1000
2000
0010
3020
,
0100
0230
0001
0302
,
0023
0000
0000
0000
0000
0000
0000
0000
0130
1000
0001
0010
0200
0000
0000
0000
,
0000
2300
0000
3020
,
0130
0001
0001
1000
0001
0001
0010
0100
,
0100
1000
0001
0001
0100
0010
1000
0010
,
0100
0001
0010
0001
1000
0010
1000
0001
,
0010
0100
1000
0100
0010
0001
0100
0010
,
1000
0001
0100
0001
1000
0010
0100
0001
1000
0001
0010
0100
0010
0001
1000
0100
,
1000
0001
1000
0010
0100
0001
1000
0001
1000
0100
1000
0001
0010
0001
1000
0100
,
0010
0001
1000
0001
0100
0010
1000
0010
0100
0001
1000
0100
0010
0001
1000
0001
,
0010
0100
0010
0001
1000
0100
1000
0100
0010
0100
1000
0001
1000
0010
0100
0010
,
1000
0001
0010
0100
1000
0001
0100
0001
1000
0100
1000
0010
1000
0001
0100
0001
,
0010
0001
1000
0100
1000
0010
0100
0001
1000
0100
0010
0100
1000
0010
0100
0001
,
0100
0010
1000
0010
0100
0001
0100
0010
,
0000
0000
0000
0000
0000
1000
0001
1000
,
0001
0100
0010
0100
0001
1000
0100
1000
0001
0010
0100
0010
0001
0000
0100
0000
,
0010
1000
0001
1000
0010
0100
0001
0100
0010
1000
0001
0010
0001
1000
0001
1000
,
0100
0010
0100
0010
0001
1000
0010
0100
0010
1000
0001
0010
0100
1000
0100
1000
,
0001
0010
0001
1000
0001
0100
0010
0100
0001
0000
1000
0000
0100
0010
0001
0100
,
0010
1000
0100
0010
0001
0100
0010
1000
0001
0100
0010
0100
0001
1000
0010
0100
,
0001
0010
0100
1000
0001
1000
0100
0010
0001
1000
0100
0010
0001
1000
0010
0100
,
0010
1000
0001
0010
0001
1000
0100
1000
0010
1000
0001
0100
0010
0100
0001
1000
,
0100
0010
0100
1000
0001
0100
0010
0100
0001
1000
0010
0100
0001
1000
0001
0100
,
0010
1000
0010
0100
0001
1000
0100
0010
0100
1000
0001
1000
0010
0100
0001
0100
,
0010
1000
0001
0010
0001
1000
0100
1000
0010
0100
0001
1000
0100
0010
0100
1000
,
0001
0010
0100
1000
0001
1000
0010
0100
0001
0100
0010
1000
0001
0010
0001
1000
,
0001
0000
0010
0000
0010
0000
0000
0000
0001
0000
0000
1000
0000
0000
0001
0000
,
1000
0010
0100
0001
0010
0001
1000
0100
0010
0100
1000
0001
1000
0001
0100
0010
,
1000
0001
0100
0001
1000
0010
0100
0010
0100
0001
1000
0100
0010
0100
1000
0001
,
0010
0100
1000
0010
0100
0001
1000
0010
0100
0001
0010
0100
1000
0100
0010
0001
,
1000
0010
0100
0001
1000
0100
0010
0100
1000
0001
1000
0010
0100
0001
1000
0001
,
0100
0000
0000
0010
0000
0000
1010
0000
0000
1000
0000
0001
,
0200
0000
0302
0000
0023
0000
0000
0130
,
2000
0000
0000
3002
,
0000
0000
0023
0000
,
0032
2003
3020
0230
,
0000
0302
0000
0023
,
0000
0130
1000
0002
0000
0000
2003
0000
,
0000
0000
0000
0000
0000
0000
0000
0000
0000
0000
0000
0000
0000
0000
0000
0000
3020
0000
0000
0000
0000
0000
0000
0000
0000
0000
0000
0000
0000
0000
0000
0030
,
1000
0000
0010
0100
0010
0000
1000
0000
0001
0000
0000
0000
0000
0000
0000
0000
,
1000
0100
0010
0001
1000
0010
0100
0010
1000
0000
0000
0000
0000
0000
0000
0000
,
0001
1000
0001
0100
0010
1000
0002
0000
0103
0010
0100
0010
1000
0010
0100
0001
,
1000
0001
1000
0100
0010
0100
1000
0001
0010
0100
1000
0001
0010
0001
1000
0010
,
0100
0001
1000
0001
0100
0001
1000
0100
0010
0100
0010
0001
1000
0010
0100
0010
,
1000
0000
0000
0001
0000
0000
0100
0000
0000
0001
0000
0000
1000
0000
0000
0001
0000
0000
1000
0000
0000
0100
0000
0000
1000
0000
0000
0000
0000
0000
0002
0000
0000
0000
0003
0000
0100
0000
0000
0001
0000
0000
0100
0000
0000
0010
0000
0000
,
1000
0001
1000
0010
0100
0001
1000
0100
1000
0001
0010
0100
0010
0001
1000
0001
,
1000
0100
1000
0001
0010
0001
1000
0100
0010
0001
1000
0001
0100
0010
0100
0001
,
1000
0000
0000
0010
0000
0000
0100
0000
0000
0010
0000
0000
1000
0000
0000
0010
0000
0000
0100
0000
0000
0010
0000
0000
1000
0000
0000
0000
0000
0000
0002
0003
0000
0000
0000
0000
2000
3000
0000
0000
0000
0000
0002
0003
0000
0000
0000
0000
,
1000
0000
0000
0100
0000
0000
1000
0000
0000
0001
0000
0000
1000
0000
0000
0100
0000
0000
1000
0000
0000
0001
0000
0000
1000
0000
0000
0000
0000
0000
0200
0300
0000
0000
0000
0000
0020
0030
0000
0000
0000
0000
0200
0300
0000
0000
0000
0000
,
1000
0100
0010
0001
1000
0001
1000
0100
1000
0010
0100
0010
0100
0001
1000
0100
,
0010
0100
1000
0001
0100
0001
1000
0010
0100
0010
1000
0001
0010
0001
0100
0001
,
1000
0001
1000
0100
0010
0100
1000
0001
0100
0010
0100
0001
1000
0010
1000
0001
,
1000
0100
0010
0100
0010
0001
1000
0001
0100
0001
1000
0010
0100
0001
1000
0001
,
1000
0100
0010
0100
1000
0001
0100
0010
0100
0001
1000
0100
0010
0001
1000
0100
,
1000
0010
0100
0010
1000
0001
1000
0001
0010
0100
0010
0001
1000
0010
0100
0001
,
0010
0100
1000
0100
0010
0001
1000
0010
1000
0001
0100
0010
0100
0010
1000
0001
,
0010
0100
1000
0001
0100
0001
1000
0010
1000
0001
0010
0100
0010
0001
1000
0001
,
1000
0100
0010
0001
1000
0010
1000
0100
0010
0001
0100
0010
0100
0001
0010
0100
,
1000
0001
1000
0010
1000
0100
0010
0001
1000
0010
0100
0010
1000
0100
0010
0001
,
1000
0010
0100
0001
1000
0010
1000
0100
0010
0001
0010
0100
1000
0001
0100
0010
,
1000
0000
0001
0000
0001
0000
0000
0000
1000
0000
0000
0010
0000
0000
1000
0000
,
0001
1000
0100
1000
0001
0100
0010
1000
0100
0010
0001
1000
0100
1000
0010
0100
,
0001
0100
0001
1000
0100
0010
0001
1000
0001
0100
0010
1000
0001
0010
0100
1000
,
0001
0100
0010
0100
0001
1000
0100
1000
0010
1000
0001
0100
0010
0100
0001
1000
,
0100
0010
0001
0010
0100
1000
0001
0100
0010
0100
0001
1000
0100
0010
0100
1000
,
0002
0000
0000
0000
,
0000
0000
0000
0000
,
0003
0000
0000
0000
;

//---------------dance-single - Zaia - 12(high)----------------
#NOTES:
     dance-single:
     Zaia - 12(high):
     Hard:
     12:
     0.971,1.000,0.080,0.357,0.828,872.000,11.000,49.000,0.000,0.000:
0000
0000
0000
0000
,
1000
1001
0000
0001
0000
0010
0100
1000
,
0000
0000
0000
0000
0000
0001
1000
0010
,
0101
0001
0000
1000
0000
0001
0010
0100
,
0000
0000
0000
0000
0000
1000
0100
0010
,
1001
0001
0100
0010
0000
0100
0001
1000
,
0000
0000
0000
0000
0000
0100
0010
0001
,
0011
0010
0000
0001
0000
1000
0001
0100
,
0000
0000
0000
0000
0000
0010
1000
0001
,
0100
0001
1000
0001
0010
0001
1000
0010
,
1000
0001
1000
0100
0010
0100
1000
0001
,
0100
0001
0010
0001
1000
0001
0010
0100
,
1000
0001
0100
0010
0100
0001
1000
0100
,
1000
0000
1100
0000
0000
0001
1001
0000
,
1000
0000
1010
0000
0000
0010
0110
0000
,
0001
0000
0101
0000
0000
1000
1001
0000
,
0001
0000
0000
0000
1000
0000
0001
0100
0001
1000
0001
0000
1000
0000
0000
0000
,
0001
0100
0010
1000
0001
1000
0001
0100
0001
0010
0100
0010
0100
1000
0002
0000
,
0103
0010
1000
0001
0010
0001
1000
0100
0010
0100
1000
0001
0100
0001
0010
0001
,
1000
0001
1000
0010
0100
0010
1000
0001
0010
0100
0010
0001
1000
0100
1000
0001
,
1000
0010
0100
0010
0100
0001
1000
0001
0010
0001
2000
0000
3020
0000
2030
0000
,
3001
0000
0000
0100
0000
0000
0010
0000
0000
0100
0000
0000
0001
0000
0000
1000
0000
0000
0100
0000
0000
0010
0000
0000
0100
0000
0000
1000
0000
0000
0001
0000
0000
0000
0000
0000
0100
0000
0000
0000
0000
0000
0002
0000
0000
0000
0003
0000
,
1000
0100
0010
0100
1000
0001
1000
0001
0100
0010
0100
0001
1000
0100
0010
0001
,
0100
0010
1000
0010
0100
0001
1000
0100
1000
0001
0010
0100
0010
0100
1000
0001
,
0100
0010
1000
0001
0010
0001
1000
0100
1000
0001
0100
0010
0100
0001
1000
0001
,
1000
0010
0010
0100
0001
0001
1000
0100
,
0100
0010
0001
0001
1000
0010
0100
0001
,
0010
0100
0100
1000
0001
0001
0100
0010
,
0010
1000
0100
0100
0010
0001
0100
0001
,
1000
0100
0100
1000
0010
0010
0100
0001
,
0001
1000
0010
0010
0100
0001
1000
0001
,
0010
0100
0100
0010
0001
0001
1000
0010
,
0010
0100
0001
0001
1000
0100
0010
0001
,
1000
2000
0010
3020
,
0100
0230
0001
0302
,
0023
0000
0000
0000
0000
0000
0000
0000
0130
1000
0001
0010
0200
0000
0000
0000
,
0000
2300
0000
3020
,
0130
0001
0001
1000
0001
0001
0010
0100
,
0100
1000
0001
0001
0100
0010
1000
0010
,
0100
0001
0010
0001
1000
0010
1000
0001
,
0010
0100
1000
0100
0010
0001
0100
0010
,
1000
2000
0001
3002
,
0010
0023
0100
0230
,
1000
0000
0000
0000
1300
0000
0000
0000
0001
1000
0010
0100
0001
0000
0000
0000
,
0002
1000
2003
0010
,
3010
0100
0001
0010
0100
1000
0010
0100
,
0001
0100
0010
1000
0100
0010
0001
1000
,
0010
0100
0001
0100
0010
1000
0010
0100
,
0000
0000
0000
0000
0000
0001
1000
0001
,
1000
0010
0100
0010
1000
0001
0010
0001
1000
0100
0010
0100
1000
0000
0020
0000
,
0130
0001
1000
0001
0100
0010
1000
0010
0100
0001
1000
0100
1000
0001
1000
0001
,
0010
0100
0010
0100
1000
0001
0100
0010
0100
0001
1000
0100
0010
0001
0010
0001
,
1000
0100
1000
0001
1000
0010
0100
0010
1000
0000
0002
0000
2003
0000
3200
0000
,
1300
0001
0010
0100
1000
0010
0100
0001
1000
0010
0100
0010
1000
0001
2000
0000
,
3001
0010
0100
1000
0001
1000
0100
0010
0001
1000
0100
0010
0001
1000
0010
0100
,
0010
1000
0001
0010
0001
1000
0100
1000
0010
1000
0001
0100
0010
0100
0001
1000
,
0100
0000
0000
0000
0010
0000
0000
0000
0001
0000
1000
0010
0100
0010
0100
0010
,
1000
0001
0100
0010
1000
0001
0010
0100
0010
0001
1000
0001
0100
0010
0200
0000
,
0310
1000
0001
0010
0001
1000
0100
1000
0010
0100
0001
1000
0100
0010
0100
1000
,
0001
0010
0100
1000
0001
1000
0010
0100
0001
0100
0010
1000
0001
0010
0001
1000
,
0001
0000
0010
0000
0010
0000
0000
0000
0001
0000
0000
1000
0000
0000
0001
0000
,
1000
0010
0100
0001
0010
0001
1000
0100
0010
0100
1000
0001
1000
0001
0200
0000
,
0301
1000
0010
1000
0001
0100
0010
0100
0010
1000
0001
0010
0100
0010
0001
1000
,
0100
0010
0001
0100
0010
1000
0001
0100
0010
1000
0100
0010
0001
0010
0100
1000
,
0001
0100
0010
1000
0001
0010
0100
0010
0001
1000
0001
0100
0010
1000
0001
1000
,
0010
0000
0000
0100
0000
0000
0101
0000
0000
0001
0000
1000
,
0020
0000
2030
0000
3200
0000
0000
0310
,
0002
0000
0000
2003
,
0000
0000
3200
0000
,
2300
3002
0203
0320
,
0000
2030
0000
3200
,
0000
0310
0001
2000
0000
0000
3002
0000
,
0000
0000
0000
0000
0000
0000
0000
0000
0000
0000
0000
0000
0000
0000
0000
0000
0203
0000
0000
0000
0000
0000
0000
0000
0000
0000
0000
0000
0000
0000
0000
0300
,
0001
0000
0100
0010
0100
0000
0001
0000
1000
0000
0000
0000
0000
0000
0000
0000
,
0001
0010
0100
1000
0001
0100
0010
0100
0001
0000
0000
0000
0000
0000
0000
0000
,
1000
0001
1000
0010
0100
0001
2000
0000
3010
0000
0100
0000
0001
0000
1000
0000
,
0100
0000
0010
0001
0000
0000
1000
0000
0010
0000
0100
0001
0000
0000
0010
0000
,
0100
0000
1000
0100
0000
0000
0010
0000
0001
0000
1000
0010
0000
0000
0100
0000
,
0001
0000
1000
0100
0000
0000
1000
0000
0001
0000
1000
0000
0010
1000
0010
0100
,
0001
1000
0100
1000
0001
0100
0001
1000
,
0010
1000
0100
0010
0001
0100
0001
1000
,
0001
0000
0000
0100
0000
0000
0010
0000
0000
0100
0000
0000
0001
0000
0000
0100
0000
0000
0010
0000
0000
0100
0000
0000
0001
0000
0000
0000
0000
0000
2000
3000
0000
0000
0000
0000
0002
0003
0000
0000
0000
0000
2000
3000
0000
0000
0000
0000
,
0001
0000
0000
0010
0000
0000
0001
0000
0000
1000
0000
0000
0001
0000
0000
0010
0000
0000
0001
0000
0000
1000
0000
0000
0001
0000
0000
0000
0000
0000
0020
0030
0000
0000
0000
0000
0200
0300
0000
0000
0000
0000
0020
0030
0000
0000
0000
0000
,
0001
1000
0010
0100
0001
0010
0100
1000
,
0001
0100
0001
1000
0100
1000
0001
0010
,
0001
0100
0001
1000
0100
1000
0010
1000
,
0001
0010
0100
1000
0010
0100
0001
1000
,
0010
1000
0001
0010
0001
1000
0001
0010
,
0100
1000
0001
1000
0010
0100
0001
1000
,
0100
1000
0001
0100
0001
1000
0010
1000
,
0100
1000
0001
0010
0001
0100
0001
1000
,
0100
0010
0001
1000
0001
0100
0010
0100
,
0001
1000
0001
0010
0100
0010
0001
1000
,
0010
0100
0001
1000
0100
0010
0100
1000
,
0001
0000
1000
0000
1000
0000
0000
0000
0001
0000
0000
0100
0000
0000
0001
0000
,
1000
0001
0010
0001
1000
0010
0100
0001
0010
0100
1000
0001
0010
0001
0100
0010
,
1000
0010
1000
0001
0010
0100
1000
0001
1000
0010
0100
0001
1000
0100
0010
0001
,
1000
0010
0100
0010
1000
0001
0010
0001
0100
0001
1000
0010
0100
0010
1000
0001
,
0010
0100
1000
0100
0010
0001
1000
0010
0100
0010
1000
0001
0010
0100
0010
0001
,
2000
0000
0000
0000
,
0000
0000
0000
0000
,
3000
0000
0000
0000
;

//---------------dance-single - Zaia - 10(low)----------------
#NOTES:
     dance-single:
     Zaia - 10(low):
     Medium:
     10:
     0.745,0.810,0.095,0.365,0.011,652.000,13.000,50.000,0.000,0.000:
0000
0000
0000
0000
,
1000
1001
0000
0001
0000
0010
0100
1000
,
0000
0000
0000
0000
0000
0001
1000
0010
,
0101
0001
0000
1000
0000
0001
0010
0100
,
0000
0000
0000
0000
0000
1000
0100
0010
,
1001
0001
0100
0010
0000
0100
0001
1000
,
0000
0000
0000
0000
0000
0100
0010
0001
,
0011
0010
0000
0001
0000
1000
0001
0100
,
0000
0000
0000
0000
0000
0010
1000
0001
,
0100
0001
1000
0001
0010
0001
1000
0010
,
1000
0001
1000
0100
0010
0100
1000
0001
,
0100
0001
0010
0001
1000
0001
0010
0100
,
1000
0001
0100
0010
0100
0001
1000
0100
,
1000
0000
1100
0000
0000
0001
1001
0000
,
1000
0000
1010
0000
0000
0010
0110
0000
,
0001
0000
0101
0000
0000
1000
1001
0000
,
0001
0000
1000
0001
0100
0001
1000
0000
,
0001
0100
0010
0100
0001
0010
0100
0010
,
0100
1000
0010
0100
0001
0010
0001
1000
,
0010
0100
0001
0010
0100
0010
0001
0100
,
0010
0100
0010
1000
0100
0010
0001
1000
,
0010
0000
0000
1000
0000
0000
0001
0000
0000
0100
0000
0000
0001
0000
0000
1000
0000
0000
0000
0000
0000
0002
0000
0003
,
0100
0010
0100
0001
0010
0100
1000
0001
,
0100
0001
1000
0100
1000
0001
0100
0010
,
0100
0001
0010
0100
1000
0010
0100
0001
,
1000
0010
0010
0100
0001
0001
1000
0100
,
0100
0010
0001
0001
1000
0010
0100
0001
,
0010
0100
0100
1000
0001
0001
0100
0010
,
0010
1000
0100
0100
0010
0001
0100
0001
,
1000
0100
0100
1000
0010
0010
0100
0001
,
0001
1000
0010
0010
0100
0001
1000
0001
,
0010
0100
0100
0010
0001
0001
1000
0010
,
0010
0100
0001
0001
1000
0100
0010
0001
,
1000
2000
0010
3020
,
0100
0230
0001
0302
,
0023
0000
0000
0000
0032
2003
3200
0000
,
0000
2300
0000
3020
,
0130
0001
0001
1000
0001
0001
0010
0100
,
0100
1000
0001
0001
0100
0010
1000
0010
,
0100
0001
0010
0001
1000
0010
1000
0001
,
0010
0100
1000
0100
0010
0001
0100
0010
,
1000
2000
0001
3002
,
0010
0023
0100
0230
,
1000
0000
1300
0000
2000
3200
0310
0000
,
0002
1000
2003
0010
,
3010
0100
0001
0010
0100
1000
0010
0100
,
0001
0100
0010
1000
0100
0010
0001
1000
,
0010
0100
0001
0100
0010
1000
0010
0100
,
0000
0000
0000
0000
0000
0001
1000
0001
,
1000
0010
0100
0001
0010
0100
1000
0020
,
0130
0001
1000
0100
1000
0001
0100
0010
,
1000
0001
0010
0100
1000
0001
0100
0001
,
0010
0001
1000
0100
0010
0002
2003
3002
,
0103
0010
0100
0001
1000
0100
1000
0001
,
0010
0001
0100
0001
1000
0100
1000
0010
,
1000
0001
0100
0010
1000
0001
1000
0100
,
0010
0000
0100
0000
1000
0001
0100
0010
,
0100
0001
1000
0100
1000
0001
0100
0020
,
1030
0001
0010
0100
1000
0010
0100
0001
,
0010
0001
1000
0100
1000
0010
0100
0001
,
1000
0000
0100
0000
0100
0000
0000
0000
1000
0000
0000
0001
0000
0000
1000
0000
,
0001
0100
0010
1000
0100
1000
0010
0200
,
0301
0010
0100
0010
0001
1000
0010
0100
,
0010
1000
0001
0010
0100
1000
0010
0100
,
0001
0010
0001
0010
0100
1000
0001
1000
,
0100
0000
0000
0010
0000
0000
0011
0000
0000
0001
0000
1000
,
0020
0000
2030
0000
3200
0000
0000
0310
,
0002
0000
0000
2003
,
0000
0000
3200
0000
,
2300
3002
0203
0320
,
0000
2030
0000
3200
,
0000
0310
0001
2000
0000
0000
3002
0000
,
0000
0000
0000
0000
0000
0000
0000
0000
0000
0000
0000
0000
0000
0000
0000
0000
0203
0000
0000
0000
0000
0000
0000
0000
0000
0000
0000
0000
0000
0000
0000
0300
,
0001
0200
0310
1000
0001
0000
0000
0000
,
1000
0100
0010
0001
1000
0000
0000
0000
,
1000
0010
0100
0002
0013
0100
1000
0001
,
0100
0010
1000
0001
0010
0100
1000
0010
,
0100
0001
0100
0010
1000
0001
0010
0100
,
1000
0001
0100
0001
2000
3001
0100
0010
,
1000
0001
0010
0001
1000
0010
1000
0001
,
0100
0001
0010
0100
1000
0010
1000
0001
,
0101
0000
0000
0000
0000
0000
0100
0000
0000
0000
0000
0000
0010
0000
0000
0000
0000
0000
0100
0000
0000
0000
0000
0000
0001
0000
0000
0000
0000
0000
2000
3000
0000
0000
0000
0000
0002
0003
0000
0000
0000
0000
2000
3000
0000
0000
0000
0000
,
1100
0000
0000
0000
0000
0000
0100
0000
0000
0000
0000
0000
1000
0000
0000
0000
0000
0000
0001
0000
0000
0000
0000
0000
0010
0000
0000
0000
0000
0000
0200
0300
0000
0000
0000
0000
0020
0030
0000
0000
0000
0000
0200
0300
0000
0000
0000
0000
,
1000
0001
0100
0010
1000
0100
0010
0001
,
1000
0010
1000
0001
0010
0001
1000
0100
,
1000
0010
1000
0001
0010
0001
0100
0001
,
1000
0100
0010
0001
0100
0010
1000
0001
,
0100
0001
1000
0100
1000
0001
1000
0100
,
0010
0001
1000
0001
0100
0010
1000
0001
,
0010
0001
1000
0010
1000
0001
0100
0001
,
0010
0001
1000
0100
1000
0010
1000
0001
,
0010
0100
1000
0001
1000
0010
0100
0010
,
1000
0001
1000
0100
0010
0100
1000
0001
,
0100
0010
1000
0001
0010
0100
0010
0001
,
1000
0000
0001
0000
0001
0000
0000
0000
1000
0000
0000
0010
0000
0000
1000
0000
,
0001
0100
0010
1000
0010
0100
0001
0010
,
0001
1000
0100
0010
0100
1000
0010
1000
,
0001
0010
0001
0100
0001
1000
0100
1000
,
0010
1000
0001
0010
0001
1000
0010
0100
,
0002
0000
0000
0000
,
0000
0000
0000
0000
,
0003
0000
0000
0000
;
