#TITLE:Corrosion;
#SUBTITLE:;
#ARTIST:Nighthawk22;
#TITLETRANSLIT:;
#SUBTITLETRANSLIT:;
#ARTISTTRANSLIT:;
#CREDIT:;
#BANNER:../bn.png;
#BACKGROUND:../veyron.png;
#LYRICSPATH:;
#CDTITLE:;
#MUSIC:Nighthawk22 - Corrosion.ogg;
#OFFSET:-0.020;
#SAMPLESTART:153.460;
#SAMPLELENGTH:19.040;
#SELECTABLE:YES;
#DISPLAYBPM:205.000;
#BPMS:0.000=205.010,652.000=194.010,660.000=184.010,668.000=175.010,676.000=155.010;
#STOPS:;
#BGCHANGES:;
// cache tags:
#FIRSTBEAT:12.000;
#LASTBEAT:687.000;
#SONGFILENAME:Songs/Cirque du Veyron/Zaia - Corrosion/Corrosion.sm;
#HASMUSIC:1;
#HASBANNER:1;
#MUSICLENGTH:203.337;
// end cache tags

//---------------dance-single - Zaia----------------
#NOTES:
     dance-single:
     Zaia:
     Challenge:
     15:
     1.000,1.000,0.241,0.349,1.000,1567.000,49.000,71.000,0.000,0.000:
0000
0000
0000
0000
,
0000
0000
0000
0000
,
0000
0000
0000
0000
,
2000
0000
3040
0000
,
0000
0000
0000
0000
0000
0000
0130
0001
,
4000
0000
0000
0000
0000
0000
3010
1000
,
0200
0000
0310
0100
,
2000
0000
3004
0000
,
0000
0000
0000
0000
0000
0000
1003
0010
,
0200
0000
0301
1000
,
0002
0000
2003
0000
,
3200
0000
0340
0000
,
0000
0000
0000
0000
0000
0000
0130
1000
,
0004
0000
0000
0000
0103
0000
0010
1000
,
0002
0000
1003
0100
,
0040
0000
0000
0000
,
0034
0000
0000
0000
0000
0000
1003
0001
,
0020
0000
0000
0000
0000
0000
0130
1000
,
0001
0001
0001
0001
,
2000
0000
0000
0000
0000
0000
3001
0000
0100
0000
0000
0000
0000
0000
0010
1000
,
0001
0100
0001
0010
0100
1000
0010
0100
,
0002
0000
0000
0000
0000
0000
1003
0000
0200
0000
0000
0000
0000
0000
1300
0001
,
1000
0100
0100
1000
0001
0001
0010
0100
,
2000
0000
0000
0000
0000
0000
3002
0000
0023
0000
0000
0000
0000
0000
0130
1000
,
0001
0100
0001
0010
0001
0100
0010
1000
,
0002
0000
0000
0000
0000
0000
2003
0000
3020
0000
0000
0000
0000
0000
0130
0001
,
0100
0010
0010
1000
0001
0001
0010
0100
,
1100
1000
0001
0100
0001
0010
0001
1000
,
1001
0001
0100
0010
1000
0001
1000
0010
,
0110
0100
0010
1000
0010
0100
0001
0010
,
0100
1000
0001
1000
0100
1000
0010
1000
,
0001
0100
0001
1000
0100
1000
0001
0010
,
0100
0000
1000
0000
0010
0000
0100
0001
1000
0000
0010
0000
0100
0000
0001
0000
,
1000
0100
1000
0001
0010
0001
1000
0010
,
0100
0001
0100
0010
1000
0001
1000
0010
0100
0001
1000
0001
1000
0100
0010
0100
,
2000
0000
0000
0000
0000
0000
3001
0010
0100
0000
2000
0000
0000
0000
3010
0100
,
0001
0000
1000
0000
0001
0000
0010
0000
0001
0000
1000
0010
1000
0000
0100
0000
,
0020
0000
0000
0000
0000
0000
0130
1000
0001
0000
0020
0000
0000
0000
0130
1000
,
0100
1000
0001
0010
0011
0001
1000
0010
,
0210
0000
0000
0000
0000
0000
0301
1000
0010
0000
0200
0000
0000
0000
0301
1000
,
0100
0000
0010
0000
0100
0000
0010
0000
0001
0000
0010
0100
0010
0000
0100
0000
,
2000
0000
0000
0000
0000
0000
3010
0100
0001
0000
0200
0000
0000
0000
0310
1000
,
0100
0000
0010
0000
0100
0000
1000
0000
0001
0000
1000
0010
1000
0000
0001
0000
,
0100
0000
0000
0000
0110
0000
0010
1000
0001
0000
0010
0000
0001
0000
1000
0100
,
1000
0000
0001
0100
0001
0000
1000
0001
0010
0000
0100
0000
1000
0000
0001
0000
,
0010
0000
0000
0000
0110
0000
0100
1000
0001
0000
0100
0000
0010
0000
1000
0010
,
1000
0000
0001
0010
0001
0000
1000
0000
1001
0000
0000
0000
0110
0000
0000
0000
,
1001
0000
0000
0000
1000
0000
0010
0100
0010
0000
1000
0000
0001
0000
0100
0001
,
0100
0000
0010
1000
0010
0000
0100
0001
1000
0000
0100
0000
1000
0000
0010
0000
,
0100
0000
0000
0000
0110
0000
0100
0001
1000
0000
0100
0010
0100
0000
1000
0001
,
0100
0010
1000
0001
0100
0001
1000
0010
0100
0001
1000
0001
0010
0001
1000
0100
,
1000
0001
0010
0100
1000
0010
0100
0001
0010
0001
0100
0010
1000
0010
0100
0001
,
1000
0010
0100
0001
0010
0100
1000
0010
1000
0100
0010
0001
0100
0001
1000
0100
,
0010
0001
1000
0001
1000
0010
0100
0001
0010
0001
0100
0010
1000
0100
0010
0001
,
0100
0001
0010
0100
1000
0001
0100
0010
1000
0001
0010
0100
1000
0001
0100
0010
,
1000
0010
0100
0001
1000
0010
0100
0001
0010
0001
0100
0010
1000
0100
0010
0100
,
1000
0001
1000
0100
1000
0010
0100
0001
0010
0001
0100
0010
1000
0001
0100
0010
,
1000
0001
0100
0001
1000
0010
0100
0001
0010
0001
0100
0010
1000
0100
0010
0001
,
0100
0001
0010
0100
1000
0001
0100
0010
1000
0001
0010
0100
1000
0001
0010
0001
,
1000
0010
1000
0100
0010
0001
0100
0010
1000
0100
0010
0001
0100
0010
1000
0100
,
0010
0000
0000
0000
0100
0000
0000
0000
1000
0000
0001
0100
0010
0000
0100
0000
,
0001
0010
0100
1000
0010
0100
0001
0010
0100
1000
0010
0100
0001
0010
0100
1000
,
0001
0000
0000
0000
0100
0000
0000
0000
0001
0000
1000
0100
0010
0000
0100
0000
,
0010
0001
0100
0010
1000
0100
0010
0001
0100
0010
1000
0100
0010
0001
0100
0010
,
1000
0000
0000
0000
0001
0000
0000
0000
1000
0000
0010
0100
0001
0000
0010
0000
,
0100
1000
0010
0100
0001
0010
0100
1000
0010
0100
0001
0010
0100
1000
0010
0100
,
0001
0010
0001
1000
0100
1000
0001
0010
0100
1000
0001
1000
0010
0100
0001
1000
,
0020
0000
0000
0000
0000
0000
0130
0000
0002
0000
0000
0000
0000
0000
1003
0100
,
1000
0001
0100
0001
0010
0100
1000
0010
,
0200
0000
0000
0000
0000
0000
0301
0000
2000
0000
0000
0000
0000
0000
3001
0010
,
0001
1000
1000
0001
0100
0100
0010
1000
,
0002
0000
0000
0000
0000
0000
0023
0000
0230
0000
0000
0000
0000
0000
0310
0001
,
1000
0010
0100
0001
0010
0001
0100
0010
,
2000
0000
0000
0000
0000
0000
3200
0000
0320
0000
0000
0000
0000
0000
0130
1000
,
0100
0010
0010
0100
1000
1000
0010
0100
,
0101
0001
1000
0010
0100
0001
0010
0001
,
1001
1000
0010
0100
0010
1000
0001
0010
,
0110
0100
1000
0010
1000
0100
0010
0001
,
0100
0001
0010
0001
1000
0001
0010
0100
,
1000
0010
1000
0001
0100
0001
1000
0100
,
0010
0000
0100
0000
1000
0000
0010
0100
0001
0000
0100
0000
0010
0000
1000
0000
,
0001
0010
0001
1000
0100
1000
0010
0100
,
0001
1000
0100
0010
0100
1000
0001
0010
0100
1000
0001
1000
0010
0100
0010
1000
,
0001
0011
1001
0101
,
0001
1010
1001
1100
,
0100
0110
0011
0101
,
1001
1010
0110
0101
,
0000
1010
1001
1100
,
0100
0011
1001
0101
,
0100
0110
1010
0101
,
0011
0110
1100
1001
,
0000
1000
0100
0010
0001
0100
0001
0010
,
0000
0100
1000
0001
1000
0100
0010
0001
,
0000
1000
0010
0100
0010
1000
0100
0010
,
0000
0100
1000
0001
1000
0010
0100
0001
,
0000
1000
0100
1000
0001
1000
0100
0010
,
0000
0001
0010
0001
1000
0010
1000
0001
,
0000
0100
0010
1000
0001
1000
0100
1000
,
0010
0100
0001
1000
0010
0100
0010
0100
0001
1000
0100
1000
0001
0100
0010
1000
,
0001
0100
0001
1000
0001
0010
0100
1000
0001
0100
0010
1000
0001
1000
0100
0010
,
0001
1000
0001
0100
0001
0010
0100
1000
0001
0100
0010
1000
0001
1000
0100
0010
,
0100
1000
0001
0010
0100
1000
0001
1000
0010
0100
0001
1000
0010
1000
0001
1000
,
0100
1000
0001
0100
0010
0100
0001
1000
0100
1000
0001
0100
0001
1000
0001
0010
,
0100
0010
0001
1000
0001
0100
0010
1000
0001
0010
0100
1000
0001
1000
0010
0100
,
0001
1000
0001
0010
0001
0100
0010
1000
0001
0010
0100
1000
0001
1000
0010
0100
,
0010
1000
0001
0100
0010
1000
0001
1000
0100
0010
0001
1000
0100
1000
0001
1000
,
0010
1000
0001
0010
0100
0010
0001
1000
0010
1000
0001
0010
0001
1000
0001
0100
,
0010
0100
0001
0010
0001
1000
0100
1000
0001
0100
0010
1000
0001
1000
0100
0010
,
0001
1000
0001
0100
0001
1000
0100
1000
0001
0100
0010
1000
0001
1000
0100
0010
,
0001
0100
0010
0100
0001
1000
0001
1000
0010
0100
0001
1000
0010
1000
0001
1000
,
0010
1000
0100
0010
0001
1000
0001
1000
0100
1000
0001
0100
0001
1000
0001
0010
,
0100
1000
0010
1000
0001
0100
0010
1000
0001
0010
0100
1000
0001
1000
0010
1000
,
0001
0010
0001
1000
0001
0100
0010
1000
0001
0010
0100
1000
0001
1000
0010
0100
,
0010
1000
0100
0010
0100
1000
0001
1000
0100
0010
0001
1000
0100
1000
0001
1000
,
0010
0100
0001
0010
0100
0010
0001
1000
0010
1000
0001
0010
0001
1000
0001
0100
,
0010
1000
0001
0100
0001
1000
0100
1000
,
0010
0100
0001
0010
0100
1000
0001
0100
,
0010
1000
0001
1000
0100
1000
0010
0100
,
0010
1000
0100
1000
0010
0100
0001
0100
,
0010
0000
0100
0001
0010
0100
1000
0010
,
0100
0000
0001
0010
0100
1000
0001
0010
,
0001
0100
0010
1000
0001
1000
0010
0100
,
0010
1000
0100
0010
0001
1000
0001
0010
,
0100
1000
0001
1000
0010
1000
0100
0010
,
0001
1000
0010
0100
0000
0001
1000
0001
,
0010
0100
1000
0000
0010
0000
1000
0000
0001
0000
0100
0000
0001
0000
0010
0000
,
0001
0000
1000
0000
0100
0000
1000
0000
0010
0100
0001
0100
0010
1000
0010
0100
,
0001
0010
0100
1000
0001
1000
0100
0010
0001
1000
0010
1000
0001
0100
0010
0100
,
0001
0010
0100
1000
0001
1000
0100
0010
0001
1000
0010
0100
0001
0010
0100
1000
,
0001
0010
0001
1000
0010
1000
0001
0100
0001
1000
0010
0100
0001
1000
0100
0010
,
0001
0010
0100
1000
0010
0100
0001
0010
0100
1000
0100
0010
0001
1000
0010
0100
,
0001
1000
0001
1000
0010
0100
0010
1000
0001
0010
0100
1000
0001
1000
0100
0010
,
0001
0100
0010
1000
0001
0100
0010
0100
0001
0010
0100
1000
0010
0100
0001
0010
,
0200
0300
1000
0100
0010
0001
0100
0001
1000
0100
0010
0001
0100
0001
1000
0010
,
0100
0010
0100
0001
2000
3000
0010
0100
0010
1000
0001
0010
0100
1000
0001
1000
,
0100
0010
0001
0100
0010
0100
0001
1000
0100
0010
0100
1000
0010
0100
0001
1000
,
0001
0100
0001
1000
0100
1000
0001
1000
0001
0010
0100
1000
0001
0100
0010
0100
,
0002
0000
0203
0000
0302
0000
1003
0100
0010
0100
1000
0001
0100
0001
1000
0100
,
1000
0001
0010
0100
1000
0001
1000
0100
1000
0010
0100
0001
0100
0010
1000
0001
,
0010
0100
1000
0010
0100
0010
0100
0001
0010
0100
1000
0010
0100
0010
0100
0001
,
2000
3000
0020
0030
2000
3000
0002
0003
0200
0300
0002
0003
0020
0030
0100
1000
,
0010
0100
0001
1000
0100
0010
0001
1000
0010
0100
0010
1000
0001
0010
0100
0010
,
0001
1000
0001
1000
0100
0010
0001
0100
0010
1000
0100
1000
0010
0100
0001
1000
,
0010
1000
0001
0010
0001
0100
0010
0100
0001
0010
0100
1000
0010
1000
0001
0010
,
0100
1000
0100
0010
0001
0100
0001
1000
0010
0100
0001
0010
0100
1000
0001
1000
,
0001
0100
0001
1000
0010
1000
0001
0010
0100
1000
0010
0100
0010
1000
0001
0100
,
0010
0100
0001
1000
0010
0100
0010
0100
0001
0010
0100
1000
0001
1000
0100
0010
,
0002
0000
0000
0000
0000
0000
1003
0000
0200
0000
0000
0000
0000
0000
0310
0001
,
1000
0010
0100
0010
1000
0100
0010
0001
,
0200
0000
0000
0000
0000
0000
0310
0000
2000
0000
0000
0000
0000
0000
3001
0010
,
0001
1000
1000
0010
1000
1000
0100
0010
,
0002
0000
0000
0000
0000
0000
1003
0000
0020
0000
0000
0000
0000
0000
0130
0001
,
0010
0100
1000
0010
0100
0001
0010
0100
,
2000
0000
0000
0000
0000
0000
3010
0000
0200
0000
0000
0000
0000
0000
0301
1000
,
0001
0100
0100
0001
0010
0010
0100
1000
,
1001
0001
0100
0001
0010
0001
1000
0010
,
0110
0100
0001
0100
0010
1000
0001
0010
,
0011
0001
1000
0100
1000
0001
0100
0010
,
0100
0001
1000
0100
2000
0000
3002
0000
,
0203
0000
0000
0000
0000
0000
0310
0000
2000
0000
0000
0000
0000
0000
3001
0010
,
0001
1000
0010
0100
0001
0010
0100
0010
,
0001
0000
1000
0000
0010
0000
0100
0000
0001
0000
1000
0000
0001
0000
0100
0010
,
1000
0100
0010
0100
1000
0001
1000
0001
0100
0010
0100
0001
1000
0001
0010
0100
,
2000
0000
0000
0001
0000
0000
0010
0000
,
3002
0100
0000
0000
1000
0000
0013
0001
,
0200
0000
0000
0001
0000
0000
0010
0000
,
0302
0010
0000
0000
2003
0000
3001
0010
,
0200
0000
0000
1000
0000
0000
0010
0000
,
0320
0100
0000
0000
0001
0000
0001
1030
,
0200
0000
0000
0010
0000
0000
1000
0000
,
2300
0010
0000
0000
3002
0000
1003
0001
,
0200
0000
0000
0300
;
