#TITLE:5.1.1. (Hyper Euro Prozac Mix);
#SUBTITLE:;
#ARTIST:Kinetikai;
#TITLETRANSLIT:;
#SUBTITLETRANSLIT:;
#ARTISTTRANSLIT:;
#CREDIT:Kairon;
#BANNER:511HyperEuroProzacMix-banner.png;
#BACKGROUND:511HyperEuroProzacMix-bg.png;
#LYRICSPATH:;
#CDTITLE:!Kairon-cdtitle.png;
#MUSIC:5.1.1. (Hyper Euro Prozac Mix).mp3;
#OFFSET:-0.040;
#SAMPLESTART:30.000;
#SAMPLELENGTH:9.700;
#SELECTABLE:YES;
#BPMS:0.000=160.000;
#STOPS:;
#BGCHANGES:;
// cache tags:
#FIRSTBEAT:8.000;
#LASTBEAT:298.250;
#SONGFILENAME:Songs/KBU/5.1.1. (Hyper Euro Prozac Mix) (Kairon)/511.sm;
#HASMUSIC:1;
#HASBANNER:1;
#MUSICLENGTH:112.561;
// end cache tags

//---------------dance-single - ----------------
#NOTES:
     dance-single:
     :
     Hard:
     11:
     1.000,1.000,1.000,1.000,0.959,664.000,226.000,128.000,0.000,3.000:
0000
0000
0000
0000
,
0000
0000
0000
0000
,
1001
0010
0100
0000
0101
0010
0000
0100
1010
0000
1000
0000
0110
0000
0001
0000
,
1001
0100
1000
0000
0101
0010
0000
1000
0110
0000
0100
0000
1010
0000
0010
0000
,
1001
0010
0001
0000
0101
0010
0000
1000
0011
0000
0001
0000
0110
0000
1000
0000
,
1001
0010
0100
0000
1100
0010
0000
0100
0011
0000
0001
0000
1100
0000
0011
0000
,
1001
0100
0010
0000
1010
0100
0000
0010
0101
0000
0001
0000
0110
0000
1000
0000
,
1001
0010
0001
0000
1010
0100
0000
0001
0110
0000
0010
0000
0101
0000
0100
0000
,
1001
0100
1000
0000
1010
0100
0000
0001
1100
0000
1000
0000
0110
0000
0001
0000
,
1001
0100
0010
0000
0011
0100
0000
0010
1100
0000
1000
0000
0011
0000
1100
0000
,
1001
0000
0000
1100
0000
0000
1001
0000
0000
1100
0000
0000
2002
3003
0022
0033
,
0101
0000
0000
0110
0000
0000
0101
0000
0000
0110
0000
0000
0202
0303
2020
3030
,
0110
0000
0000
1100
0000
0000
0110
0000
0000
1100
0000
0000
0220
0330
0202
0303
,
0011
0000
0000
0101
0000
0000
0011
0000
0000
0101
0000
0000
2200
3300
0220
0330
,
0011
0100
0010
1000
0100
0010
0001
0100
0010
1000
0100
0010
0100
0010
0001
1000
,
0100
0010
0001
1000
0010
0100
0001
0010
0001
0010
0100
1000
0010
0100
0001
0100
,
1002
0000
1003
0020
0100
0000
0100
0030
,
0210
0000
0010
2300
0001
0000
0001
3000
,
1001
0000
0000
0011
0000
0000
1001
0000
0000
0011
0000
0000
2002
3003
2200
3300
,
1010
0000
0000
0110
0000
0000
1010
0000
0000
0110
0000
0000
2020
3030
0202
0303
,
0110
0000
0000
0011
0000
0000
0110
0000
0000
0011
0000
0000
0220
0330
2020
3030
,
1100
0000
0000
1010
0000
0000
1100
0000
0000
1010
0000
0000
0022
0033
0220
0330
,
1100
0001
0010
0100
1000
0010
0100
0001
1000
0100
1000
0010
0100
0001
0010
0100
,
1000
0001
0010
0001
0100
0001
0010
0100
0010
0001
0010
0100
1000
0010
0100
0010
,
2001
0000
0001
3200
0010
0000
0010
0300
,
0120
0000
0100
0032
1000
0000
1000
0003
,
1001
0010
0001
0000
0011
1000
0000
0001
1100
0000
0100
0000
0101
0000
0010
0000
,
1001
0010
0100
0000
0011
1000
0000
0100
1001
0000
0001
0000
1100
0000
1000
0000
,
1001
0100
0010
0000
0011
1000
0000
0100
1010
0000
0010
0000
0101
0000
0100
0000
,
1001
0010
0001
0000
0101
1000
0000
0001
1010
0000
0010
0000
0101
0000
1010
0000
,
1001
0100
1000
0000
1100
0001
0000
1000
0011
0000
0010
0000
1010
0000
0100
0000
,
1001
0100
0010
0000
1100
0001
0000
0010
1001
0000
1000
0000
0011
0000
0001
0000
,
1001
0010
0100
0000
1100
0001
0000
0010
0101
0000
0100
0000
1010
0000
0010
0000
,
1001
0100
1000
0000
1010
0001
0000
1000
0002
0000
0203
0000
0320
0000
2030
0000
,
3101
0000
0000
1100
0000
0000
0101
0000
0000
1100
0000
0000
2020
3030
0202
0303
,
1001
0000
0000
0110
0000
0000
1001
0000
0000
0110
0000
0000
2002
0000
0000
3003
,
1010
0000
0000
0101
0000
0000
1010
0000
0000
0101
0000
0000
2200
3300
0202
0303
,
0011
0000
0000
1001
0000
0000
0011
0000
0000
1001
0000
0000
0022
0000
0000
0033
,
0200
0010
0001
0000
1000
0000
0001
0310
0002
1000
0100
0000
0010
0000
0100
0003
,
0020
0100
1000
0000
0001
0000
1000
0031
0200
0001
0010
0000
1000
0000
0001
0300
,
2000
0100
0010
0000
0001
0000
0100
3001
0200
0010
0001
0000
0010
0000
1000
0300
,
0020
0100
0001
0000
1000
0000
0001
0130
0002
0010
0100
0000
1000
0100
1000
0103
,
1010
0000
0000
0011
0000
0000
1010
0000
0000
0011
0000
0000
2200
3300
0022
0033
,
1100
0000
0000
0110
0000
0000
1100
0000
0000
0110
0000
0000
2020
3030
2002
3003
,
0101
0000
0000
1001
0000
0000
0101
0000
0000
1001
0000
0000
0022
0033
2020
3030
,
0110
0000
0000
1010
0000
0000
0110
0000
0000
1010
0000
0000
0220
0330
2002
3003
,
0110
1000
0001
0010
0100
1000
0010
1000
0100
0010
0100
1000
0001
0100
0010
0100
,
0001
0010
0001
0100
0001
1000
0100
0010
0001
0100
0001
1000
0010
1000
0100
0010
,
0002
0000
0000
0000
0000
0003
0020
0000
0000
0000
0000
0000
0000
0000
0000
0030
,
0200
0000
0000
0000
0000
0300
2000
0000
0000
0000
0000
0000
0001
0010
0001
3010
,
1001
0010
0100
0000
0011
0000
1000
0100
0000
0100
1000
0000
2002
3003
0220
0330
,
1001
0100
0010
0000
1010
0000
0100
0001
0000
0001
0100
0000
2010
0000
0001
3000
,
1001
0100
0010
0000
1100
0000
0001
0010
0000
0010
0001
0000
2002
3003
0220
0330
,
1001
0010
0100
0000
0101
0000
0010
1000
0000
1000
0010
0000
0102
0000
1000
0003
,
0200
0010
0001
0000
1000
0000
0001
0310
0002
1000
0100
0000
0010
0000
0100
0003
,
0020
0100
1000
0000
0001
0000
1000
0031
0200
0001
0010
0000
1000
0000
0001
0300
,
2000
0100
0010
0000
0001
0000
0100
3001
0200
0010
0001
0000
0010
0000
1000
0300
,
0020
0100
0001
0000
1000
0000
0001
0130
0002
0010
0100
0000
1000
0100
1000
0103
,
1001
0100
0010
0000
1100
0000
0001
0010
0000
0010
0001
0000
2002
3003
0220
0330
,
1001
0010
0100
0000
0101
0000
0010
1000
0000
1000
0010
0000
0102
0000
1000
0003
,
1001
0010
0100
0000
0011
0000
1000
0100
0000
0100
1000
0000
2002
3003
0220
0330
,
1001
0100
0010
0000
1010
0000
0100
0001
0000
0001
0100
0000
2010
0000
0001
3000
,
0200
0010
0001
0000
1000
0000
0001
0310
0002
1000
0100
0000
0010
0000
0100
0003
,
0020
0100
1000
0000
0001
0000
1000
0031
0200
0001
0010
0000
1000
0000
0001
0300
,
2000
0000
0000
0000
0000
0000
0000
3000
0200
0000
0000
0000
0000
0000
0000
0300
,
0020
0000
0000
0000
0000
0000
0000
0030
0002
0000
0000
0000
1000
0100
1000
0103
,
1001
0010
0100
0000
0101
0010
0000
0100
1010
0000
1000
0000
0110
0000
0001
0000
,
1001
0100
1000
0000
0101
0010
0000
1000
0110
0000
0100
0000
1010
0000
0010
0000
,
1001
0010
0001
0000
0101
0010
0000
1000
0011
0000
0001
0000
0110
0000
1000
0000
,
1001
0010
0100
0000
1100
0010
0000
0100
0020
0000
2030
0000
3002
0000
0203
0000
,
1301
0100
0010
0000
1010
0100
0000
0010
0101
0000
0001
0000
0110
0000
1000
0000
,
1001
0010
0001
0000
1010
0100
0000
0001
0110
0000
0010
0000
0101
0000
0100
0000
,
1001
0100
1000
0000
1010
0100
0000
0001
1100
0000
1000
0000
0110
0000
0001
0000
,
1001
0100
0010
0000
0011
0100
0000
0010
2000
0000
3020
0000
0230
0000
0302
0000
,
1103
0000
0000
0011
0000
0000
1100
0000
0000
0011
0000
0000
0000
0000
0000
0000
;
