#TITLE:EXTRA ZONE;
#SUBTITLE:[True Area 53];
#ARTIST:Sonic Team/Sega;
#TITLETRANSLIT:;
#SUBTITLETRANSLIT:;
#ARTISTTRANSLIT:;
#CREDIT:;
#BANNER:TA53.png;
#BACKGROUND:TA53-bg.png;
#LYRICSPATH:;
#CDTITLE:!hiryuu.png;
#MUSIC:TA53.ogg;
#OFFSET:0.000;
#SAMPLESTART:12.060;
#SAMPLELENGTH:24.140;
#SELECTABLE:YES;
#BPMS:0.000=318.140;
#STOPS:;
#BGCHANGES:;
// cache tags:
#FIRSTBEAT:33.000;
#LASTBEAT:515.000;
#SONGFILENAME:Songs/toune/TA53/TA53.sm;
#HASMUSIC:1;
#HASBANNER:1;
#MUSICLENGTH:113.209;
// end cache tags

//---------------dance-single - MANIAC----------------
#NOTES:
     dance-single:
     MANIAC:
     Hard:
     11:
     1.000,1.000,0.963,0.212,0.035,722.000,109.000,24.000,0.000,0.000:
0000
0000
0000
0000
,
0000
0000
0000
0000
,
0000
0000
0000
0000
,
0000
0000
0000
0000
,
0000
0000
0000
0000
,
0000
0000
0000
0000
,
0000
0000
0000
0000
,
0000
0000
0000
0000
,
0000
0000
0100
0001
0100
0010
1000
0010
,
0100
0001
0100
0010
1000
0010
0100
0001
,
0100
0010
0001
0010
0100
1000
0001
0100
,
0010
1000
0010
0100
0001
0100
1001
0000
,
0101
0000
0100
0010
1000
0010
0100
0010
,
0100
1000
0010
0100
0010
0100
0001
0010
,
0100
0001
0010
0100
0010
0001
0100
0010
,
0100
0010
1000
0010
0100
0001
0110
0000
,
1001
0000
0000
0000
0000
0000
0100
0010
0001
0000
0000
0000
0100
0000
0101
0000
,
0000
0010
1010
0000
0100
0110
0000
0001
,
0101
0000
0100
0110
0000
1001
0000
0010
,
0110
0000
0001
0100
0010
1000
0001
0100
,
0110
0000
0000
0000
0000
0000
0010
0100
1000
0000
0000
0000
0010
0000
0110
0000
,
0000
0001
0101
0000
1000
1100
0000
0001
,
1001
0000
0001
0011
0000
1100
0000
0010
,
0110
0000
1000
0010
0100
0001
0100
0010
,
0110
0000
0000
0000
0000
0000
0001
0010
0100
0000
0000
0000
1000
0000
1010
0000
,
0000
0001
0101
0000
0100
0110
0000
0010
,
1010
0000
0100
0110
0000
1001
0000
1000
,
1010
0000
0010
0100
0001
0010
0100
1000
,
1001
0000
0000
0000
0000
0000
0100
0010
0001
0000
0000
0000
0010
0000
1010
0000
,
0000
0100
0101
0000
0010
0110
0000
1000
,
1001
0000
0100
1100
0000
0011
0000
0010
,
0110
0000
1100
0011
,
2002
0000
0000
0000
3003
0000
0001
0100
,
0010
1000
0010
0100
0001
0100
0010
1000
,
0010
0100
0001
0010
0100
1000
0100
0010
,
0001
0100
0010
1000
0010
0100
0001
0100
,
1002
0000
1000
0000
,
1000
0000
0000
0000
1003
0000
0100
0010
,
2001
0000
0001
3000
,
0120
0000
0130
0000
,
0220
0000
0000
0000
0330
0000
0010
0100
,
1000
0001
0100
0010
1000
0001
0100
0010
,
0001
0100
0010
0001
0010
0100
1000
0100
,
0010
0100
1000
0010
0100
0001
0100
0010
,
2001
0000
0001
0000
,
0001
0000
0000
0000
3001
0000
0010
0100
,
1002
0000
1003
0000
,
1002
0000
1003
0000
,
0001
0100
0010
1000
0001
0100
0010
1000
,
0001
0100
0010
0001
0100
0010
0100
1000
,
0010
0100
0010
0001
0100
0010
1000
0001
,
0100
0010
0001
0100
0010
1000
0001
0010
,
0100
1000
0010
0100
0001
0010
0100
1000
,
0001
0100
0010
1000
0010
1000
0100
0010
,
0100
0001
0010
0100
0001
1000
0100
0010
,
0001
0100
0010
1000
0001
0100
0010
0001
,
1000
0010
0100
0001
0100
0010
1000
0010
,
0100
0001
0100
0010
1000
0010
0100
0001
,
0100
0010
1000
0100
0010
0001
0010
0100
,
1000
0010
0100
0001
0100
0010
1000
0010
,
0100
0001
0010
0100
1000
0010
0100
0001
,
1000
0100
0010
0001
0100
0010
1000
0010
,
0001
0100
0010
1000
0001
0100
0010
0100
,
0001
1000
0001
1000
0001
1000
0001
1000
,
2002
0000
3000
1003
,
0000
1000
0000
0000
0110
0000
0101
0000
,
0001
0000
0000
0001
0000
0000
0001
0000
,
0000
0101
0000
0000
0110
0000
1010
0000
,
1010
0000
0000
0110
0000
0000
0101
0000
,
0000
0110
0000
0000
1100
0000
0011
0000
,
0011
0000
0000
1001
0000
0000
0011
0000
,
0000
1100
0000
0000
0110
0000
1001
0000
,
0000
0000
1000
0010
0100
0001
0100
0010
,
1000
0001
0100
0010
1000
0001
0100
0010
,
0001
0100
0010
0001
0010
0100
1000
0100
,
0010
1000
0010
0100
1000
0100
0110
0000
,
1001
0000
0001
0100
0010
1000
0010
0100
,
1000
0100
0010
0001
0100
0010
1000
0001
,
0100
1000
0100
0010
0001
0010
0100
1000
,
0010
0100
0001
1000
0100
0010
1001
0000
,
0110
0000
0000
0000
0000
0000
1000
0100
0010
0000
0000
0000
1000
0000
1010
0000
,
0000
0001
0101
0000
0010
1010
0000
0100
,
0101
0000
0010
0110
0000
1001
0000
0010
,
0011
0000
0100
0010
0001
0010
0100
1000
,
0011
0000
0000
0000
0000
0000
0010
0100
1000
0000
0000
0000
0010
0000
0011
0000
,
0000
0100
0110
0000
0100
1100
0000
0010
,
0011
0000
0100
0110
0000
0011
0000
0100
,
1100
0000
0001
0010
0100
1000
0100
0010
,
0110
0000
0000
0000
0000
0000
0100
0010
0001
0000
0000
0000
0100
0000
0110
0000
,
0000
0010
1010
0000
0001
0011
0000
0100
,
0110
0000
1000
1100
0000
0011
0000
1000
,
1001
0000
0100
0010
0001
0100
0010
1000
,
0110
0000
0000
0000
0000
0000
0001
0010
0100
0000
0000
0000
0010
0000
0011
0000
,
0000
0100
0110
0000
0001
0011
0000
0100
,
1100
0000
0010
0110
0000
1001
0000
0100
,
0110
0000
0011
1100
,
2002
0000
0000
0000
3003
0000
0001
0100
,
1000
0010
0100
0001
0100
0010
0001
1000
,
0100
0010
0100
0001
0100
0010
1000
0001
,
0100
0010
1000
0001
0100
0010
0001
1000
,
0102
0000
0100
0000
,
0100
0000
0000
0000
0103
0000
0001
0100
,
2010
0000
3010
0000
,
1020
0000
1030
0000
,
0220
0000
0000
0000
0330
0000
0100
0001
,
0100
0010
1000
0001
0100
0010
1000
0100
,
0010
0001
0100
0010
0001
0010
0100
1000
,
0010
0100
0001
0010
0100
0010
0001
0100
,
2010
0000
0010
0000
,
0010
0000
0000
0000
3010
0000
0100
1000
,
0102
0000
0103
0000
,
2010
0000
3010
0000
,
1000
0010
0100
0001
0100
0010
1000
0001
,
0100
0010
1000
0100
0010
0001
0010
0100
,
1000
0010
0100
0001
1000
0100
0010
0001
,
0100
0010
1000
0001
0100
0010
1000
0001
,
0100
0010
0100
1000
0100
0010
0001
0010
,
0100
1000
0100
0010
0001
0100
0010
0001
,
0100
0010
0001
0010
0100
1000
0010
0100
,
1000
0010
0100
0010
0001
0100
0010
0001
,
1000
0010
0100
0001
0100
0010
1000
0010
,
0100
0001
0100
0010
1000
0001
0100
0001
,
1000
0100
0010
0100
0010
0001
1000
0100
,
0010
0100
0010
0001
0100
0010
0100
0010
,
1000
0001
0100
0001
0100
0010
1000
0010
,
0100
0001
1000
0010
1000
0100
0010
0001
,
0010
0100
1000
0010
0100
0001
1000
0010
,
0100
0010
0100
0010
0100
0010
0100
0010
,
0220
0000
0000
0330
;

//---------------dance-single - SMANIAC----------------
#NOTES:
     dance-single:
     SMANIAC:
     Challenge:
     13:
     1.000,1.000,0.866,1.000,1.000,1011.000,98.000,114.000,0.000,0.000:
0000
0000
0000
0000
,
0000
0000
0000
0000
,
0000
0000
0000
0000
,
0000
0000
0000
0000
,
0000
0000
0000
0000
,
0000
0000
0000
0000
,
0000
0000
0000
0000
,
0000
0000
0000
0000
,
0000
0000
1000
0100
1000
0010
1000
0010
,
1000
0100
1000
0010
1000
0010
1000
0100
,
0010
0001
0010
0001
0100
0001
0010
0001
,
0010
0001
0100
0001
0010
0001
0010
0100
,
1000
0100
0010
0100
0010
0100
0001
0100
,
0010
0100
0010
0100
0001
0100
0010
0100
,
1000
0100
0010
1000
0010
0100
0001
0100
,
0010
1000
0010
0100
0001
0100
0010
0001
,
0010
0000
0100
0000
1000
0000
0100
0010
0001
0000
0100
0000
0010
0000
0101
0000
,
1000
0010
1010
0001
0100
0110
0001
1000
,
0101
1000
0001
0110
1000
1001
0100
0001
,
2002
3003
0001
0100
0010
1000
0001
0100
,
0110
0000
0001
0000
1000
0000
0010
0100
1000
0000
0100
0000
0010
0000
0110
0000
,
1000
0001
0101
0010
1000
1100
0010
0001
,
1001
0100
0001
0011
0100
1100
0100
0010
,
0220
0330
1000
0010
0100
0001
0100
0010
,
0110
0000
1000
0000
0100
0000
0001
0010
0100
0000
0001
0000
0100
0000
1010
0000
,
0100
0010
0101
1000
0001
0110
1000
0001
,
1010
0001
1000
0110
0010
1001
0010
0100
,
2020
3030
0010
0100
0001
0010
0100
1000
,
1001
0000
1000
0000
0001
0000
0100
0010
0001
0000
0100
0000
0010
0000
1010
0000
,
0001
0100
0101
1000
0010
0110
0001
1000
,
1001
0010
0001
1100
0100
0011
1000
0010
,
0220
0330
0001
0010
0100
1000
0100
0010
,
2002
0000
0000
0000
3003
0000
0002
0013
,
0001
0020
0031
0010
0002
0013
0001
0020
,
0031
1000
0002
1003
0010
0200
0310
0100
,
0002
0103
0001
0200
0310
1000
0020
1030
,
0001
0020
0130
0010
0002
0013
0100
0020
,
0031
0010
0200
0310
0001
0020
0031
0010
,
0200
1300
0100
0020
0130
1000
0200
0310
,
0100
0020
0031
0010
0200
1300
0100
0010
,
0220
0000
0000
0000
0330
0000
0200
1300
,
0100
2000
3100
1000
0200
1300
0100
2000
,
3100
0010
0200
0310
1000
0002
1003
0001
,
0200
0301
0100
0002
1003
0010
2000
3010
,
1000
0020
0031
0010
2000
3010
0001
0020
,
1030
0010
0002
0013
1000
0002
0013
0100
,
2000
3100
0001
0200
1300
0100
0002
0103
,
1000
0110
0000
0011
0000
0110
0110
0000
,
1000
0100
0010
1000
0100
0010
1000
0100
0010
1000
0100
0010
,
0001
0010
0100
0001
0010
0100
0001
0010
0100
0001
0010
0100
,
1000
0010
0001
1000
0010
0001
1000
0010
0001
1000
0010
0001
,
0001
0100
1000
0001
0100
1000
0001
0100
1000
0001
0100
1000
,
0001
0010
0100
0010
0100
1000
0001
0010
0100
0010
0100
1000
,
0100
0010
0001
1000
0100
0010
0100
0010
0001
1000
0100
0010
,
1000
0010
0100
0001
0100
0010
1000
0010
0100
0001
0100
0010
,
1000
0010
0001
1000
0100
0001
1000
0010
0001
1000
0100
0001
,
0100
0001
1000
0010
1000
0001
0100
0001
1000
0010
1000
0001
,
0100
0010
1000
0010
0100
0001
0100
0010
1000
0010
0100
0001
,
0010
0100
1000
0100
0010
0001
0010
0100
1000
0100
0010
0001
,
0010
1000
0001
0100
1000
0001
0010
1000
0001
0100
1000
0001
,
0100
0010
0001
1000
0100
0010
0001
0010
0100
0010
0100
1000
,
0001
0010
0100
0001
0010
0100
0010
0100
1000
0010
0100
1000
,
0100
1000
0001
0100
1000
0001
1000
0100
0010
1000
0100
0010
,
0001
1000
0001
1000
0001
1000
0001
1000
,
2002
0000
0000
0000
0000
0000
0000
0000
0000
0000
3003
0000
0000
0000
0000
0000
0000
0000
1200
0000
0000
0300
0000
0000
,
0000
2100
3000
0000
1100
0000
1100
0000
,
0021
0030
0000
0012
0003
0000
0021
0030
,
0000
0012
0003
0000
0011
0000
0011
0000
,
0120
0030
0000
0210
0300
0000
0120
0030
,
0000
0210
0300
0000
0110
0000
0110
0000
,
0012
0003
0000
2100
3000
0000
0102
0003
,
0000
2010
3000
0000
1001
0000
0110
0000
,
1001
0000
1000
0100
0010
0001
0010
0100
,
1000
0100
0010
0001
0010
0100
1000
0100
,
0010
0001
0010
0100
0010
0001
0010
0100
,
1000
0100
0010
0100
1000
0100
0010
0100
,
1000
0010
0001
0010
0100
1000
0010
0100
,
0001
0010
0100
1000
0010
0100
0001
0010
,
0100
1000
0100
0010
0001
0010
0100
1000
,
0100
0010
0001
0010
0100
1000
0100
0010
,
0001
0000
0100
0000
0010
0000
1000
0100
0010
0000
0100
0000
1000
0000
1010
0000
,
0100
0001
0101
1000
0010
1010
0001
0100
,
0101
0100
0010
0110
0001
1001
0100
0010
,
0022
0033
0100
0010
0001
0010
0100
1000
,
0011
0000
0100
0000
0001
0000
0010
0100
1000
0000
0100
0000
0010
0000
0011
0000
,
0010
0100
0110
1000
0100
1100
0001
0010
,
0011
0010
0100
0110
0001
0011
1000
0100
,
2200
3300
0001
0010
0100
1000
0100
0010
,
0110
0000
1000
0000
0010
0000
0100
0010
0001
0000
1000
0000
0100
0000
0110
0000
,
0001
0010
1010
0100
0001
0011
1000
0100
,
0110
0001
1000
1100
0001
0011
0010
1000
,
2002
3003
0100
0010
0001
0100
0010
1000
,
0110
0000
0001
0000
1000
0000
0001
0010
0100
0000
1000
0000
0010
0000
0011
0000
,
1000
0100
0110
1000
0001
0011
0010
0100
,
1100
0001
0010
0110
0100
1001
0010
0100
,
0220
0330
0001
0010
0100
1000
0100
0010
,
2002
0000
0000
0000
3003
0000
0002
0103
,
0001
0200
0301
0100
0002
0103
0001
0200
,
0301
1000
0002
1003
0010
0200
0310
0100
,
0020
1030
0010
2000
3001
0100
0002
0103
,
0001
0020
1030
0010
0002
0013
1000
0020
,
0031
0010
2000
3010
0001
0020
1030
0010
,
0200
1300
0100
0002
0103
1000
0200
0301
,
0100
0020
0031
0010
0200
1300
0100
0010
,
0220
0000
0000
0000
0330
0000
2000
3010
,
1000
0020
1030
0010
2000
3010
1000
0020
,
1030
0001
2000
3001
0100
0020
0130
0010
,
0200
0301
0100
0002
1003
0010
2000
3010
,
1000
0200
0301
0100
2000
3100
0001
0200
,
1300
0100
0002
0103
1000
0200
0310
0100
,
2000
3100
0010
0200
1300
0100
0020
0130
,
0001
0010
0000
0110
0000
1001
1001
0000
,
0001
0010
0100
0001
0010
0100
0001
0010
0100
0001
0010
0100
,
0010
0100
1000
0010
0100
1000
0010
0100
1000
0010
0100
1000
,
0100
0010
0001
0100
0010
0001
0100
0010
0001
0100
0010
0001
,
1000
0100
0010
1000
0100
0010
1000
0100
0010
1000
0100
0010
,
0100
0001
0100
0010
1000
0010
0100
0001
0100
0010
1000
0010
,
1000
0001
1000
0010
0100
0010
1000
0001
1000
0010
0100
0010
,
1000
0010
0100
0001
0100
0010
1000
0010
0100
0001
0100
0010
,
1000
0001
0100
0001
1000
0010
1000
0001
0100
0001
1000
0010
,
1000
0010
0001
0100
0001
0100
1000
0010
0001
0100
0010
1000
,
0001
0100
1000
0100
1000
0010
0001
0100
1000
0100
1000
0010
,
0100
0001
1000
0010
0001
1000
0100
0001
1000
0010
0001
1000
,
0001
0100
0010
1000
0100
0010
0001
0100
0010
1000
0100
0010
,
0001
0010
0100
1000
0100
0010
0001
0010
0100
1000
0100
0010
,
0001
0010
0100
0010
0100
1000
0100
1000
0001
1000
0001
0010
,
0100
0001
1000
0010
1000
0001
1000
0001
0100
0001
0100
0001
,
0100
0010
0100
0010
0100
0010
0100
0010
,
0220
0000
0000
0330
;
