#TITLE:Jump for Joy;
#SUBTITLE:;
#ARTIST:2 UNLIMITED;
#TITLETRANSLIT:;
#SUBTITLETRANSLIT:;
#ARTISTTRANSLIT:;
#CREDIT:;
#BANNER:../BN.png;
#BACKGROUND:../BG.png;
#LYRICSPATH:;
#CDTITLE:../CDTitleBRAEDEN.png;
#MUSIC:Jump for Joy.ogg;
#OFFSET:-0.144;
#SAMPLESTART:30.091;
#SAMPLELENGTH:12.000;
#SELECTABLE:YES;
#BPMS:0.000=160.000;
#STOPS:;
#BGCHANGES:;
// cache tags:
#FIRSTBEAT:0.000;
#LASTBEAT:281.500;
#SONGFILENAME:Songs/Index Gradation/Jump for Joy - [Braeden]/Jump for Joy.sm;
#HASMUSIC:1;
#HASBANNER:1;
#MUSICLENGTH:107.415;
// end cache tags

//---------------dance-single - Copied from----------------
#NOTES:
     dance-single:
     Copied from:
     Challenge:
     12:
     1.000,1.000,0.214,0.019,1.000,860.000,23.000,2.000,0.000,0.000:
1000
0100
0010
0001
0010
0100
1000
0001
0100
0010
1000
0100
0010
0001
0010
0100
,
1000
0001
0100
0010
1000
0100
0010
0001
0010
0100
1000
0001
0100
0010
1000
0100
,
0010
0001
0010
0100
1000
0001
0100
0010
1000
0100
0010
0001
0010
0100
1000
0001
,
0100
0010
1000
0100
0010
0001
0010
0100
1000
0100
0010
0001
1000
0100
1000
0010
,
0110
0010
1000
0100
0010
0001
1000
0001
,
1001
0001
0011
0011
0010
0001
1000
0001
,
1001
0001
0110
0110
0000
1001
0000
1001
,
1000
0100
0010
0001
0010
0100
1000
0001
0100
0010
1000
0100
1000
0010
1000
0100
,
1000
0100
1000
0100
0010
0001
0010
0001
1000
0010
0100
0001
1000
0100
0010
0001
,
0010
0100
1000
0001
0100
0010
1000
0100
0010
0001
0010
0100
1000
0001
0100
0010
,
0100
0001
0010
0100
1000
0001
0100
0010
1000
0100
0010
0001
0010
0100
1000
0001
,
0100
0010
1000
0001
0010
0100
1000
0001
0100
0010
1000
0100
0010
0001
0010
0100
,
1000
0100
0010
0001
0100
0010
1000
0100
0010
0001
0010
0100
1000
0001
0100
0010
,
1000
0001
0010
0100
1000
0001
0100
0010
1000
0100
0010
0001
1000
0010
0100
0001
,
1000
0100
0010
0001
0010
0100
1000
0001
0100
0010
0100
0001
0010
0100
1000
0001
,
0100
0010
1000
0100
0010
0001
0010
0100
1000
0001
0100
0010
0100
0001
0010
0100
,
1000
0001
0100
0010
1000
0100
0010
0001
0100
0010
1000
0100
0010
0001
0010
0100
,
1000
0001
0100
0010
1000
0100
0010
0100
1000
0001
0010
0100
1000
0001
0100
0010
,
1000
0100
0010
0001
0010
0100
1000
0001
0100
0010
1000
0100
0010
0001
0010
0100
,
1000
0001
0100
0010
0100
0001
0010
0100
1000
0100
0010
0001
0100
0010
1000
0001
,
1000
0100
1000
0000
0001
0010
0001
0000
0100
0000
0001
1000
0000
0010
0001
0010
,
0100
1000
0100
0000
0010
0001
0010
0000
0100
0000
1000
0100
0000
0010
0001
0010
,
0100
1000
0100
0000
1000
0100
0010
0000
0100
0000
1000
0010
0000
0100
0001
1000
,
0001
0010
0001
0000
0100
0010
1000
0000
0100
0000
0010
0001
0000
0001
0010
0100
,
1000
0100
0010
0000
0001
0010
0100
0000
1000
0000
0010
1000
0000
0001
0010
0100
,
0010
0001
0010
0000
0001
0010
0100
0000
1000
0000
0100
0010
0000
0010
0001
0010
,
0100
1000
0001
0000
0010
0100
1000
0000
0010
0000
1000
0100
0000
0010
0001
0100
,
0010
0100
0001
0000
0100
0001
0100
0000
0001
0010
0001
0000
1000
0100
0010
0000
,
0110
0100
0101
0000
1010
1000
1100
0000
,
1000
0000
0100
0000
0010
0000
0001
1000
0000
1000
0100
1000
0100
0000
0000
0010
,
0001
0000
0001
0010
0000
0100
0000
1000
0000
0010
0100
0000
0010
0000
1000
0100
,
0000
0010
0000
0001
0010
0000
0100
0010
0000
0001
0010
0100
0000
1000
0000
0100
,
0010
0000
0001
0000
0010
0100
0000
1000
0010
0100
0000
0001
0000
0100
0000
0010
,
1000
0000
0100
0000
1000
0100
0000
0010
0000
0001
0000
0010
0000
0100
0000
0000
,
1000
0000
0100
0000
0010
0000
0001
0010
0000
0001
0000
1000
0000
0000
0000
0010
,
0100
0000
0001
1000
0100
0000
0010
0001
0000
0010
0000
0001
0000
0000
0000
0000
,
1000
0100
1000
0000
0001
0000
1000
0001
0000
0100
0000
0010
1000
0000
1000
0001
,
0010
0000
0100
1000
0000
0010
0000
0100
0000
0100
0010
0000
1000
0000
0001
0000
,
1000
0100
0010
0000
0010
0001
0000
0100
0000
0001
0000
0000
0010
0000
0000
0000
,
0001
0000
1000
0001
1000
0000
0010
0100
0010
0000
1000
0100
0010
0001
0000
0000
,
0010
0100
1000
0100
0010
0001
1000
0100
0010
0100
0000
1000
0000
0000
0000
0000
,
1000
0000
0100
0000
0010
0001
0010
0100
1000
0000
0100
0010
0000
0000
0000
0000
,
0010
0000
0001
0000
0100
0000
0010
1000
0000
0010
0000
1000
0100
0000
0000
0000
,
1000
0000
0001
0100
0000
0100
0000
0001
1000
0000
0000
0000
0011
0000
0001
0000
,
1000
0100
1000
0000
0010
0100
0001
0000
0100
0000
0010
1000
0000
0001
0100
0010
,
1000
0010
0100
0000
0001
0010
0100
0000
1000
0000
1000
0100
0000
0010
0001
0010
,
0100
0010
0001
0000
0100
0010
1000
0000
0100
0000
0100
0010
0000
0010
0100
0010
,
0100
0010
0100
0000
1000
0010
0100
0000
0001
0000
0010
0100
0000
0100
1000
0100
,
0010
0001
0010
0000
0010
0100
1000
0000
0100
0000
0010
0001
0000
0010
0100
1000
,
0100
0010
0001
0000
0001
0010
0100
0000
1000
0000
0100
0010
0000
0001
1000
0100
,
0010
0001
1000
0000
0100
0010
0001
0000
0100
0000
0010
1000
0000
1000
0100
0010
,
0001
0010
0001
0000
0100
0010
1000
0000
0001
0000
0001
0010
0000
0000
0001
0000
,
1000
0100
0010
0001
0010
0100
1000
0001
0100
0010
0100
0001
0010
0100
1000
0001
,
0100
0010
0100
0001
0010
0100
1000
0001
0100
0010
1000
0100
0010
0001
0010
0100
,
1000
0001
0100
0010
1000
0100
0010
0001
0010
0100
1000
0001
0100
0010
1000
0100
,
0010
0001
0010
0100
1000
0001
0100
0010
1000
0100
0010
0001
0010
0100
1000
0001
,
0100
0010
1000
0100
0010
0001
0010
0100
1000
0001
0100
0010
0100
0001
0010
0100
,
1000
0001
0100
0010
0100
0001
0010
0100
1000
0001
0100
0010
1000
0100
0010
0001
,
0010
0100
1000
0001
0100
0010
1000
0100
0010
0001
0010
0100
1000
0001
0100
0010
,
1000
0100
0010
0001
0010
0100
1000
0001
0100
0010
0100
0001
0100
0010
1000
0100
,
0010
0001
0100
0000
0010
0001
0010
0000
0100
0000
1000
0100
0000
0100
0010
0100
,
1000
0010
0100
0000
0001
0010
0001
0000
0100
0000
0010
1000
0000
1000
0100
0010
,
0001
0010
0100
0000
1000
0100
0010
0000
0001
0000
0010
0100
0000
1000
0100
0010
,
0001
0010
0100
0000
1000
0100
0010
0000
0001
0000
0010
0100
0000
0010
0001
0010
,
0100
1000
0100
0000
0010
0001
0010
0000
0001
0000
0010
0100
0000
1000
0010
0100
,
0010
0100
0001
0000
0100
0010
1000
0000
0001
0000
0010
0100
0000
1000
0100
0010
,
0001
0010
0100
0000
1000
0010
0100
0000
0001
0000
0010
0100
0000
0010
0001
0010
,
0001
0010
0100
0000
1100
0000
0000
0000
0202
0000
0000
0000
0000
0000
0303
0000
,
0000
1001
0000
1001
1001
0001
0100
0001
,
0000
1001
0000
0101
0001
1000
0001
0100
,
0000
1001
0000
1001
0000
0000
0000
0000
;

//---------------dance-single - ----------------
#NOTES:
     dance-single:
     :
     Medium:
     8:
     0.564,0.578,0.847,0.121,0.000,320.000,91.000,13.000,0.000,0.000:
2000
0000
0000
0001
,
0002
3000
0000
0000
,
0203
0000
0000
0000
0000
0000
0010
0300
,
0020
0000
0000
0030
,
1001
1100
1001
0101
,
1001
0011
1001
0101
,
1001
0011
1001
0101
,
1001
0000
0000
0000
,
1001
0101
1001
0011
,
1001
0101
1001
1100
,
1001
0101
1100
1001
,
0011
1001
0101
1001
,
1001
0000
0001
0000
0100
0001
0100
0000
,
0001
1000
0001
0000
0001
0100
0001
0000
,
1001
0000
1100
0000
0001
0010
0001
0000
,
1100
0000
1001
0000
0001
0100
0001
0000
,
1001
0000
0101
0000
0001
1000
0001
0000
,
0001
0100
0001
0000
0100
1000
0010
0000
,
0001
0100
1000
0001
,
0100
0001
0100
0000
0001
0100
0001
0000
,
1001
0000
1100
0000
0001
0010
0001
0000
,
1100
0000
1001
0000
0001
0100
0010
0000
,
1001
0000
1100
0000
0001
0100
0001
0000
,
1100
0000
1001
0000
0010
0100
0010
0000
,
1001
0000
1100
0000
0001
0010
0001
0000
,
0100
1000
1001
0000
0100
0000
1000
0000
,
0001
1000
0001
0000
0001
0100
0001
0000
,
1000
0100
1000
0000
0001
0000
0100
0000
,
1001
0000
1100
0000
0100
1000
0001
0000
,
0100
1000
1001
1001
,
0001
0100
0001
0000
1000
0100
1000
0000
,
0001
0100
0001
0000
1000
0001
0010
0000
,
0001
0010
0001
0010
0001
1000
0001
0000
,
0100
1000
0100
1000
0001
1000
0001
0000
,
0001
0100
0001
0100
0001
1000
0001
0000
,
0100
0010
0001
0000
1000
0010
0100
0000
,
1001
0000
1100
0000
0001
0100
0001
0000
,
2000
0100
3002
0100
,
2003
0100
3001
0020
,
0230
0000
2300
0000
0002
3000
0013
0000
,
0100
1000
0100
1000
0100
1000
0100
0000
,
0001
1000
0001
0000
0001
0100
0001
0000
,
0001
0010
0001
1000
,
0001
0100
0001
1001
,
0101
1001
1100
0001
,
0010
0001
0010
0000
0001
0000
1000
0000
,
1001
0101
1001
0001
,
1000
0001
1000
0000
0001
0000
0010
0000
,
0011
1001
1100
0001
,
1000
0001
0100
0000
0001
0000
1000
0000
,
1001
1100
1001
0001
,
0100
0001
1000
0000
0100
0000
0000
0000
,
1000
0100
1000
0100
1000
0001
1000
0001
,
0100
0001
0100
0001
1000
0001
1000
0001
,
0010
0001
0010
0001
1000
0001
1000
0001
,
0100
0001
1000
0001
,
1001
1001
1100
1100
,
1001
1001
1001
1010
,
0101
1100
0011
1100
,
1001
1100
1001
1100
,
1001
0001
1000
0001
,
1000
0001
1000
0000
0001
1000
0001
0000
,
1001
1001
0101
0001
,
1000
0001
1000
0000
0001
0010
0001
0000
,
1000
0001
1000
0001
,
1000
0001
1000
0000
0001
0100
0001
0000
,
1100
0101
0100
1000
,
1100
0101
2002
0000
,
0000
0000
0000
0000
,
3003
0000
0000
0000
;

//---------------dance-single - ----------------
#NOTES:
     dance-single:
     :
     Easy:
     5:
     0.372,0.450,0.465,0.158,0.000,213.000,50.000,17.000,0.000,0.000:
2000
0000
0000
0001
,
3002
0000
0000
0000
,
0203
0000
0000
0010
,
0320
0000
0000
0030
,
1001
0000
1100
0000
,
1001
0000
0101
0000
,
1001
0101
1001
0000
,
1001
0000
1100
0000
,
1001
0101
1001
0000
,
1001
1100
1001
0000
,
0011
0011
1001
0000
,
1001
1001
0101
0000
,
0001
1000
0001
0100
,
1001
0000
0110
0000
,
0001
1000
0001
0100
,
0001
1000
0001
0000
,
1001
0000
0000
0000
,
1001
0000
1001
0000
,
0100
0100
1000
1000
,
0001
0001
0100
0000
,
1000
1000
0100
0100
,
0010
0010
0001
0001
,
1000
1000
0100
0010
,
0001
1000
0010
0100
,
0001
1000
0100
0010
,
0001
1000
0100
1000
,
0001
0010
0100
1000
,
0001
1000
0001
1000
,
1001
0000
1001
0000
,
1000
0100
0001
0100
,
1000
0100
0001
0100
,
0001
1000
0001
0000
,
1000
0001
0100
0001
,
1000
0100
0001
0100
,
2000
0100
0100
0100
,
3002
0100
0100
0103
,
0020
0001
0001
0031
,
2000
0100
0100
0100
,
3002
0100
0100
0103
,
2000
3100
0002
0103
,
1000
0100
1000
0100
,
0100
1000
0100
0010
,
0002
0000
2003
0000
,
3001
1000
0001
1000
,
1001
0000
1001
0000
,
0001
1000
0001
0000
,
1001
0000
0110
0000
,
1000
0100
1000
0000
,
1001
0000
0110
0000
,
1000
0100
1000
0000
,
1001
0000
0110
0000
,
1000
0100
0001
0100
,
1000
0001
1000
0100
,
1001
1001
0110
0110
,
0001
1000
0100
1000
,
2002
0000
0000
3003
,
0001
0001
1000
1000
,
0100
0100
0010
0010
,
0001
0001
1000
1000
,
0100
0100
0001
0000
,
1001
0000
0110
0000
,
1000
0100
0001
0100
,
1100
0000
0101
0000
,
1000
0100
1000
0100
,
1001
0000
0110
0000
,
0001
1000
0001
1000
,
0110
0000
1001
0000
,
0100
0010
0220
0000
,
0000
0000
0000
0000
,
0330
0000
0000
0000
;

//---------------dance-single - Copied from Copied f----------------
#NOTES:
     dance-single:
     Copied from Copied f:
     Hard:
     9:
     0.688,0.642,0.307,0.121,0.242,471.000,33.000,13.000,0.000,0.000:

2000
0000
0000
0001
,
0002
3000
0000
0000
,
0203
0000
0000
0000
0000
0000
0010
0300
,
0020
0000
0000
0000
0000
1030
0001
1000
,
0010
0100
0001
0010
0100
0010
0100
1000
,
0100
0010
0001
0100
0010
1000
0010
1000
,
0010
1000
0001
1000
0010
0100
0001
0100
,
0020
0000
0000
0000
0030
1000
0100
0010
,
0001
0100
0010
1000
0010
1000
0010
1000
,
1001
0000
1000
0100
0000
1000
0100
0010
,
0002
0000
1000
1003
0000
0110
0000
0220
,
0000
0000
0000
0330
,
0010
0000
0100
0000
0010
0000
0100
0000
1000
0000
0001
0000
0010
0000
0000
0001
,
1000
0000
0001
0000
0100
0000
0000
0010
1000
0000
0100
0000
0010
0000
0001
0000
,
0100
0010
0100
0001
0100
0001
1000
0100
,
0010
0001
1000
0010
0100
0001
0100
0010
,
0100
0000
0001
0000
0100
0000
0001
0000
0010
0000
0001
0000
0100
0000
0000
0010
,
1000
0000
0100
0000
0010
0000
0000
0001
0100
0000
0001
0000
0010
0000
0100
0000
,
1000
0100
0010
0001
1000
0010
1000
0100
,
0010
0001
0100
0001
0010
0100
1000
0010
,
1000
0000
0100
0000
0010
0000
0001
0000
0100
0000
0001
1000
0000
0000
1000
0000
,
0100
1000
0100
0000
0010
0000
0001
0000
1000
0000
0001
0100
0000
0000
0000
0000
,
1000
0001
1000
0000
0100
0000
0010
0000
0001
0000
0010
0001
0000
0000
0010
0000
,
0001
0010
0001
0000
0100
0000
0001
0000
1000
0000
0100
0010
0000
0000
0001
0000
,
0010
0100
0010
0000
0001
0000
0010
0000
0100
0000
1000
0100
0000
0000
0100
0000
,
0010
0001
0010
0000
0001
0000
0100
0000
0010
0000
1000
0100
0000
0000
0010
0000
,
0100
1000
0100
0000
0010
0000
0100
0000
0001
0000
0010
0001
0000
0000
0010
0000
,
0001
0100
0010
0000
1000
0000
0001
0000
0010
0000
0100
0010
0000
0000
0010
0000
,
1100
1001
0101
1001
,
0001
0100
0001
1000
0100
0010
0001
0000
,
1000
0100
0010
0001
1000
0001
1000
0000
,
0100
1000
0001
0100
0001
1000
0100
0000
,
0100
1000
1100
0000
0001
0100
0101
0000
,
0100
1000
1100
0000
0001
0010
0011
0000
,
0100
0010
0110
0000
0100
1000
1100
0000
,
0001
1000
0001
1000
0001
0100
0001
0000
,
0101
0000
1100
0000
0001
0100
0001
0000
,
0100
1000
0100
1000
0001
0100
0001
0000
,
0100
0010
0100
1000
0001
0100
0001
0000
,
0100
1000
0100
0010
0001
1000
0100
0000
,
1000
0001
1000
0001
1000
0001
1000
0001
1000
0001
0000
0000
0000
0000
0000
0000
,
1000
0001
1000
0001
0100
0001
1000
0000
,
0100
1000
0001
0100
0001
1000
0100
0010
,
0001
1000
0100
0010
0001
0000
1100
0000
,
1010
0000
0010
0000
0100
0000
0010
0000
0100
0000
0010
0001
0000
0000
0010
0000
,
0100
0010
0001
0000
0100
0000
0010
0000
1000
0000
0010
1000
0000
0000
0100
0000
,
0010
0001
0010
0000
0100
0000
1000
0000
0010
0000
0100
0001
0000
0000
0010
0000
,
0001
0100
0010
0000
1000
0000
0001
0000
0001
0000
0100
0010
0000
0000
1000
0000
,
0010
0100
0010
0000
1000
0000
0100
0000
1000
0000
0100
1000
0000
0000
0010
0000
,
0100
0001
0010
0000
0100
0000
0010
0000
0100
0000
1000
0100
0000
0000
0100
0000
,
0001
0010
0001
0000
0100
0000
0010
0000
1000
0000
0100
0010
0000
0000
0001
0000
,
0100
0010
1000
0000
0100
0000
0001
0000
0100
0000
1000
0100
0000
0000
0000
0000
,
0010
0100
0110
0000
0100
0000
1000
0000
,
1100
0000
0101
0000
0001
1000
0001
0010
,
0100
1000
0001
0100
0010
1000
0100
0020
,
0000
0000
0000
0000
0030
0001
1000
0001
,
1001
0101
1001
0101
,
1100
0000
0011
0000
1100
1000
0010
0100
,
1000
0000
0001
0010
0000
0100
0000
2200
,
0000
3300
1100
1001
,
0100
0000
0010
0000
0100
0000
0001
0000
0010
0000
0100
1000
0000
0000
0010
0000
,
1000
0010
0100
0000
0010
0000
0010
0000
0100
0000
0010
0100
0000
0000
0100
0000
,
0001
0010
0100
0000
1000
0000
0010
0000
0001
0000
0010
0100
0000
0000
0001
0000
,
1000
0010
0100
0000
0001
0000
0010
0000
1000
0000
0001
0100
0000
0000
1000
0000
,
0100
1000
0100
0000
0010
0000
0001
0000
0010
0000
0001
0010
0000
0000
0010
0000
,
0010
0100
1000
0000
0100
0000
0100
0000
1000
0000
0001
0010
0000
0000
0010
0000
,
1000
0010
0100
0000
0001
0000
0100
0000
1000
0000
0001
0010
0000
0000
0010
0000
,
0011
1100
0202
0000
,
0000
0000
0000
0000
,
0303
0000
0000
0000
;
