#TITLE:Illumination of the Sky;
#SUBTITLE:;
#ARTIST:Phantasma;
#TITLETRANSLIT:;
#SUBTITLETRANSLIT:;
#ARTISTTRANSLIT:;
#CREDIT:Raadikins;
#BANNER:Illumination of the Sky.png;
#BACKGROUND:Illumination of the Sky-BG.png;
#LYRICSPATH:;
#CDTITLE:;
#MUSIC:illumination_of_the_sky.mp3;
#OFFSET:0.000;
#SAMPLESTART:99.960;
#SAMPLELENGTH:12.000;
#SELECTABLE:YES;
#BPMS:0.000=102.000,64.000=204.001,320.500=403.219,327.750=357.039,327.750=351.360,327.750=302.140,327.750=240.121,327.750=182.901,327.750=147.280,327.750=146.520,327.750=146.040,327.750=91.460,327.750=80.040,327.750=49.220,327.750=23.200,327.750=12.380,327.750=6.580,327.750=205.980,327.750=356.839,327.813=357.039,327.813=308.220;
#STOPS:64.000=0.020
;
#BGCHANGES:;
// cache tags:
#FIRSTBEAT:0.250;
#LASTBEAT:323.500;
#SONGFILENAME:Songs/Community Keyboard Megapack - Volume 1/(Raadikins) Illumination of the Sky/Illumination.sm;
#HASMUSIC:1;
#HASBANNER:1;
#MUSICLENGTH:118.708;
// end cache tags

//---------------dance-single - ----------------
#NOTES:
     dance-single:
     :
     Easy:
     1:
     0.000,0.000,0.000,0.000,0.000,0.000,0.000,0.000,0.000,0.000:
0000
0000
0000
0000
;

//---------------dance-single - Hard----------------
#NOTES:
     dance-single:
     Hard:
     Hard:
     11:
     1.000,1.000,0.472,0.067,1.000,1114.000,56.000,8.000,0.000,1.000:
0000
0001
0010
0100
1000
0100
0010
0100
1000
0100
0100
1000
0100
0100
1000
0100
,
0100
0010
0001
0010
0100
1000
0100
0010
0001
0010
0001
0001
0010
0001
0001
0010
,
0100
1000
0100
0010
0100
0010
0001
0010
0100
0010
0100
1000
0100
0010
0100
1000
,
0001
0010
0100
0010
0001
0100
0010
1000
0100
0010
0001
1000
0100
0010
0001
1000
,
0100
0010
0001
0100
1000
0100
0001
0100
1000
0100
0010
1000
0100
0010
0001
0010
,
0100
1000
0010
0100
0010
1000
0100
0010
0001
0100
0010
0100
0001
0010
0100
1000
,
0100
0010
0001
0100
0010
0100
0001
0010
0100
0010
1000
0010
0100
0001
0010
0001
,
0100
0010
1000
0100
1000
0010
0100
0001
0010
0001
0100
0010
1000
0100
0010
0001
,
0000
1001
0000
0000
1001
0000
0000
0000
0000
0000
0000
0000
0000
0000
0000
0011
,
0000
0101
1010
0000
1100
0000
0000
0000
0000
0000
0000
0000
0000
0000
1100
0011
,
0000
1001
0000
0110
1001
0000
0000
0011
0000
1100
0000
0000
1100
0011
1100
0000
,
1001
1000
1000
0110
0001
0001
0110
0000
1100
0110
0000
0011
0110
1000
1000
0101
,
0010
0010
1100
0011
0000
0110
1001
0000
1000
1000
0110
0001
0000
0110
0000
0001
,
1000
0001
0110
1000
0001
1000
0011
0100
0010
0001
0010
0100
1000
0000
0110
1001
,
0000
0110
0000
0011
0100
1100
0010
0000
0001
0010
0100
1000
0001
1000
0001
1000
,
0110
0000
1001
0000
0110
0000
0000
0000
0100
0000
0000
0000
0010
0000
0000
0000
1000
0001
1000
0001
1000
0001
1000
0001
1000
0001
1000
0001
2002
0000
0000
0000
,
3003
0100
1000
0100
1000
0100
0010
0001
0010
0001
0010
0001
0010
0100
0010
0001
,
0010
0100
0010
0001
0010
0100
1000
0100
0010
0100
1000
0100
0010
0100
1000
0001
,
0010
0100
1000
0001
0010
0100
1000
0001
0100
0010
1000
0001
0100
0010
1000
0100
,
0010
0001
1000
0100
0010
0001
1000
0010
0100
0001
1000
0010
0100
0001
0010
0001
,
0100
0010
1000
0100
1000
0010
0100
0001
0010
0100
1000
0100
0010
0001
0010
0001
,
0010
0100
1000
0100
0010
0100
0010
0100
1000
0010
0100
0001
0010
0100
1000
0001
,
0010
0001
0100
0001
1000
0100
1000
0010
1000
0001
1000
0010
0100
0010
1000
0010
,
1000
0001
0010
0001
0100
0010
1000
0100
0010
0001
0100
0010
0100
0001
0010
0100
,
1000
0010
0100
0010
1000
0010
0100
0001
0100
0010
0100
0010
0100
0010
0100
0001
,
0100
0001
0100
0010
1000
0100
0010
0001
0100
0010
1000
0100
0010
0001
0100
0010
,
1000
0100
0010
0001
0100
0010
1000
0100
1000
0100
1000
0010
0100
0001
0010
0100
,
1000
0010
0100
0001
0010
0100
1000
0010
0100
0001
0010
0100
1000
0010
0100
0001
,
0010
0100
1000
0001
0010
0001
0100
0010
1000
0100
1000
0010
0100
0001
0010
0001
,
0100
0010
1000
0100
0010
0001
0010
0100
1000
0100
0010
0001
0010
0100
1000
0100
,
1000
0010
0100
0001
0010
0100
1000
0010
0100
0001
0010
0001
0100
0010
1000
0100
,
1000
0000
0010
0000
0100
0000
0001
0000
0010
0000
0100
0000
1000
0000
0100
0000
0010
0000
0001
0000
1000
0000
0010
0000
0100
0000
0001
0000
0000
0000
0000
2002
,
0000
3013
0100
0010
0100
0010
1000
0010
1000
0010
1000
0001
0100
0001
0100
0001
,
0010
0001
0010
0001
0010
0100
1000
0100
1000
0100
0010
0001
0010
0001
0010
0001
,
0100
0001
0100
0001
1000
0001
1000
0001
1000
0001
0010
0001
0010
0001
0100
0001
,
1000
0100
1000
0010
0100
0001
0001
0010
0100
1000
0010
0100
0001
1000
0010
0100
,
0001
1000
0010
0100
0001
1000
0010
0100
0001
0010
0100
1000
0100
1000
0001
1000
,
0100
1000
0001
1000
0001
1000
0001
0010
0001
0010
0100
0010
0100
0010
0100
0001
,
0100
0010
0100
1000
0100
0010
0100
0001
0100
0010
1000
0010
0100
0010
0001
0010
,
0100
0010
1000
0010
0100
1000
0010
0100
0001
0010
0100
1000
0010
0100
0001
0010
,
0100
1000
0010
0100
0001
0100
0010
1000
0100
0010
0001
0100
0010
1000
0100
0010
,
0001
0100
0010
1000
0100
0010
0001
0010
0100
0010
0100
1000
0100
1000
0100
0010
,
0100
0010
0001
0010
0100
0010
0100
0010
0001
1000
0001
1000
0001
1000
0100
0010
,
0001
0010
0100
1000
0100
0010
0001
0010
0100
0010
0001
1000
0100
0010
0001
0010
,
0001
0010
0100
1000
0100
0010
0001
0100
0010
1000
0100
0010
0001
0100
0010
1000
,
0010
0100
0001
0100
0010
1000
0100
1000
0010
0100
0001
0010
0001
0100
0010
1000
,
0010
0100
0001
0100
0010
1000
0100
0010
0001
0100
0010
1000
0100
0010
0001
0100
,
0010
1000
0100
0010
0001
0100
0010
1000
0010
0100
0001
0010
0001
0100
0010
1000
,
0100
0010
0001
0000
0100
0000
0010
0000
0001
0000
0010
0000
0100
0000
1000
0000
,
0010
0100
0010
0000
0001
0000
0010
0000
0100
0000
1000
0000
0100
0000
0010
0000
,
0001
0010
0001
0000
0100
0000
0010
0000
1000
0000
0001
0000
0100
0000
0010
0000
,
1000
0100
1000
0000
0001
0000
0010
0000
0100
0000
1000
0000
0001
0000
0010
0000
,
0100
1000
0100
0000
1000
0000
0010
0000
1000
0000
0001
0000
0100
0000
0001
0000
,
0010
0001
1000
0000
0001
0000
1000
0000
0010
0000
1000
0000
0100
0000
1000
0000
,
0001
0100
0010
0000
1000
0000
0100
0000
0010
0000
0001
0000
0100
0000
0010
0000
,
1000
0100
0010
0000
0001
0000
0010
0000
0001
0000
0100
0000
0010
0000
0100
0000
,
1000
0100
0010
0000
0001
0000
0100
0000
0001
0000
1000
0000
0010
0000
1000
0000
,
0100
0010
0001
0000
1000
0000
0001
0000
1000
0000
0010
0000
1000
0000
0100
0000
,
0010
0100
0001
0000
0010
0000
0100
0000
1000
0000
0100
0000
0010
0000
0001
0000
,
0100
1000
0100
0000
0001
0000
0100
0000
1000
0000
0100
0000
0001
0000
0100
0000
,
1000
0100
0001
0000
0010
0000
0001
0000
0100
0000
0010
0000
1000
0000
0010
0000
,
0100
0010
1000
0000
0100
0000
0001
0000
0100
0000
1000
0000
0010
0000
0100
0000
,
1000
0100
0010
0000
1000
0000
0001
0000
1000
0000
0010
0000
0100
0000
1000
0000
,
0100
0010
1000
0000
0001
0000
0100
0000
1000
0000
0100
0000
0010
0000
2002
0000
,
3003
1000
0010
0100
0001
0010
0100
1000
0010
0100
0001
0010
0100
1000
0010
0100
,
0001
0010
0100
1000
0010
0100
0001
0010
0100
1000
0100
0010
0001
0100
0010
1000
,
0100
0010
0001
0100
0010
1000
0100
0010
0001
0100
0010
1000
0100
0010
0001
0010
,
0100
1000
0100
0010
0001
1000
0100
0010
0001
1000
0100
0010
0001
1000
0100
0010
,
0001
1000
0010
0100
0001
1000
0010
0100
0001
1000
0010
0100
0001
1000
0010
0100
,
0001
0010
0100
1000
0001
0010
0100
1000
0001
0010
0100
1000
0001
0010
0100
1000
,
0100
1000
0010
0100
0001
0010
0001
0100
0010
1000
0100
1000
0010
0100
0001
0010
,
0001
0100
0010
1000
0100
1000
0010
0100
0001
0010
0100
0010
0001
0010
0100
1000
,
0100
0010
0100
1000
0100
0010
0001
0100
0010
0100
0001
0010
0100
1000
0010
0100
,
0010
1000
0100
0010
0001
0100
0001
1000
0001
0010
0001
0100
0001
1000
0001
0010
,
0001
0100
0001
1000
0001
1000
0010
1000
0100
1000
0001
1000
0010
1000
0100
1000
,
0001
1000
0010
1000
0100
1000
0100
0010
0100
0010
0001
0100
0010
1000
0100
0010
,
0001
1000
0001
0010
0100
1000
0001
1000
0100
0010
0001
0010
0100
1000
0001
1000
,
0100
0010
0001
1000
0001
0010
0100
1000
0001
0010
0001
1000
0100
1000
0010
1000
,
0010
0001
1100
0000
0110
0000
0011
0000
0110
0000
1100
0000
1010
0000
0101
0000
,
0011
0000
1100
0000
1010
0000
0101
0000
0011
0000
1000
0001
1000
0001
1000
0001
,
1000
0001
2002
0000
0000
0000
0000
0000
0000
0000
0000
0000
0000
0000
3003
0000
;
