#TITLE:rock lee's theme;
#SUBTITLE:- Rock Lee's Theme;
#ARTIST:toshiro masuda;
#TITLETRANSLIT:;
#SUBTITLETRANSLIT:;
#ARTISTTRANSLIT:;
#CREDIT:;
#BANNER:Rock Lee's Theme-banner.PNG;
#BACKGROUND:Rock Lee's Theme-bg.PNG;
#LYRICSPATH:;
#CDTITLE:ko0k13-cdtitle.PNG;
#MUSIC:05 - Rock Lee's Theme.mp3;
#OFFSET:0.000;
#SAMPLESTART:100.000;
#SAMPLELENGTH:12.000;
#SELECTABLE:YES;
#BPMS:0.000=106.080;
#STOPS:;
#BGCHANGES:;
// cache tags:
#FIRSTBEAT:1.000;
#LASTBEAT:215.667;
#SONGFILENAME:Songs/toune 1 (2010)/05 - Rock Lee's Theme/05 - Rock Lee's Theme.sm;
#HASMUSIC:1;
#HASBANNER:1;
#MUSICLENGTH:127.817;
// end cache tags

//---------------dance-single - ----------------
#NOTES:
     dance-single:
     :
     Hard:
     7:
     0.501,0.527,0.070,0.399,0.970,388.000,9.000,51.000,0.000,0.000:
0000
0000
0000
1000
0200
0300
0001
0010
0100
1000
0100
0010
,
0001
0002
0000
0000
0003
1000
1000
0100
0010
0000
0001
0010
,
0100
1000
0100
0010
0001
0002
0000
1000
0100
0013
1000
0100
,
0010
0000
0001
0010
0100
1000
0100
0010
0001
0002
0000
0000
,
0003
1000
0100
0010
0001
0000
0001
0010
0100
1000
0100
0010
,
0001
0001
0010
0010
0010
0010
0010
0010
0010
1010
0100
0010
,
0001
0010
0100
1000
2000
0000
0000
3000
0001
0010
0100
1000
,
0000
0001
0010
0100
1000
0100
0010
0001
0002
0000
1003
0100
,
0010
1000
0100
0010
0000
0001
0010
0100
1000
0100
0010
0001
,
0002
0000
0000
0000
0003
0000
0000
0000
1000
0100
0010
0001
,
0010
0100
1000
2000
0000
0000
0000
0000
3000
0000
0000
0000
,
0002
0003
0010
0010
0000
0100
2000
3000
0010
0010
0000
0001
,
0001
0000
0000
0000
0010
0000
0000
0000
0100
0000
0000
0000
1000
0000
0000
0200
0000
0000
0000
0000
0000
0000
0000
0000
0000
0000
0000
0000
0000
0000
0000
0000
0000
0000
0000
0000
0000
0000
0000
0000
0000
0000
0000
0000
0000
0000
0000
0000
,
0000
0000
0000
0000
0000
0000
0000
0000
0000
0000
0000
0000
0000
0000
0000
0000
0000
0000
0000
0000
0000
0000
0000
0000
0000
0000
0000
0000
0000
0000
0000
0000
0000
0000
0000
0000
0000
0000
0000
0000
0000
0000
0000
0000
0000
0000
0000
0000
0000
0000
0000
0000
0000
0000
0000
0000
0000
0000
0000
0000
0000
0000
0000
0000
0000
0000
0000
0000
0000
0000
0000
0000
0000
0000
0000
0000
0000
0000
0000
0000
0000
0000
0000
0000
0000
0000
0000
0300
0000
0000
0000
0000
0000
0000
0000
0000
0000
0000
0000
0000
0000
0000
0000
0000
0000
0000
0000
0000
0000
0000
0000
0000
0002
0000
0000
0000
0000
0000
0000
0000
0000
0000
0000
0000
0000
0000
0000
0000
0003
0000
0000
0000
0000
0000
0000
0000
0000
0000
0000
0000
0000
0000
0000
0000
0010
0000
0000
0000
0000
0000
0000
0000
0000
0000
0000
0000
0000
0000
0000
0000
0010
0000
0000
0000
0000
0000
0000
0000
0000
0000
0000
0000
0000
0000
0000
0000
0000
0000
0000
0000
0000
0000
0000
0000
0000
0000
0000
0000
0000
0000
0000
0000
,
0100
0000
0000
0000
0000
0000
0000
0000
0000
0000
0000
0000
0000
0000
0000
0000
2000
0000
0000
0000
0000
0000
0000
0000
0000
0000
0000
0000
0000
0000
0000
0000
3000
0000
0000
0000
0000
0000
0000
0000
0000
0000
0000
0000
0000
0000
0000
0000
0010
0000
0000
0000
0000
0000
0000
0000
0000
0000
0000
0000
0000
0000
0000
0000
0010
0000
0000
0000
0000
0000
0000
0000
0000
0000
0000
0000
0000
0000
0000
0000
0000
0000
0000
0000
0000
0000
0000
0000
0000
0000
0000
0000
0000
0000
0000
0000
0001
0000
0000
0000
0000
0000
0000
0000
0000
0000
0000
0000
0000
0000
0000
0000
0010
0000
0000
0000
0000
0000
0000
0000
0000
0000
0000
0000
0000
0000
0000
0000
0100
0000
0000
0000
0000
0000
0000
0000
0000
0000
0000
0000
0000
0000
0000
0000
0100
0000
0000
0000
0000
0000
0000
0000
0000
0000
0000
0000
0000
0000
0000
0000
0010
0000
0000
0000
0000
0000
0000
0000
0000
0000
0000
0000
0000
0000
0000
0000
0000
0002
0000
0000
0000
0000
0000
0000
0000
0000
0000
0000
0000
0000
0000
0000
,
0000
0000
0000
0000
0000
0000
0000
0000
0000
0000
0000
0000
0000
0000
0000
0003
,
0000
0000
0000
0020
0030
0100
0020
0030
0000
0001
2000
3000
,
0001
0000
1000
0100
0010
0100
2000
0000
0000
0000
0000
0000
,
0000
0000
0000
0000
0000
0000
3000
0000
0000
0000
0000
0000
0000
0000
0000
0000
0000
0000
0000
0000
0000
0000
0000
0000
0000
0000
0000
0000
0000
0000
0000
0000
0000
0000
0000
0000
0000
0000
0000
0000
0000
0000
0000
0000
0000
0000
0000
0000
0000
0000
0000
0000
0000
0000
0000
0000
0000
0000
0000
0000
0000
0000
0000
0000
0000
0000
0000
0000
0000
0000
0000
0000
0000
0000
0000
0000
0000
0000
0000
0000
0000
0000
0000
0000
0000
0000
0000
0000
0000
0000
0000
0000
0000
0000
0000
0000
0000
0000
0000
0000
0000
0000
0000
0000
0000
0000
0000
0000
0000
0000
0000
0000
0000
0000
0000
0000
0000
0000
0000
0000
0000
0000
0000
0000
0000
0000
0000
0000
0000
0000
0000
0000
0000
0000
0000
0000
0000
0000
0000
0000
0000
0000
0000
0000
0000
0000
0000
0000
0000
0000
0000
0000
0000
0000
0000
0000
0000
0000
0000
0000
1000
0000
0000
0000
0000
0000
0000
0000
0000
0000
0000
0000
0000
0000
0000
0000
0100
0000
0000
0000
0000
0000
0000
0000
0000
0000
0000
0000
0000
0000
0000
0000
,
0010
0001
0010
0100
1000
2000
0000
0000
3000
0010
0100
0010
,
0100
0000
0001
0010
0100
1000
0100
0010
0001
0002
0000
1000
,
0103
0010
1000
0100
0010
0000
0001
0010
0100
1000
0100
0010
,
0001
0002
0000
0003
0000
0010
0100
0010
0100
0000
1000
0100
,
0010
0001
0010
0100
1000
2000
0000
0001
3010
0100
0001
0010
,
0100
0000
1000
0100
0010
0001
0010
0100
2000
0000
0000
0000
,
3000
0000
0000
0000
0000
0001
0010
0100
1000
0100
0010
0001
,
0002
0000
0010
0103
0010
0100
0010
0100
0000
0001
0010
0100
,
1000
0100
0010
0001
0002
0000
0000
0003
0000
0000
0000
0000
,
0000
1000
0100
0010
0001
0010
0100
1000
2000
0000
0000
3000
,
0000
0000
0000
0000
0002
0003
0010
0010
0000
0100
2000
3000
,
0010
0010
0000
0001
0010
0100
1000
0100
0000
0020
0000
0000
,
0000
0000
0000
0030
0001
0010
0100
0000
2000
0000
0000
3000
,
0002
0003
0010
0010
0000
0100
2000
3000
0010
0010
0000
0001
,
0010
0100
1000
0200
0000
0000
0000
0000
0000
0300
0000
0000
,
0000
0000
0000
0000
0000
0000
0001
0000
0000
0000
0000
0000
0001
0000
0000
0000
0000
0000
0001
0000
0000
0000
0000
0000
0001
0000
0000
0000
0000
0000
0001
0000
0000
0000
0000
0000
0001
0000
0000
0000
0000
0000
0001
0000
0000
0000
0000
0000
0001
0000
0000
0000
0000
0000
0001
0000
0000
0000
0000
0000
0001
0000
0000
0000
0000
0000
0001
0000
0000
0000
0000
0000
0001
0000
0000
0000
0000
0000
0001
0000
0000
0000
0000
0000
0001
0000
0000
0000
0000
0000
0000
0000
0000
0000
0000
0000
0000
0000
0000
0000
0000
0000
0000
0000
0000
0000
0000
0000
0000
0000
0000
0000
0010
0000
0000
0000
0000
0000
0000
0000
0000
0000
0000
0000
0000
0000
0000
0000
0100
0000
0000
0000
0000
0000
0000
0000
0000
0000
0000
0000
0000
0000
0000
0000
1000
0000
0000
0000
0000
0000
0000
0000
0000
0000
0000
0000
0000
0000
0000
0000
0100
0000
0000
0000
0000
0000
0000
0000
0000
0000
0000
0000
0000
0000
0000
0000
0010
0000
0000
0000
0000
0000
0000
0000
0000
0000
0000
0000
0000
0000
0000
0000
,
0001
0010
0020
0000
0030
0000
0000
0000
0000
0000
0000
0001
,
0010
0100
1000
0100
0010
0001
0002
0000
1000
0103
0010
1000
,
0100
0010
0000
0001
0010
0100
1000
0100
0010
0001
0002
0000
,
0000
0000
0003
0000
0000
0000
1000
0100
0010
0001
0010
0100
,
1000
2000
0000
0000
0000
0000
3000
0000
0000
0000
0001
0010
,
0100
1000
0100
0010
0001
0002
0000
0000
0000
0003
0000
0000
,
0000
0000
1000
0100
0010
0001
0010
0100
1000
2000
0000
0000
,
3000
0000
0000
0000
0000
0001
0010
0100
1000
0100
0010
0001
,
0002
0000
0000
0000
0003
0000
0000
0000
0000
1000
0100
0010
,
0001
0010
0100
1000
2000
0000
0000
3000
0000
0000
0000
0000
,
0000
1001
0000
0110
0110
0000
0011
1100
0000
1001
1001
0000
,
0001
0000
0000
0000
0000
0000
0000
0000
0000
0000
0000
0000
0000
0000
0000
0000
0010
0000
0000
0000
0000
0000
0000
0000
0000
0000
0000
0000
0000
0000
0000
0000
0100
0000
0000
0000
0000
0000
0000
0000
0000
0000
0000
0000
0000
0000
0000
0000
1000
0000
0000
0000
0000
0000
0000
0000
0000
0000
0000
0000
0000
0000
0000
0000
0100
0000
0000
0000
0000
0000
0000
0000
0000
0000
0000
0000
0000
0000
0000
0000
0000
0000
0000
0000
0000
0000
0000
0000
0000
0000
0000
0000
0000
0000
0000
0000
0020
0000
0000
0000
0000
0000
0000
0000
0000
0000
0000
0000
0000
0000
0000
0000
0030
0000
0000
0000
0000
0000
0000
0000
0000
0000
0000
0001
0000
0000
0010
0000
0000
0100
0000
0000
0000
0000
0000
0000
0000
0000
0000
0000
0000
0000
0000
0000
0000
0000
0000
0000
0000
0000
0000
0000
0000
1000
0000
0000
0000
0000
0000
0000
0000
0000
0000
0000
0000
0000
0000
0000
0000
0000
0000
0000
0000
0000
0000
0000
0000
0000
0000
0000
0000
0000
0000
0000
0000
0000
0000
0000
0000
0000
0000
0000
,
0100
0100
0000
0020
0000
0000
0030
0000
0000
0002
0003
0010
,
0010
0000
0100
2000
3000
0010
0010
0001
0010
0100
1000
2000
,
0000
3000
0000
0000
,
0000
0000
0000
0000
2000
3000
0100
0100
0000
0010
0002
0003
,
0010
0010
0000
1000
0100
0010
0001
0020
0000
0000
0000
0000
,
0000
0000
0000
0030
,
0001
0010
0100
0001
0010
0100
1000
0000
0000
2002
0000
3003
;
