#TITLE:Renaissance;
#SUBTITLE:;
#ARTIST:☺;
#TITLETRANSLIT:;
#SUBTITLETRANSLIT:;
#ARTISTTRANSLIT:;
#CREDIT:;
#BANNER:Renaissance-banner.png;
#BACKGROUND:Renaissance-bg.png;
#LYRICSPATH:;
#CDTITLE:;
#MUSIC:Renaissance.ogg;
#OFFSET:0.000;
#SAMPLESTART:79.500;
#SAMPLELENGTH:13.420;
#SELECTABLE:YES;
#DISPLAYBPM:160.000;
#BPMS:0.000=160.000,244.000=1.103,244.021=160.000;
#STOPS:;
#BGCHANGES:;
// cache tags:
#FIRSTBEAT:12.000;
#LASTBEAT:277.000;
#SONGFILENAME:Songs/In The Dump/Renaissance/Renaissance.sm;
#HASMUSIC:1;
#HASBANNER:1;
#MUSICLENGTH:106.875;
// end cache tags

//---------------dance-single - @320 ???----------------
#NOTES:
     dance-single:
     @320 ???:
     Challenge:
     17:
     0.845,1.000,0.075,0.281,0.926,594.000,8.000,30.000,0.000,0.000:
0000
0000
0000
0000
,
0000
0000
0000
0000
,
0000
0000
0000
0000
,
0001
0000
0010
0000
0001
0000
0010
0000
0001
0000
0000
0000
0010
0000
0000
0000
0000
0000
0000
0000
0100
0000
0000
0000
1000
0010
0100
0001
0010
0001
1000
0010
,
0100
0001
1000
0100
0010
1000
0001
0010
,
0001
0000
0000
0000
1000
0000
0000
0000
0010
0000
0000
0010
0001
0000
0010
0000
,
0100
0001
1000
0010
0100
1000
0100
0001
,
0020
0000
0001
0000
0100
0030
0001
0010
,
1000
0000
0010
0001
0100
0000
0001
0010
,
2000
0000
0000
0000
0010
0000
0000
0000
3100
0000
0000
0010
0001
0000
0100
0000
,
1000
0100
0001
0010
0001
0100
1000
0100
,
0001
0000
0000
0001
0010
0000
0001
0000
0000
0000
0100
0000
1000
0000
0100
0000
,
2000
3100
0002
0103
,
1000
0000
0100
0000
1000
0000
0100
0000
0001
0010
0000
0010
0001
1000
0010
0100
,
0010
1000
0010
1000
0010
0001
0010
0001
,
0010
1000
0010
1000
0010
0001
0010
0100
,
0001
1000
0001
1000
0001
0100
0001
0100
,
0001
0010
0001
0100
0000
1000
0100
0000
,
0001
0010
0001
0010
1000
0010
1000
0010
,
0001
0100
0001
0100
1000
0100
1000
0100
,
0001
0100
1000
0100
0001
0010
0001
0100
,
1000
0100
0001
0010
0000
0100
0010
0000
,
0001
0010
0000
0100
0010
0000
0001
0010
0000
0100
0010
0000
0001
0000
0000
0000
,
0100
0000
1000
0000
0000
0000
0100
0000
0010
0000
0000
0000
0100
0000
1000
0000
0000
0000
0001
0000
1000
0000
0000
0000
0001
0010
0100
0010
0001
1000
0010
0100
,
0001
0000
1000
0000
0010
0100
0001
0000
,
1000
0100
0010
0100
1000
0001
0100
0010
1000
0001
0010
0100
1000
0001
0100
0010
1000
0001
0010
0100
1000
0000
0000
0000
0001
0000
0000
0000
1000
0000
0000
0000
,
0002
0000
0020
0003
0130
1000
0001
0000
,
1000
0001
0010
0001
0100
0010
1000
0001
0010
0100
1000
0001
0100
0010
1000
0100
0010
0001
1000
0010
0100
0000
0000
0000
0001
0000
0000
0000
1000
0000
0000
0000
,
0200
0000
2000
0300
0001
0001
3001
0000
,
1000
0010
0100
0001
1000
0100
0010
0100
1000
0001
0100
0010
1000
0100
0010
0001
1000
0010
0100
0001
1000
0000
0000
0000
0001
0000
0100
0000
0000
0000
0100
0000
,
0002
0000
0020
0003
0230
0000
1300
0000
,
0001
1000
0010
0100
0010
1000
0001
0010
0100
1000
0001
0100
0010
1000
0100
0010
0001
1000
0010
0100
0001
0000
0000
0000
1000
0100
0010
0001
0100
0010
0100
0001
,
1000
0001
0100
0010
0100
1000
0100
0001
,
0100
1000
0100
0001
0010
0000
1100
0000
,
0010
0001
0010
0100
1000
0100
0001
1000
,
0010
0000
0000
0000
0011
0000
0000
0000
1100
0000
0000
0010
0100
0000
0001
0000
,
0010
0000
0000
0010
0001
0000
0000
0001
0100
0000
0000
0100
1000
0000
0000
1000
,
0100
0000
0000
0100
0001
0000
0000
0001
0010
0000
0000
0010
0002
0000
0000
0000
,
1003
0000
0000
1000
0010
0000
0000
0010
0001
0000
0000
0001
0010
0000
0000
0010
,
0100
0000
0000
0100
0001
0000
0000
0001
0010
0000
0000
0010
0001
0000
0000
0000
,
1000
0100
0000
1000
0010
0000
0100
0000
0002
0000
0000
0000
2003
0000
0000
0000
,
3100
0010
0000
0100
0010
0000
0001
0000
2000
0000
0000
0000
3002
0000
0000
0000
,
1003
0100
0000
0010
0100
0000
1000
0000
0010
0000
0100
0000
0001
0000
1000
0000
,
0010
0100
0000
0001
0010
0000
0001
0000
1000
0000
0000
1000
0010
0000
0100
0000
,
0020
0000
0000
0000
0000
0000
0000
0000
0100
0000
0000
0000
0000
0000
0000
0000
1000
0000
0000
0000
0030
0000
0000
0000
1000
0010
1000
0100
0010
0001
1000
0100
,
0010
0001
1000
0100
0001
0100
1000
0100
,
0001
0000
1000
0000
0100
0000
1000
0000
0001
1000
0001
0000
0020
0000
0100
0000
,
0230
0000
1300
0000
0010
0100
0001
0000
,
1000
0000
0010
0000
0100
0000
0001
0000
0010
0100
0010
0000
0001
0000
0000
0000
,
1200
0000
0000
1000
0000
0000
1300
0000
0010
0000
0000
0100
0000
0000
0001
0000
,
0021
0000
0000
0001
0000
0000
0031
0000
0000
0000
0000
0000
0000
0000
0000
0000
,
0001
0000
0000
1000
0000
0000
0010
0000
0100
0000
0000
0001
0000
0000
0010
0000
,
0100
0000
0000
0010
0000
0000
0100
0000
1001
0000
0000
0000
0001
0000
1000
0000
,
0200
0000
0020
0300
0031
0000
1000
0000
,
0001
0010
0001
1000
0010
0100
0001
0010
0100
1000
0001
0100
0010
1000
0001
0010
0100
1000
0001
0100
0010
0000
0000
0000
1000
0000
0000
0000
0001
0000
0000
0000
,
0020
0000
1030
0000
0010
0100
1000
0000
,
0001
1000
0001
0100
0010
1000
0100
0010
0001
1000
0010
0100
0001
1000
0100
0010
0001
0100
0010
1000
0001
0000
0000
0000
1000
0000
0000
0000
0010
0000
0000
0000
,
0200
0000
0020
0300
1000
0000
1030
0000
,
0001
0010
0100
0010
0001
1000
0010
0100
0001
0010
0100
1000
0001
0100
0010
1000
0001
0010
0100
1000
0010
0000
0000
0000
1000
0000
0010
0000
0000
0000
0010
0000
,
0200
0000
0002
0300
0023
0000
0031
0000
,
1000
0010
0100
0001
1000
0001
0010
0100
1000
0010
0100
0001
1000
0100
0010
0001
1000
0010
0100
0001
0010
0000
0000
0000
0001
0000
0000
0000
0000
0000
0000
0000
,
1001
0000
0100
0001
0100
1000
0010
1000
,
0100
0000
0001
0000
0100
0000
0000
0000
1000
0000
0000
0000
0001
0000
0000
0010
,
0100
1000
0010
0000
1000
0000
0100
0000
,
0001
0000
0100
1000
0010
1000
0000
0100
,
0001
0100
0010
0000
0001
0000
1000
0000
,
0020
1000
0100
1030
,
0001
0010
0100
0000
1000
0000
0010
0000
,
1000
0000
0100
0001
0100
0000
1000
0010
,
0100
1001
0000
0000
;

//---------------dance-single - @280 ???----------------
#NOTES:
     dance-single:
     @280 ???:
     Hard:
     15:
     0.807,1.000,0.075,0.281,0.926,566.000,8.000,30.000,0.000,0.000:

0000
0000
0000
0000
,
0000
0000
0000
0000
,
0000
0000
0000
0000
,
0001
0000
0000
0000
0000
0000
0000
0000
0000
0000
0000
0000
0010
0000
0000
0000
0000
0000
0000
0000
0000
0000
0000
0000
0001
0000
0000
0000
0000
0000
0000
0000
0000
0000
0000
0000
0010
0000
0000
0000
0000
0000
0000
0000
0000
0000
0000
0000
0001
0000
0000
0000
0000
0000
0000
0000
0000
0000
0000
0000
0000
0000
0000
0000
0000
0000
0000
0000
0000
0000
0000
0000
0010
0000
0000
0000
0000
0000
0000
0000
0000
0000
0000
0000
0000
0000
0000
0000
0000
0000
0000
0000
0000
0000
0000
0000
0000
0000
0000
0000
0000
0000
0000
0000
0000
0000
0000
0000
0000
0000
0000
0000
0000
0000
0000
0000
0000
0000
0000
0000
0001
0000
0000
0000
0000
0000
0000
0000
0000
0000
0000
0000
0000
0000
0000
0000
0000
0000
0000
0000
0000
0000
0000
0000
1000
0000
0000
0000
0000
0000
0000
0010
0000
0000
0000
0000
0000
0000
0100
0000
0000
0000
0000
0000
0000
0010
0000
0000
0000
0000
0000
1000
0000
0000
0000
0000
0000
0000
0100
0000
0000
0000
0000
0000
0000
0010
0000
0000
0000
0000
0000
0000
,
0001
1000
0001
0100
0010
0001
1000
0010
,
1000
0000
0000
0000
0001
0000
0000
0000
0010
0000
0000
0010
1000
0000
0010
0000
,
0100
1000
0001
0010
0100
0001
0100
1000
,
0020
0000
1000
0000
0100
0030
1000
0010
,
0001
0000
0010
1000
0100
0000
1000
0010
,
0002
0000
0000
0000
0010
0000
0000
0000
0103
0000
0000
0010
1000
0000
0100
0000
,
0001
0100
1000
0010
1000
0100
0001
0100
,
1000
0000
0000
1000
0010
0000
1000
0000
0000
0000
0100
0000
0001
0000
0100
0000
,
0002
0103
2000
3100
,
0001
0000
0100
0000
0001
0000
0100
0000
1000
0010
0000
0010
1000
0001
0010
0100
,
0010
0001
0010
0001
0010
1000
0010
1000
,
0010
0001
0010
0001
0010
1000
0010
0100
,
1000
0001
1000
0001
1000
0100
1000
0100
,
1000
0010
1000
0100
0000
0001
0100
0000
,
1000
0010
1000
0010
0001
0010
0001
0010
,
1000
0100
1000
0100
0001
0100
0001
0100
,
1000
0100
0001
0100
1000
0010
1000
0100
,
0001
0100
1000
0010
0000
0100
0010
0000
,
1000
0010
0000
0100
0010
0000
1000
0010
0000
0100
0010
0000
1000
0000
0000
0000
,
0100
0000
0000
0000
0000
0000
0000
0000
0000
0000
0000
0000
0001
0000
0000
0000
0000
0000
0000
0000
0000
0000
0000
0000
0000
0000
0000
0000
0000
0000
0000
0000
0000
0000
0000
0000
0100
0000
0000
0000
0000
0000
0000
0000
0000
0000
0000
0000
0010
0000
0000
0000
0000
0000
0000
0000
0000
0000
0000
0000
0000
0000
0000
0000
0000
0000
0000
0000
0000
0000
0000
0000
0100
0000
0000
0000
0000
0000
0000
0000
0000
0000
0000
0000
0001
0000
0000
0000
0000
0000
0000
0000
0000
0000
0000
0000
0000
0000
0000
0000
0000
0000
0000
0000
0000
0000
0000
0000
1000
0000
0000
0000
0000
0000
0000
0000
0000
0000
0000
0000
0001
0000
0000
0000
0000
0000
0000
0000
0000
0000
0000
0000
0000
0000
0000
0000
0000
0000
0000
0000
0000
0000
0000
0000
1000
0000
0000
0000
0000
0000
0000
0010
0000
0000
0000
0000
0000
0000
0100
0000
0000
0000
0000
0000
0000
0010
0000
0000
0000
0000
0000
1000
0000
0000
0000
0000
0000
0000
0001
0000
0000
0000
0000
0000
0000
0010
0000
0000
0000
0000
0000
0000
,
0100
0000
1000
0000
0010
0100
0001
0000
,
1000
0000
0000
0000
0000
0000
0000
0001
0000
0000
0000
0000
0000
0000
0100
0000
0000
0000
0000
0000
0000
0001
0000
0000
0000
0000
0000
0010
0000
0000
0000
0000
0000
0000
0100
0000
0000
0000
0000
0000
0000
1000
0000
0000
0000
0000
0000
0000
0001
0000
0000
0000
0000
0000
0000
0100
0000
0000
0000
0000
0000
0000
0010
0000
0000
0000
0000
0000
0000
1000
0000
0000
0000
0000
0000
0001
0000
0000
0000
0000
0000
0000
0010
0000
0000
0000
0000
0000
0000
0100
0000
0000
0000
0000
0000
0000
1000
0000
0000
0000
0000
0000
0000
0010
0000
0000
0000
0000
0000
0000
0100
0000
0000
0000
0000
0000
0000
0001
0000
0000
0000
0000
0000
0000
0000
0000
0000
0000
0000
0000
0000
0000
0000
0000
0000
0000
0000
0000
0000
0000
0000
0000
0000
0000
1000
0000
0000
0000
0000
0000
0000
0000
0000
0000
0000
0000
0000
0000
0000
0000
0000
0000
0000
0000
0000
0000
0000
0000
0001
0000
0000
0000
0000
0000
0000
0000
0000
0000
0000
0000
0000
0000
0000
0000
0000
0000
0000
0000
0000
0000
0000
0000
,
2000
0000
0020
3000
0130
0001
1000
0000
,
0001
0000
0000
0000
0000
0000
0000
0010
0000
0000
0000
0000
0000
0000
0001
0000
0000
0000
0000
0000
0000
0100
0000
0000
0000
0000
0000
0010
0000
0000
0000
0000
0000
0000
1000
0000
0000
0000
0000
0000
0000
0001
0000
0000
0000
0000
0000
0000
0010
0000
0000
0000
0000
0000
0000
0100
0000
0000
0000
0000
0000
0000
1000
0000
0000
0000
0000
0000
0000
0001
0000
0000
0000
0000
0000
0100
0000
0000
0000
0000
0000
0000
0010
0000
0000
0000
0000
0000
0000
1000
0000
0000
0000
0000
0000
0000
0100
0000
0000
0000
0000
0000
0000
0010
0000
0000
0000
0000
0000
0000
0001
0000
0000
0000
0000
0000
0000
1000
0000
0000
0000
0000
0000
0000
0000
0000
0000
0000
0000
0000
0000
0000
0000
0000
0000
0000
0000
0000
0000
0000
0000
0000
0000
0000
0001
0000
0000
0000
0000
0000
0000
0000
0000
0000
0000
0000
0000
0000
0000
0000
0000
0000
0000
0000
0000
0000
0000
0000
1000
0000
0000
0000
0000
0000
0000
0000
0000
0000
0000
0000
0000
0000
0000
0000
0000
0000
0000
0000
0000
0000
0000
0000
,
0200
0000
2000
0300
0001
0001
3001
0000
,
1000
0000
0000
0000
0000
0000
0000
0001
0000
0000
0000
0000
0000
0000
1000
0000
0000
0000
0000
0000
0000
0100
0000
0000
0000
0000
0000
0010
0000
0000
0000
0000
0000
0000
0001
0000
0000
0000
0000
0000
0000
0100
0000
0000
0000
0000
0000
0000
0010
0000
0000
0000
0000
0000
0000
1000
0000
0000
0000
0000
0000
0000
0001
0000
0000
0000
0000
0000
0000
0010
0000
0000
0000
0000
0000
0100
0000
0000
0000
0000
0000
0000
1000
0000
0000
0000
0000
0000
0000
0001
0000
0000
0000
0000
0000
0000
0100
0000
0000
0000
0000
0000
0000
0010
0000
0000
0000
0000
0000
0000
1000
0000
0000
0000
0000
0000
0000
0100
0000
0000
0000
0000
0000
0000
0000
0000
0000
0000
0000
0000
0000
0000
0000
0000
0000
0000
0000
0000
0000
0000
0000
0000
0000
0000
1000
0000
0000
0000
0000
0000
0000
0000
0000
0000
0000
0000
0100
0000
0000
0000
0000
0000
0000
0000
0000
0000
0000
0000
0000
0000
0000
0000
0000
0000
0000
0000
0000
0000
0000
0000
0100
0000
0000
0000
0000
0000
0000
0000
0000
0000
0000
0000
,
2000
0000
0020
3000
0230
0000
0301
0000
,
1000
0000
0000
0000
0000
0000
0000
0001
0000
0000
0000
0000
0000
0000
0010
0000
0000
0000
0000
0000
0000
0001
0000
0000
0000
0000
0000
0100
0000
0000
0000
0000
0000
0000
0010
0000
0000
0000
0000
0000
0000
1000
0000
0000
0000
0000
0000
0000
0001
0000
0000
0000
0000
0000
0000
0010
0000
0000
0000
0000
0000
0000
0100
0000
0000
0000
0000
0000
0000
1000
0000
0000
0000
0000
0000
0001
0000
0000
0000
0000
0000
0000
0100
0000
0000
0000
0000
0000
0000
0010
0000
0000
0000
0000
0000
0000
1000
0000
0000
0000
0000
0000
0000
0001
0000
0000
0000
0000
0000
0000
0010
0000
0000
0000
0000
0000
0000
0100
0000
0000
0000
0000
0000
0000
0000
0000
0000
0000
0000
0000
0000
0000
0000
0000
0000
0000
0000
0000
0000
0000
0000
0000
0000
0000
1000
0000
0000
0000
0000
0000
0000
0010
0000
0000
0000
0000
0000
0000
1000
0000
0000
0000
0000
0000
0000
0001
0000
0000
0000
0000
0000
0100
0000
0000
0000
0000
0000
0000
0010
0000
0000
0000
0000
0000
0000
1000
0000
0000
0000
0000
0000
0000
,
0100
1000
0100
0010
0100
0001
0100
1000
,
0100
0001
0100
1000
0010
0000
0101
0000
,
0010
1000
0010
0100
0001
0100
1000
0001
,
0010
0000
0000
0000
1010
0000
0000
0000
0101
0000
0000
0010
0100
0000
1000
0000
,
0010
0000
0000
0010
1000
0000
0000
1000
0100
0000
0000
0100
0001
0000
0000
0001
,
0100
0000
0000
0100
1000
0000
0000
1000
0010
0000
0000
0010
2000
0000
0000
0000
,
3001
0000
0000
0001
0010
0000
0000
0010
1000
0000
0000
1000
0010
0000
0000
0010
,
0100
0000
0000
0100
1000
0000
0000
1000
0010
0000
0000
0010
1000
0000
0000
0000
,
0001
0100
0000
0001
0010
0000
0100
0000
2000
0000
0000
0000
3002
0000
0000
0000
,
0103
0010
0000
0100
0010
0000
1000
0000
0002
0000
0000
0000
2003
0000
0000
0000
,
3001
0100
0000
0010
0100
0000
0001
0000
0010
0000
0100
0000
1000
0000
0001
0000
,
0010
0100
0000
1000
0010
0000
1000
0000
0001
0000
0000
0001
0010
0000
0100
0000
,
0020
0000
0000
0000
0000
0000
0000
0000
0000
0000
0000
0000
0000
0000
0000
0000
0000
0000
0000
0000
0000
0000
0000
0000
0000
0000
0000
0000
0000
0000
0000
0000
0000
0000
0000
0000
0000
0000
0000
0000
0000
0000
0000
0000
0000
0000
0000
0000
0100
0000
0000
0000
0000
0000
0000
0000
0000
0000
0000
0000
0000
0000
0000
0000
0000
0000
0000
0000
0000
0000
0000
0000
0000
0000
0000
0000
0000
0000
0000
0000
0000
0000
0000
0000
0000
0000
0000
0000
0000
0000
0000
0000
0000
0000
0000
0000
0001
0000
0000
0000
0000
0000
0000
0000
0000
0000
0000
0000
0000
0000
0000
0000
0000
0000
0000
0000
0000
0000
0000
0000
0030
0000
0000
0000
0000
0000
0000
0000
0000
0000
0000
0000
0000
0000
0000
0000
0000
0000
0000
0000
0000
0000
0000
0000
0001
0000
0000
0000
0000
0000
0000
1000
0000
0000
0000
0000
0000
0000
0001
0000
0000
0000
0000
0000
0000
0010
0000
0000
0000
0000
0000
0100
0000
0000
0000
0000
0000
0000
1000
0000
0000
0000
0000
0000
0000
0010
0000
0000
0000
0000
0000
0000
,
0100
0001
1000
0100
0001
0100
1000
0100
,
0001
0000
1000
0000
0100
0000
1000
0000
0001
1000
0001
0000
0020
0000
0100
0000
,
0230
0000
1300
0000
0010
0100
0001
0000
,
1000
0000
0010
0000
0100
0000
0001
0000
0010
0100
0010
0000
0001
0000
0000
0000
,
1200
0000
0000
1000
0000
0000
1300
0000
0010
0000
0000
0100
0000
0000
0001
0000
,
0021
0000
0000
0001
0000
0000
0031
0000
0000
0000
0000
0000
0000
0000
0000
0000
,
0001
0000
0000
1000
0000
0000
0010
0000
0100
0000
0000
0001
0000
0000
0010
0000
,
0100
0000
0000
0010
0000
0000
0100
0000
1001
0000
0000
0000
0001
0000
1000
0000
,
0200
0000
0020
0300
0031
0000
1000
0000
,
0001
0000
0000
0000
0000
0000
0000
0010
0000
0000
0000
0000
0000
0000
0100
0000
0000
0000
0000
0000
0000
1000
0000
0000
0000
0000
0000
0001
0000
0000
0000
0000
0000
0000
1000
0000
0000
0000
0000
0000
0000
0010
0000
0000
0000
0000
0000
0000
0100
0000
0000
0000
0000
0000
0000
0001
0000
0000
0000
0000
0000
0000
1000
0000
0000
0000
0000
0000
0000
0100
0000
0000
0000
0000
0000
0010
0000
0000
0000
0000
0000
0000
0001
0000
0000
0000
0000
0000
0000
1000
0000
0000
0000
0000
0000
0000
0010
0000
0000
0000
0000
0000
0000
0100
0000
0000
0000
0000
0000
0000
0001
0000
0000
0000
0000
0000
0000
1000
0000
0000
0000
0000
0000
0000
0000
0000
0000
0000
0000
0000
0000
0000
0000
0000
0000
0000
0000
0000
0000
0000
0000
0000
0000
0000
0001
0000
0000
0000
0000
0000
0000
0000
0000
0000
0000
0000
0000
0000
0000
0000
0000
0000
0000
0000
0000
0000
0000
0000
1000
0000
0000
0000
0000
0000
0000
0000
0000
0000
0000
0000
0000
0000
0000
0000
0000
0000
0000
0000
0000
0000
0000
0000
,
0020
0000
1030
0000
0010
0100
0001
0000
,
1000
0000
0000
0000
0000
0000
0000
0001
0000
0000
0000
0000
0000
0000
0010
0000
0000
0000
0000
0000
0000
0001
0000
0000
0000
0000
0000
0100
0000
0000
0000
0000
0000
0000
0010
0000
0000
0000
0000
0000
0000
1000
0000
0000
0000
0000
0000
0000
0001
0000
0000
0000
0000
0000
0000
0010
0000
0000
0000
0000
0000
0000
0100
0000
0000
0000
0000
0000
0000
1000
0000
0000
0000
0000
0000
0001
0000
0000
0000
0000
0000
0000
0100
0000
0000
0000
0000
0000
0000
0010
0000
0000
0000
0000
0000
0000
1000
0000
0000
0000
0000
0000
0000
0100
0000
0000
0000
0000
0000
0000
0010
0000
0000
0000
0000
0000
0000
0001
0000
0000
0000
0000
0000
0000
0000
0000
0000
0000
0000
0000
0000
0000
0000
0000
0000
0000
0000
0000
0000
0000
0000
0000
0000
0000
1000
0000
0000
0000
0000
0000
0000
0000
0000
0000
0000
0000
0000
0000
0000
0000
0000
0000
0000
0000
0000
0000
0000
0000
0010
0000
0000
0000
0000
0000
0000
0000
0000
0000
0000
0000
0000
0000
0000
0000
0000
0000
0000
0000
0000
0000
0000
0000
,
0200
0000
0020
0300
1000
0000
1030
0000
,
0001
0000
0000
0000
0000
0000
0000
0100
0000
0000
0000
0000
0000
0000
0001
0000
0000
0000
0000
0000
0000
0010
0000
0000
0000
0000
0000
0100
0000
0000
0000
0000
0000
0000
1000
0000
0000
0000
0000
0000
0000
0001
0000
0000
0000
0000
0000
0000
0100
0000
0000
0000
0000
0000
0000
0010
0000
0000
0000
0000
0000
0000
1000
0000
0000
0000
0000
0000
0000
0001
0000
0000
0000
0000
0000
0010
0000
0000
0000
0000
0000
0000
0100
0000
0000
0000
0000
0000
0000
1000
0000
0000
0000
0000
0000
0000
0001
0000
0000
0000
0000
0000
0000
0100
0000
0000
0000
0000
0000
0000
0010
0000
0000
0000
0000
0000
0000
1000
0000
0000
0000
0000
0000
0000
0000
0000
0000
0000
0000
0000
0000
0000
0000
0000
0000
0000
0000
0000
0000
0000
0000
0000
0000
0000
0001
0000
0000
0000
0000
0000
0000
0000
0000
0000
0000
0000
0010
0000
0000
0000
0000
0000
0000
0000
0000
0000
0000
0000
0000
0000
0000
0000
0000
0000
0000
0000
0000
0000
0000
0000
0010
0000
0000
0000
0000
0000
0000
0000
0000
0000
0000
0000
,
0200
0000
2000
0300
3020
0000
0130
0000
,
0001
0000
0000
0000
0000
0000
0000
0010
0000
0000
0000
0000
0000
0000
0001
0000
0000
0000
0000
0000
0000
1000
0000
0000
0000
0000
0000
0100
0000
0000
0000
0000
0000
0000
0010
0000
0000
0000
0000
0000
0000
0001
0000
0000
0000
0000
0000
0000
0100
0000
0000
0000
0000
0000
0000
0010
0000
0000
0000
0000
0000
0000
1000
0000
0000
0000
0000
0000
0000
0001
0000
0000
0000
0000
0000
0010
0000
0000
0000
0000
0000
0000
0100
0000
0000
0000
0000
0000
0000
1000
0000
0000
0000
0000
0000
0000
0001
0000
0000
0000
0000
0000
0000
0100
0000
0000
0000
0000
0000
0000
0010
0000
0000
0000
0000
0000
0000
1000
0000
0000
0000
0000
0000
0000
0000
0000
0000
0000
0000
0000
0000
0000
0000
0000
0000
0000
0000
0000
0000
0000
0000
0000
0000
0000
0001
0000
0000
0000
0000
0000
0000
0000
0000
0000
0000
0000
0000
0000
0000
0000
0000
0000
0000
0000
0000
0000
0000
0000
0000
0000
0000
0000
0000
0000
0000
0000
0000
0000
0000
0000
0000
0000
0000
0000
0000
0000
0000
0000
0000
0000
0000
0000
,
1001
0000
0100
0001
0100
1000
0010
1000
,
0100
0000
0001
0000
0100
0000
0000
0000
1000
0000
0000
0000
0001
0000
0000
0010
,
0100
1000
0010
0000
1000
0000
0100
0000
,
0001
0000
0100
1000
0010
1000
0000
0100
,
0001
0100
0010
0000
0001
0000
1000
0000
,
0020
1000
0100
1030
,
0001
0010
0100
0000
1000
0000
0010
0000
,
1000
0000
0100
0001
0100
0000
1000
0010
,
0100
1001
0000
0000
;
