#TITLE:Jausmas Kai Zudai;
#SUBTITLE:;
#ARTIST:m1dlet;
#TITLETRANSLIT:;
#SUBTITLETRANSLIT:;
#ARTISTTRANSLIT:;
#CREDIT:Tyler;
#BANNER:jkz bn.png;
#BACKGROUND:jkz bg.png;
#LYRICSPATH:;
#CDTITLE:;
#MUSIC:Jausmas Kai Zudai.ogg;
#OFFSET:-0.826;
#SAMPLESTART:29.906;
#SAMPLELENGTH:12.000;
#SELECTABLE:YES;
#DISPLAYBPM:225.000;
#BPMS:0.000=225.000;
#STOPS:;
#BGCHANGES:;
// cache tags:
#FIRSTBEAT:12.000;
#LASTBEAT:481.000;
#SONGFILENAME:Songs/SPEEEDCOOOORE 2/Jausmas Kai Zudai - [Tyler]/Jausmas.sm;
#HASMUSIC:1;
#HASBANNER:1;
#MUSICLENGTH:129.922;
// end cache tags

//---------------dance-single - T. Moore----------------
#NOTES:
     dance-single:
     T. Moore:
     Challenge:
     16:
     1.000,1.000,0.500,0.031,1.000,1093.000,65.000,4.000,96.000,0.000:



0000
0000
0000
0000
,
0000
0000
0000
0000
,
0000
0000
0000
0000
,
1001
0000
0000
1001
0000
0000
1001
0000
,
0110
0000
0000
0000
,
0000
0000
0000
0000
,
0000
0000
0000
0000
,
1010
0000
0000
0000
0000
0000
1001
0000
0000
0000
0000
0000
1100
0000
0100
0010
,
0001
0001
1000
1000
,
0010
0000
0010
0000
0100
0000
0100
0100
,
0001
0001
1000
1000
,
1100
0000
0000
0011
0000
0000
1001
0000
,
0101
0100
0010
0010
,
1000
0000
1000
0000
0001
0000
0001
0001
,
0011
0010
0100
0100
,
1100
0000
0000
0011
0000
0000
1001
0000
,
1010
0010
0100
0100
,
0001
0000
0001
0000
1000
0000
1000
1000
,
01M0
0100
0010
0010
,
0011
0000
0000
0000
0000
0000
1010
0000
0000
0000
0000
0000
0101
0000
0001
1000
,
0100
0100
0010
0010
,
0001
0000
0001
0000
1000
0000
1000
1000
,
0100
M00M
0100
0000
0001
0000
1000
0000
0100
M00M
0100
0000
0001
0000
1000
0000
,
0100
M00M
0100
0000
0001
0000
1000
0000
0100
1000
0100
1000
0100
1000
0100
1000
,
00M1
0000
0000
0000
0000
0000
0000
0000
0000
0000
0000
0000
0000
0000
0000
0000
0000
0000
0000
0000
0000
0000
0000
0000
M000
0000
0000
00M0
0000
0000
0M00
0000
000M
0000
0M00
0000
00M0
0000
M000
0000
0M00
0000
000M
0000
0000
0000
00M0
0000
,
0000
0M00
0000
0000
M000
00M0
0000
000M
00M0
000M
M0M0
0M00
000M
0M00
00M0
0000
0M00
0000
000M
0000
0000
0M00
0000
M000
,
00M0
0000
0M00
000M
0000
0000
0M00
00M0
M000
0000
000M
M000
0000
0M00
0000
00M0
0000
0M00
0000
00M0
000M
0000
0000
0000
,
0000
0000
0000
0000
0000
0000
0000
0000
0MM0
M00M
M000
M000
M0MM
M00M
M00M
0MM0
0000
0000
0000
0MM0
M00M
M00M
M00M
M00M
M00M
M00M
0MM0
0000
0000
0000
0000
0000
,
1001
0001
0010
0100
1000
0010
0100
0001
,
0010
0000
0001
0000
0100
0000
0010
0000
1000
0000
0100
0000
0010
0001
0010
0001
,
1000
0001
0010
0100
1000
0010
0100
0001
,
0010
0001
0010
0000
0001
1000
0001
0000
0100
0001
0100
0000
0010
1000
0010
0000
,
0110
0100
0001
1000
0100
0010
0100
1000
,
0010
0000
0000
0000
0000
0000
0100
0000
0000
0000
0000
0000
0001
0000
0000
0000
0000
0000
0010
0000
0000
0000
0000
0000
0001
0000
0000
0000
0000
0000
0100
0000
0000
0000
0000
0000
0010
0000
0000
1000
0000
0000
0001
0000
1000
0000
0001
0000
,
1000
0010
0100
0001
0010
0100
0010
0001
,
0100
0010
1000
0100
0010
0000
0101
0000
,
1001
1000
0100
0010
0001
0100
0001
0010
,
0100
0000
1000
0000
0010
0000
0100
0000
0010
0000
1000
0000
0001
1000
0001
1000
,
0100
0010
0001
1000
0010
0100
0001
0010
,
0100
0010
0100
0000
1000
0100
1000
0000
0001
1000
0001
0000
0100
0001
0100
0000
,
0110
0010
1000
0010
0100
0001
0010
0100
,
1000
0000
0000
0000
0000
0000
0100
0000
0000
0000
0000
0000
0010
0000
0000
0000
0000
0000
0001
0000
0000
0000
0000
0000
1000
0000
0000
0000
0000
0000
0010
0000
0000
0000
0000
0000
0100
0000
0000
0010
0000
0000
1000
0000
0001
0000
1000
0000
,
0001
1000
0100
1000
0001
0100
0001
0010
,
0100
0000
0000
0000
,
1001
0001
0010
0100
0100
1000
0001
0001
,
0100
0010
0010
1000
0010
0010
0100
0100
,
0101
0000
0001
0000
1000
0000
0100
0000
0010
M00M
0010
0000
1000
0000
0100
0000
,
0010
M00M
0010
0000
1000
0000
0100
0000
0010
M00M
0010
0000
1000
0000
0100
0000
,
0010
0001
0010
0100
1000
0001
0010
0100
1000
0001
0100
0010
1000
0001
1000
0100
,
0010
0001
1000
0001
0100
0010
1000
0010
0100
0001
1000
0100
1000
0001
0010
0001
,
0100
0010
0100
0010
1000
0001
0100
0001
1000
0100
0010
0001
0010
0001
1000
0001
,
0100
0010
1000
0010
0100
0001
0100
0010
1000
0000
0001
0000
0010
0000
0001
0000
,
1000
0010
1000
0010
0100
0001
1000
0010
0100
0010
1000
0001
0100
0010
1000
0001
,
1000
0100
0010
0001
1000
0100
0010
0001
1000
0100
1000
0010
0100
0010
1000
0001
,
1000
0001
0010
0100
1000
0100
0010
0001
1000
0001
0010
0100
1000
0100
0010
0001
,
1000
0001
1000
0010
0100
0010
1000
0010
0100
0000
0001
0000
1000
0000
0001
0000
,
1000
0100
0010
0001
1000
0001
0010
0100
1000
0001
0100
0010
0100
0010
1000
0001
,
0100
0010
1000
0001
0100
0010
0100
0001
0100
0010
1000
0001
0100
0010
0100
0001
,
0010
0100
1000
0100
0010
0001
1000
0100
0010
0100
1000
0100
0010
0001
1000
0001
,
1000
0010
0100
0010
1000
0001
0100
0010
1000
0000
0001
0000
1000
0000
0001
0000
,
1000
0100
0010
0001
1000
0001
0010
0100
1000
0001
0100
0001
1000
0010
0100
0001
,
0010
0001
1000
0010
0100
0001
1000
0001
0100
0010
1000
0001
0010
0100
0010
0100
,
0010
0001
1000
0001
0100
0001
1000
0010
0100
0001
1000
0010
0100
0001
1000
0100
,
0010
0001
0010
0100
1000
0100
0010
0001
1000
0000
0001
0000
0100
0000
0001
0000
,
1000
0100
0010
0001
1000
0001
0100
0010
0100
0010
1000
0001
1000
0001
0100
0010
,
0100
0001
1000
0100
0010
0001
1000
0010
1000
0001
0010
0001
1000
0100
0010
0001
,
0100
0010
1000
0001
0100
0010
1000
0001
1000
0100
0010
0001
0010
0100
1000
0001
,
0100
0010
1000
0010
0100
0001
1000
0001
1000
0000
0001
0000
0010
0000
0001
0000
,
1000
0010
0100
0001
1000
0100
0010
0001
0010
0100
1000
0001
1000
0001
0100
0001
,
0100
0010
1000
0010
1000
0001
0010
0100
1000
0001
0010
0001
1000
0010
0100
0010
,
1000
0001
0100
0001
1000
0100
0010
0001
0010
0100
1000
0001
0010
0100
0010
0100
,
200M
3000
0001
0000
0100
0000
0010
0000
1000
0000
1000
0000
0100
0000
0100
0000
,
001M
0000
0100
0000
1000
0000
0001
0100
0001
0100
0010
0000
1000
0000
0001
0100
,
0001
0000
1000
0000
0001
0000
0010
0100
0010
0100
1000
0000
0100
0000
1000
0001
,
1000
0000
0001
0000
0100
0000
0100
0000
0001
0100
0001
0000
1000
0000
0100
0010
,
0001
0000
1000
0000
0010
0000
0100
0001
0100
0001
1000
0000
0001
0000
0010
0000
,
0110
0000
0100
0000
1000
0000
0001
0100
0001
0100
0010
0000
1000
0000
0001
1000
,
0001
0000
1000
0100
0010
0000
0001
0010
0100
0000
1000
0000
1000
0000
0001
1000
,
0001
0000
0100
0000
0010
0000
0010
0100
0001
1000
0001
0000
1000
0000
0100
0000
,
1000
0000
0001
0010
0100
0000
1000
0001
1000
0001
0100
0000
0001
1000
0001
1000
,
0010
1010
0101
1001
,
0110
0011
1100
1001
,
0110
0101
1001
0101
,
1010
0011
1100
1001
,
011M
1010
0011
1100
,
M101
0110
1001
0110
,
11M0
0110
0011
1100
,
M110
0000
0000
0000
2001
0000
0000
0000
3010
0000
1000
0000
0001
1000
0001
1000
,
0001
0010
0100
0100
1000
1000
0001
0001
,
0100
0000
0100
0000
0010
0000
0010
0000
1000
0000
1000
0000
0001
1000
0001
1000
,
0100
0000
0100
0000
0010
0000
0010
0000
0001
0000
0001
0000
1000
0001
1000
0001
,
0100
0000
0000
0000
0000
0000
0100
0000
0000
0000
0000
0000
0010
0000
0000
0000
0000
0000
0010
0000
0000
0000
0000
0000
1000
0000
0000
0000
0000
0000
1000
0000
0000
0000
0000
0000
0001
0000
0000
1000
0000
0000
0001
0000
0010
0000
0001
0000
,
0010
0100
1000
1000
0001
0001
0100
0100
,
0010
0000
0000
0000
0000
0000
0010
0000
0000
0000
0000
0000
1000
0000
0000
0000
0000
0000
1000
0000
0000
0000
0000
0000
0100
0000
0000
0000
0000
0000
0100
0000
0000
0000
0000
0000
0010
0000
0000
0001
0000
0000
1000
0000
0001
0000
1000
0000
,
0001
0100
0010
0010
1000
1000
0001
0001
,
0010
0010
0100
0100
1000
0000
1010
0000
,
M101
0001
1000
1000
0100
0100
0010
0010
,
0001
0000
0001
0000
1000
0000
1000
0000
0001
0000
0001
0000
0010
0001
0010
0100
,
1000
1000
0010
0010
0100
0100
0001
0001
,
0010
0100
1000
0000
0001
1000
0001
0000
1000
0010
1000
0000
0100
1000
0100
0000
,
M110
0010
0001
0001
1000
1000
0010
0010
,
0100
0000
0000
0000
0000
0000
0100
0000
0000
0000
0000
0000
0001
0000
0000
0000
0000
0000
0001
0000
0000
0000
0000
0000
0010
0000
0000
0000
0000
0000
0010
0000
0000
0000
0000
0000
0100
0000
0000
1000
0000
0000
0001
0000
1000
0000
0001
0000
,
1000
0010
0100
0100
0001
0001
1000
1000
,
0MM0
0000
0000
0000
,
0001
0100
0010
1000
0001
1000
0001
0100
0010
1000
0001
0100
0010
1000
0001
0100
,
0010
1000
0001
0010
0100
1000
0100
0010
0001
1000
0001
1000
0010
0100
0010
1000
,
0100
0010
0001
1000
0100
0010
0001
1000
0010
0100
0010
1000
0001
0100
0010
1000
,
0010
0100
0001
1000
0100
0010
0001
0010
0001
0000
1000
0000
0001
0000
1000
0000
,
0001
0010
0100
1000
0001
1000
0001
0010
0100
1000
0001
1000
0100
0010
0001
1000
,
0010
0100
0001
0100
0010
0100
0001
1000
0010
0100
0001
1000
0010
0100
0001
1000
,
0001
0010
0100
1000
0001
1000
0100
0010
0001
1000
0010
0100
0001
0100
0010
1000
,
0100
0010
0001
0010
0100
1000
0001
1000
0001
0000
0100
0000
0010
0000
1000
0000
,
0001
1000
0010
0100
0001
1000
0010
0100
0001
0100
0010
1000
0010
0100
0001
1000
,
0100
1000
0100
0010
0001
0010
0100
1000
0001
1000
0001
0100
0010
0100
0010
1000
,
0100
0010
0001
0010
0100
1000
0001
1000
0001
0100
0010
0100
0001
1000
0100
0010
,
010M
1000
0100
0010
0001
1000
0100
1000
0001
0000
1000
0000
0001
0000
1000
0000
,
0001
0010
0001
1000
0100
0010
0001
0100
0010
1000
0100
1000
0010
0100
0001
0010
,
0100
0010
0001
0100
0010
1000
0100
1000
0010
0100
0001
0010
0100
1000
0100
1000
,
0001
0000
0000
0000
,
1001
0000
0000
0000
1010
0110
0101
1001
,
22M0
3300
0000
0000
;
