#TITLE:Scythe of 13;
#SUBTITLE:;
#ARTIST:ASK;
#TITLETRANSLIT:;
#SUBTITLETRANSLIT:;
#ARTISTTRANSLIT:;
#CREDIT:;
#BANNER:scytheof13.png;
#BACKGROUND:scytheof13-bg.png;
#LYRICSPATH:;
#CDTITLE:!danceguyTitle.png;
#MUSIC:Scythe of 13.mp3;
#OFFSET:-0.033;
#SAMPLESTART:31.562;
#SAMPLELENGTH:12.000;
#SELECTABLE:YES;
#BPMS:0.000=190.000,232.000=379.998,236.000=190.000,456.000=95.000,458.000=190.000;
#STOPS:232.000=0.160
,233.000=0.155
,234.000=0.080
,234.500=0.080
,235.000=0.040
,235.250=0.040
,235.500=0.040
,235.750=0.040
;
#BGCHANGES:;
// cache tags:
#FIRSTBEAT:4.000;
#LASTBEAT:782.000;
#SONGFILENAME:Songs/Fresh Flock of Fantastic Files F4/(DAnceguy117) Scythe of 13/Scythe of 13.sm;
#HASMUSIC:1;
#HASBANNER:1;
#MUSICLENGTH:271.054;
// end cache tags

//---------------dance-single - heavy----------------
#NOTES:
     dance-single:
     heavy:
     Hard:
     12:
     1.000,1.000,1.000,0.007,0.671,1697.000,552.000,2.000,0.000,0.000:
0000
0000
0000
0000
,
0011
0001
1000
0010
,
0100
0001
0010
0100
,
1001
0010
0100
0001
,
1010
0001
0100
0010
,
1100
0100
1000
0001
,
0101
0001
1000
0100
,
1001
0100
1000
0001
,
0010
0001
1000
0010
,
1100
0000
0001
1000
0110
0000
0010
0100
,
0000
0100
0001
0000
0011
0100
0010
0000
,
1001
0001
1000
0010
,
0100
0001
1000
0100
,
1000
0000
0100
1000
0011
0000
0010
1000
,
0000
1001
0100
0000
0110
0001
0010
0000
,
0001
0100
0001
1000
0010
0100
0010
1000
,
0001
0010
0100
1000
0010
1000
0001
0100
,
1001
0000
0001
0100
1010
0000
0010
0100
,
0000
1100
0010
0000
0110
1000
0001
0000
,
1000
0000
0001
1000
0101
0000
0010
0001
,
0000
0011
0100
0000
1010
0001
0010
0000
,
0100
0000
0001
1000
0101
0000
0010
0001
,
0000
1100
0001
0000
1010
0100
0010
0000
,
0001
0000
1000
0001
0110
0000
0010
0100
,
0000
1100
0010
0000
1001
0001
0100
0000
,
0011
1000
0010
0100
,
0001
1000
0100
0010
,
1001
0010
0100
0001
,
1010
0001
0010
0100
,
1000
0100
1000
0100
1000
0100
1000
0100
0010
0001
0010
0001
0010
0001
0010
0001
,
1000
0001
1000
0001
1000
0001
1000
0001
0100
0010
0100
0010
0100
0010
0100
0010
,
1000
0100
0010
0001
0100
0010
1000
0001
0010
0100
1000
0001
0100
0010
1000
0100
,
0010
0001
1000
0010
0100
0001
1000
0100
0010
0001
1000
0010
0100
0001
0010
0100
,
1001
0000
0000
0000
,
0000
0000
0000
0000
,
1001
1001
1001
0101
0101
0101
0101
0101
,
0101
0011
0011
0011
0101
0101
1001
0000
,
0100
0010
0100
0010
0100
0010
0100
0010
,
1000
0001
1000
0001
1000
0001
1000
0010
,
1001
1001
1001
0101
0101
0101
0101
0101
,
0101
0011
0011
0011
0101
0101
1001
0000
,
0001
1000
0001
1000
0001
1000
0100
1000
,
0010
1000
0010
1000
0001
0100
0001
0010
,
1001
0100
1000
0000
1001
0000
0101
0000
0101
0010
1000
0000
0101
0000
0101
0000
,
0101
1000
0010
0000
0011
0000
0011
0000
0101
1000
0001
0000
1001
0000
0000
0000
,
0100
1000
0001
0000
0100
0000
0001
0000
0100
0010
1000
0000
0100
0000
1000
0000
,
0010
1000
0001
0000
0010
0000
0001
0000
1000
0001
0100
0000
0010
0000
0100
0000
,
1001
0100
1000
0000
1001
0000
0101
0000
0101
1000
0010
0000
0101
0000
0101
0000
,
0101
0010
1000
0000
0011
0000
0011
0000
0101
1000
0001
0000
1001
0000
0000
0000
,
0100
1000
0100
1000
0100
1000
0100
1000
0001
0010
0001
0010
0001
0010
0001
0010
,
0001
1000
0010
0100
0001
0010
0100
1000
0010
0100
0001
0010
0100
1000
0001
0100
,
1001
0100
0010
0000
0011
0000
1001
0000
0101
1000
0001
0000
1100
0000
0011
0000
,
1001
0010
0100
0000
1010
0000
0011
0000
1100
0010
0001
0000
1001
0000
0000
0000
,
1001
0010
0100
0000
1010
0000
0101
0000
0011
0100
1000
0000
1001
0000
0110
0000
,
0101
1000
0010
0000
0110
0000
1010
0000
0110
1000
0001
0000
1001
0000
0000
0000
,
1010
0100
1000
0000
1001
0000
0110
0000
0101
0010
0100
0000
1010
0000
1100
0000
,
1010
0001
1000
0000
0110
0000
1010
0000
0101
1000
0100
0000
1001
0000
0000
0000
,
0011
1000
0001
0000
1100
0000
1010
0000
1001
0100
0001
0000
0101
0000
0011
0000
,
1001
0000
0000
0000
0110
0000
0000
0000
1001
0000
0100
0000
1001
0100
0010
0001
,
1001
0010
0100
0000
0011
0000
1010
0000
0110
0001
0100
0000
0011
0000
1010
0000
,
0101
0010
0001
0000
0011
0000
1010
0000
1001
0100
0010
0000
0110
0000
0000
0000
,
0011
1000
0100
0000
0110
0000
0101
0000
1010
0100
0010
0000
1001
0000
0110
0000
,
0101
0010
1000
0000
1010
0000
1001
0000
1100
0010
0100
0000
1001
0000
0000
0000
,
1001
0010
0100
0000
0110
0000
1100
0000
1010
0001
0010
0000
0011
0000
0110
0000
,
0101
1000
0001
0000
0011
0000
1010
0000
1100
0001
0100
0000
1001
0000
0000
0000
,
1001
0010
0100
0000
0110
0000
1010
0000
0101
1000
0001
0000
0011
0000
0101
0000
,
0001
1000
0001
1000
0010
0100
0010
0100
0001
1000
0100
0010
0100
1000
0001
0010
,
1100
0001
1100
0001
1100
0001
1100
0001
,
1100
0001
1100
0001
1100
0001
1100
0010
,
1100
0001
1100
0001
1100
0001
1100
0001
,
1100
0001
1100
0001
1100
0001
1100
0000
,
1100
0001
1100
0001
1100
0001
1100
0001
,
1100
0001
1100
0001
1100
0001
1100
0010
,
1100
0001
1100
0001
1100
0001
1100
0001
,
1100
0001
1100
0001
1100
0001
1100
1000
,
1100
0001
1100
0001
1100
0001
1100
0001
,
1100
0001
1100
0001
1100
0001
1100
0010
,
1100
0001
1100
0001
1100
0001
1100
0001
,
1100
0001
1100
0001
1100
0001
1100
0000
,
1100
0001
1100
0001
1100
0001
1100
0001
,
1100
0001
1100
0001
1100
0001
1100
0010
,
1000
0001
1000
0001
0100
0010
0100
0010
,
1000
0001
1000
0001
0100
0010
0100
0010
1000
0100
0010
0001
1000
0010
0100
0001
,
0010
0000
0000
0100
0000
0000
1000
0000
0010
0100
0000
0001
0000
0000
0010
0000
,
0100
1000
0000
0001
0000
0000
0100
0000
0010
1000
0010
1000
0001
0010
0001
0010
,
0100
0000
0000
1000
0000
0000
0001
0000
0100
0010
0000
1000
0000
0000
0001
0000
,
0010
0001
0000
1000
0000
0000
0010
0000
0100
0001
0100
0001
1000
0010
1000
0010
,
1000
0000
0000
0001
0000
0000
0010
0000
0100
1000
0000
0001
0000
0000
1000
0000
,
0001
0100
0000
0010
0000
0000
1000
0000
0001
1000
0001
1000
0001
0010
0001
0010
,
0100
0000
0000
1000
0000
0000
0010
0000
0100
0001
0000
0010
0000
0000
0001
0000
,
0010
0100
0000
1000
0000
0000
0001
0000
0100
0010
0100
0010
1000
0001
1000
0001
,
0010
0000
0000
0001
0000
0000
1000
0000
0010
0100
0001
0000
0010
0000
0100
0000
,
1000
0010
1000
0000
0010
0000
0100
0000
0001
0100
0001
1000
0010
0100
0010
1000
,
0001
0000
0000
0010
0000
0000
0100
0000
1000
0001
0100
0000
0010
0000
1000
0000
,
0001
0010
0100
0000
1000
0000
0001
0000
0100
0010
1000
0010
1000
0001
1000
0100
,
0010
0000
0000
0001
0000
0000
1000
0000
0010
0100
0001
0000
0100
0000
0010
0000
,
1000
0001
0010
0000
0100
0000
1000
0000
0001
0010
0001
1000
0100
1000
0100
0010
,
1001
0000
0000
0110
1001
0000
0000
0110
,
0010
1000
0001
0010
0100
1000
0001
0100
0010
1000
0100
0010
0001
0100
0010
1000
,
0011
1000
1010
1000
0110
1000
1001
1000
,
0101
1000
1100
1000
0101
1000
1001
1000
,
0110
0100
1001
0100
0101
0100
0110
0100
,
1001
0100
0101
0100
1001
0100
1100
0100
,
0011
1000
1010
1000
0110
1000
1001
1000
,
0101
1000
1100
1000
0101
1000
1001
1000
,
0110
0100
1001
0100
0101
0100
0110
0100
,
1001
0100
0101
0100
1001
0100
1100
0100
,
0012
1003
1010
1000
0110
1000
1001
1000
,
0101
1000
1100
1000
0101
1000
1001
1000
,
0011
1000
1010
1000
0110
1000
1001
1000
,
0101
1000
1100
1000
0101
1000
1001
1000
,
0011
1000
0001
1000
0010
1000
0010
1000
0010
0100
0010
0100
0001
0100
0001
0100
,
0001
1000
0001
1000
0010
1000
0010
1000
0010
0100
0010
0100
0001
0100
0001
0100
,
0001
1000
0010
0100
0001
0010
0100
1000
0001
0100
0010
1000
0100
0010
0001
1000
,
0010
0000
1000
0000
0001
0000
0100
0000
0011
1000
0010
0000
0110
0000
0100
0000
,
0101
1000
0001
0000
0011
0000
0100
0000
1010
0100
0010
0000
0011
0000
1000
0000
,
0110
1000
0001
0000
0101
0000
0010
0000
1001
0010
1000
0000
0101
0000
0001
0000
,
0011
1000
0100
0000
1010
0000
0010
0000
0110
1000
0100
0000
1100
0000
0010
0000
,
0101
1000
0001
0000
0011
0000
1000
0000
1100
0010
0100
0000
0101
0000
0010
0000
,
0110
0001
0010
0000
0011
0000
1000
0000
1100
0010
0100
0000
0110
0000
0001
0000
,
0011
0100
0010
0000
1010
0000
1000
0000
1001
0010
0100
0000
0101
0000
0010
0000
,
1010
0100
1000
0000
1100
0000
0010
0000
0011
0100
0001
0000
1010
0000
0100
0000
,
1001
0000
1001
0000
0010
1000
0001
0100
1001
0100
0010
0000
1010
0000
0001
0000
,
0011
0100
1000
0000
0101
0000
0010
0000
1010
0001
0100
0000
1001
0000
1000
0000
,
0101
1000
0010
0000
0110
0000
1000
0000
1001
0010
1000
0000
0110
0000
0100
0000
,
1100
0010
1000
0000
1010
0000
0100
0000
0011
1000
0010
0000
1001
0000
1000
0000
,
0101
1000
0100
0000
1001
0000
0001
0000
0110
0001
1000
0000
1100
0000
0001
0000
,
0101
0010
1000
0000
1010
0000
0001
0000
1001
0100
0010
0000
1100
0000
0001
0000
,
1010
0001
1000
0000
0110
0000
0001
0000
1001
0000
0101
0000
1001
0000
1010
0000
,
0011
0000
1010
0000
0011
0000
0110
0000
0001
0010
0100
1000
0001
0100
0010
1000
,
0010
0100
0001
1000
0100
0010
0001
1000
0001
0000
0001
0000
0001
0000
0001
0000
,
0001
0000
0001
0000
1000
0000
0001
0000
0011
0100
1000
0000
1010
0000
0001
0000
,
1100
0010
1000
0000
0101
0000
1000
0000
0010
0000
0010
0000
0010
0000
0010
0000
,
0010
0000
0010
0000
0100
0000
0010
0000
1001
0010
0100
0000
0110
0000
0001
0000
,
0101
1000
0010
0000
1010
0000
1000
0000
0100
0000
0100
0000
0100
0000
0100
0000
,
0100
0000
0100
0000
1000
0000
0100
0000
0101
1000
0001
0000
0110
0000
1000
0000
,
1010
0001
1000
0000
1001
0000
0010
0000
1000
0000
1000
0000
1000
0000
1000
0000
,
1000
0000
1000
0000
0001
0000
1000
0000
0011
0100
1000
0000
1001
0000
0100
0000
,
1010
0100
0001
0000
0110
0000
0100
0000
1001
0000
1000
0000
1000
0000
1000
0000
,
1001
1000
0100
1000
1001
0001
0001
0001
,
1001
0001
0010
0001
1001
1000
1000
1000
,
1001
1000
0100
1000
1001
0001
0001
0001
,
1001
0001
0010
0001
1001
1000
1010
1000
,
1001
1000
1100
1000
1001
1000
1010
1000
,
1001
1000
1100
1000
1001
0101
1001
0101
,
1001
0000
1100
0000
1001
0000
1100
0000
0001
0010
0100
1000
0100
0010
0001
1000
,
0010
0100
0001
0010
0100
1000
0001
0100
1010
0001
1000
0000
1010
0000
1100
0000
,
0101
0010
0100
0000
0011
0000
1100
0000
0110
0001
1000
0000
1010
0000
0101
0000
,
1001
0010
0100
0000
1001
0000
0000
0000
1010
0100
1000
0000
1001
0000
1100
0000
,
0011
0100
0001
0000
0011
0000
0101
0000
1100
0001
0010
0000
1010
0000
0101
0000
,
0110
1000
0100
0000
0011
0000
0000
0000
0101
0010
1000
0000
1010
0000
0011
0000
,
0101
1000
0100
0000
1010
0000
0101
0000
1001
0100
0010
0000
0011
0000
1010
0000
,
0110
0001
1000
0000
1001
0000
0000
0000
0101
0010
0100
0000
0011
0000
1010
0000
,
1001
0100
1000
0000
0011
0000
1100
0000
1001
0100
1000
0000
1010
0000
0001
0000
,
1001
0000
0101
0000
0001
0010
0100
1000
0110
1000
0100
0000
0110
0000
0011
0000
,
1001
0100
0001
0000
0101
0000
1100
0000
1010
0100
0010
0000
0110
0000
0011
0000
,
0101
0010
0100
0000
1001
0000
0000
0000
0101
1000
0010
0000
1010
0000
1100
0000
,
0110
0001
1000
0000
0101
0000
0011
0000
1001
0010
0100
0000
1100
0000
0011
0000
,
1010
0001
0100
0000
1001
0000
0000
0000
1001
0000
1001
0000
1001
0000
0101
0000
,
0101
0101
0101
0101
0101
0011
0011
0011
,
0101
0101
1001
0000
1001
1001
1001
0101
,
0101
0000
0101
0000
0101
0000
0101
0000
0001
0010
0100
1000
0010
0100
0001
0010
,
0100
1000
0001
0100
0010
1000
0100
0010
1001
0000
0000
0000
0000
0000
1001
0000
,
0000
0000
1001
0000
0000
0101
0000
0000
,
0110
0000
1010
0000
1001
0000
0000
1001
,
0000
0000
1001
0000
0000
1100
0000
0000
,
0011
0000
0101
0000
1001
0000
0000
1001
,
0000
0000
1001
0000
0000
0101
0000
0000
,
0110
0000
1010
0000
1001
0000
0000
1001
,
0000
0000
1001
0000
0000
1100
0000
0000
,
1010
0000
0110
0000
1001
1001
1001
0101
,
0101
0101
0101
0101
0101
0011
0011
0011
,
0101
0101
1001
0000
1001
1001
1001
1100
,
1100
1100
1100
1100
1100
1010
1010
1010
,
1100
1100
1001
0000
1001
1001
1001
0101
,
0101
0101
0101
0101
0101
0011
0011
0011
,
0101
0101
1001
0000
0011
0101
0011
0101
,
1010
0000
1100
0000
1010
0000
1100
0000
1000
0001
0100
0010
1000
0100
0010
0001
,
1000
0010
0100
0010
0100
0001
0010
0100
1000
0100
1000
0100
0010
0000
0001
0000
,
1000
0010
0100
0010
0100
0000
0001
0000
0001
0010
0100
1000
0001
0000
0100
0000
,
0010
1000
0100
0010
0001
1000
0010
0100
0010
0100
0001
1000
0100
0000
0010
0000
,
0001
0010
0100
1000
0001
0000
0100
0000
0001
1000
0100
1000
0010
0000
0100
0000
,
0010
1000
0100
0010
0001
0100
0010
1000
0001
0010
0100
1000
0001
0000
0100
0000
,
0010
1000
0100
0010
0001
0000
1000
0000
0010
0100
0001
0010
0100
0000
1000
0000
,
0010
0100
0010
1000
0100
0010
0001
1000
0001
0100
0001
1000
0100
0000
0010
0000
,
0001
0010
0100
1000
0001
0000
0100
0000
0010
1000
0100
0010
0100
0000
0010
0000
,
0001
1000
0010
0100
0001
0010
0100
1000
0100
0000
0000
1000
0000
0000
0001
0000
,
0100
0010
0000
1000
0000
0000
0001
0000
0010
0001
0000
0100
0000
0000
0010
0000
,
1000
0001
1000
0001
0010
0100
0010
0100
1000
0000
0000
0001
0000
0000
0100
0000
,
0010
1000
0000
0001
0000
0000
0010
0000
0100
1000
0000
0100
0000
0000
0010
0000
,
0001
0010
0001
0010
0100
1000
0100
1000
0101
0000
0000
0100
0000
0000
0010
0000
,
1000
0001
0000
0010
0000
0000
0100
0000
1100
0010
0000
0001
0000
0000
1000
0000
,
0010
0100
0010
0100
0001
1000
0001
1000
0011
0000
1100
0000
0011
0000
1100
0000
,
1010
0000
0101
0000
1010
0000
0101
0000
0001
1000
0001
1000
0010
0100
0010
0100
,
0001
0010
0100
1000
0001
0100
0010
1000
0020
0000
0000
0000
0000
0000
0000
0000
,
0000
0000
0030
0000
;
