#TITLE:Coming Home;
#SUBTITLE:(dub);
#ARTIST:EMORTAL;
#TITLETRANSLIT:;
#SUBTITLETRANSLIT:;
#ARTISTTRANSLIT:;
#CREDIT:;
#BANNER:;
#BACKGROUND:;
#LYRICSPATH:;
#CDTITLE:;
#MUSIC:Coming Home (dub) - E-Mortal.mp3;
#OFFSET:-0.020;
#SAMPLESTART:42.686;
#SAMPLELENGTH:5.000;
#SELECTABLE:YES;
#BPMS:0.000=139.702;
#STOPS:129.000=0.040
;
#BGCHANGES:;
// cache tags:
#FIRSTBEAT:4.000;
#LASTBEAT:209.000;
#SONGFILENAME:Songs/toune 6/Coming Home/Coming Home.sm;
#HASMUSIC:1;
#HASBANNER:0;
#MUSICLENGTH:90.043;
// end cache tags

//---------------dance-single - ----------------
#NOTES:
     dance-single:
     :
     Easy:
     1:
     0.282,0.261,0.000,0.000,0.000,178.000,0.000,0.000,0.000,0.000:
0000
0000
0000
0000
,
0100
0000
0001
0000
,
0010
0000
1000
0000
,
0001
0000
0010
0000
,
1000
0000
0100
0000
,
0010
0000
0100
0000
,
1000
0000
0001
0000
,
0010
0000
1000
0000
,
0001
1000
0010
0001
,
0100
0010
1000
0010
,
0100
0010
1000
0010
,
0001
0010
0100
0000
,
0010
1000
0100
0010
,
0001
0100
1000
0001
,
0010
1000
0100
0010
,
0001
0000
1000
0100
,
0010
1000
0100
0010
,
0001
0100
1000
0001
,
0010
0000
1000
0100
,
0001
0010
0100
1000
,
0010
0001
0100
0010
,
0001
0100
1000
0000
,
0010
1000
0100
1000
,
0010
0100
1000
0010
,
0001
1000
0100
0001
,
0010
1000
0100
1000
,
0001
0000
1000
0001
,
0010
1000
0100
0010
,
0001
0100
1000
0000
,
0010
0001
0100
1000
,
0001
0000
0100
0010
,
1000
0001
0100
0010
,
0000
1000
1000
0100
,
0001
0010
0100
1000
,
0010
0001
1000
0000
,
0001
1000
0100
0001
,
0010
0100
1000
0010
,
0100
0001
1000
0100
,
0010
0001
0100
1000
,
0001
0010
1000
0100
,
0010
0000
0100
0010
,
0001
0010
0100
1000
,
0010
0001
1000
0001
,
0100
0000
1000
0010
,
0001
1000
0100
0001
,
0010
1000
0100
0010
,
0001
0100
0000
0100
,
0010
0001
0100
1000
,
0010
0000
0100
1000
,
0100
0001
1000
0000
,
0100
0010
1000
0010
,
0001
1000
0100
0001
,
0010
0100
0000
0000
;

//---------------dance-single - Copied from----------------
#NOTES:
     dance-single:
     Copied from:
     Beginner:
     1:
     0.152,0.145,0.000,0.000,0.000,96.000,0.000,0.000,0.000,0.000:
0000
0000
0000
0000
,
0100
0000
0000
0000
,
0010
0000
0000
0000
,
0001
0000
0000
0000
,
1000
0000
0000
0000
,
0010
0000
0000
0000
,
1000
0000
0000
0000
,
0010
0000
0000
0000
,
0001
0000
0010
0000
,
0100
0000
1000
0000
,
0100
0000
1000
0000
,
0001
0000
0100
0000
,
0010
0000
0100
0000
,
0001
0000
1000
0000
,
0010
0000
0100
0000
,
0001
0000
1000
0000
,
0010
0000
0100
0000
,
0001
0000
1000
0000
,
0010
0000
1000
0000
,
0001
0000
0100
0000
,
0010
0000
0100
0000
,
0001
0000
1000
0000
,
0010
0000
0100
0000
,
0010
0000
1000
0000
,
0001
0000
0100
0000
,
0010
0000
0100
0000
,
0001
0000
1000
0000
,
0010
0000
0100
0000
,
0001
0000
1000
0000
,
0010
0000
0100
0000
,
0001
0000
0100
0000
,
0000
0000
0100
0010
,
0000
1000
1000
0000
,
0001
0000
0100
0000
,
0010
0000
1000
0000
,
0001
0000
0100
0000
,
0010
0000
1000
0000
,
0100
0000
1000
0000
,
0010
0000
0100
0000
,
0001
0000
1000
0000
,
0010
0000
0100
0000
,
0001
0000
0100
0000
,
0010
0000
1000
0000
,
0100
0000
1000
0000
,
0001
0000
0100
0000
,
0010
0000
0100
0000
,
0001
0000
1000
0000
,
0010
0000
0100
0000
,
0010
0000
0000
0000
,
0100
0000
1000
0000
,
0100
0000
1000
0000
,
0001
0000
0100
0000
,
0010
0100
0000
0000
;

//---------------dance-single - Standard----------------
#NOTES:
     dance-single:
     Standard:
     Medium:
     5:
     0.390,0.435,0.255,0.011,0.000,222.000,23.000,1.000,0.000,0.000:
0000
0000
0000
0000
,
0100
1000
0001
1000
,
0010
0100
1000
0010
,
0001
0100
0010
0001
,
1000
0001
0100
1000
,
0010
0001
0100
0010
,
1000
0000
0001
0000
,
0010
0000
1000
0000
,
0001
1000
0010
0001
,
0100
0010
1000
0010
,
0100
0010
1000
0010
,
0001
0010
0100
0000
,
0010
1000
0100
0010
,
0001
0100
1000
0001
,
0010
1000
0100
0010
,
0001
0000
1000
0100
,
0010
0000
1000
0000
0100
0001
0010
0001
,
0100
0010
0100
0010
1000
0000
0001
0000
,
0010
0000
0000
0000
1000
0010
0100
0010
,
0001
1000
0010
0001
0100
0000
1000
0000
,
0010
0001
0100
0010
,
0001
1000
0100
0000
1000
0000
0000
0000
,
0010
1000
0100
1000
,
0010
0000
0100
0010
1000
0000
0010
0000
,
0001
0000
1000
0010
0100
0000
0001
0000
,
0010
0100
1000
0000
0100
0000
1000
0000
,
0001
0100
0010
0000
1000
0000
0001
0000
,
0010
0001
1000
0000
0100
0000
0010
0000
,
0001
0010
0100
0000
1000
0000
0001
0000
,
0010
1000
0001
0000
0100
0000
1000
0000
,
0001
1000
0010
0000
0200
0000
0000
0000
,
1300
0100
0000
0010
0100
0000
0000
0100
,
0010
0000
1000
0001
1000
0001
0100
1000
,
0001
0100
0010
0001
0100
0001
1000
0000
,
0010
0001
1001
0000
,
0001
1010
0100
1001
,
0010
0101
1000
0011
,
0100
0011
1000
1100
,
0010
1001
0100
1001
,
0001
0110
1000
0100
,
0011
0000
0100
0010
,
0001
0010
0100
1000
,
0010
1001
1000
0011
,
0100
1001
1010
0010
,
0101
1000
0101
0001
,
0011
1000
0101
0010
,
1001
0100
0000
0100
,
0010
0001
0100
1000
,
0010
0000
0000
0000
0100
0010
1000
0010
,
0100
0010
0001
0010
1000
0000
0000
0000
,
0100
0000
1010
0000
1000
0001
0010
0000
,
0001
0000
1100
0000
0100
0010
0001
0000
,
0010
0101
0000
0000
;

//---------------dance-single - Heavy----------------
#NOTES:
     dance-single:
     Heavy:
     Hard:
     7:
     0.500,0.609,0.178,0.022,0.222,297.000,16.000,2.000,0.000,0.000:
0000
0000
0000
0000
,
0100
0000
0010
0000
0000
0100
0000
0000
0010
0000
1000
0000
0000
0100
0000
0000
,
0010
0000
0001
0000
0000
0100
0000
0000
1000
0000
0010
0000
0000
0100
0000
0000
,
0001
0000
1000
0000
0000
0100
0000
0000
0010
0000
0001
0000
0000
0100
0000
0000
,
1000
0000
0100
0000
0000
0010
0000
0000
0100
0000
0010
0000
0000
0100
0000
0000
,
0010
0000
0100
0000
0000
0010
0000
0000
0100
0000
0010
0000
0000
1000
0000
0000
,
1000
0000
0001
0000
0000
1000
0000
0000
0001
0000
0100
0000
0000
0001
0000
0000
,
0010
0000
0010
0000
0000
0100
0000
0000
1000
0000
0001
0000
0000
0001
0000
0000
,
0001
0000
1000
0000
0000
1000
0000
0000
1000
0000
0100
0000
0000
0100
0000
0000
,
0100
0000
0010
0000
0000
0010
0000
0000
1000
0000
0001
0000
0000
0100
0000
0000
,
0100
0000
0010
0000
0000
0001
0000
0000
1000
0000
0100
0000
0000
0010
0000
0000
,
0001
0000
0100
0000
0000
0010
0000
0000
0100
0000
0010
0000
0000
0100
0000
0000
,
0010
0000
1000
0000
0000
1000
0000
0000
0100
0000
0010
0000
0000
0010
0000
0000
,
0001
0000
1000
0000
0000
0010
0000
0000
1000
0000
0100
0000
0000
0001
0000
0000
,
0010
0000
0100
0000
0100
0010
0000
1000
0100
0000
0010
0000
0010
0001
0000
0010
,
0001
0000
0100
0000
0010
1000
0000
0010
1000
0000
0010
0000
0100
0001
0000
0100
,
0010
0000
1000
0000
0000
0100
0000
0000
0010
0000
0100
0000
0010
0000
0100
0000
,
0001
0010
0100
0010
1000
0100
0001
1000
,
0010
0000
0101
0000
1000
0010
0100
1000
,
0001
1000
0000
0101
0000
0001
0000
1000
,
0000
0000
0100
0000
0000
0000
0001
0000
0000
0000
0100
0000
0000
0010
0000
0000
,
0001
0000
1000
0000
0000
0010
0000
0000
0100
0000
0010
0000
0000
0010
0000
0000
,
0010
0000
0100
0000
0000
0001
0000
0000
0100
0000
0010
0000
0000
0100
0000
0000
,
0010
0000
0100
0010
0100
0000
0010
0100
,
0001
0000
1000
0010
0100
0000
0001
1000
,
0010
0000
1000
0001
0100
0000
1000
0100
,
0001
0000
1000
0100
1000
0000
0001
0001
,
0010
0000
1000
1000
0100
0000
0010
0100
,
0001
0000
0100
0001
1000
0000
0000
0100
,
0010
0000
0000
0010
0100
0000
0000
1000
,
0001
0000
0001
1000
0100
0000
0021
0001
,
0031
0000
0001
1000
0100
0000
0020
0000
,
0000
0000
1000
0031
1000
0001
0100
1000
,
0001
1000
0010
0001
0100
0001
1000
0001
,
0010
0101
1000
0110
,
0001
1100
0100
0011
,
0010
0101
1000
0011
,
0100
0101
1000
1100
,
0010
1001
0100
1000
,
0001
0010
1000
0100
,
0010
0000
0100
0010
,
0001
0010
0100
1000
,
0010
0001
1000
0001
,
0100
0000
0000
0000
1000
0100
0010
0100
,
0001
0010
1000
0100
0000
0100
0001
0100
,
0010
0001
1000
0001
0000
1000
0010
1000
,
0001
1000
0100
1000
0000
1000
0001
0100
,
0010
0100
0001
0010
0000
0001
1000
0001
,
0010
1000
0001
1000
0000
0100
1000
0010
,
0100
1000
0001
0100
1000
0000
1001
0000
,
0100
0000
0011
0000
1100
0000
0010
0001
,
0000
0000
1000
0001
0000
1000
0001
1000
,
0000
1000
1100
0000
0000
0000
0000
0000
;
