#TITLE:Yoshi's Island Boss Theme;
#SUBTITLE:;
#ARTIST:Nintendo;
#TITLETRANSLIT:;
#SUBTITLETRANSLIT:;
#ARTISTTRANSLIT:;
#CREDIT:;
#BANNER:Yoshi's Island Boss-bn.png;
#BACKGROUND:Yoshi's Island Boss-bg.png;
#LYRICSPATH:;
#CDTITLE:neon-cdtitle.png;
#MUSIC:Yoshi's Island Boss Theme.mp3;
#OFFSET:-8.480;
#SAMPLESTART:100.000;
#SAMPLELENGTH:12.000;
#SELECTABLE:YES;
#BPMS:0.000=50.010,19.000=33.910,20.000=51.040;
#STOPS:;
#BGCHANGES:;
// cache tags:
#FIRSTBEAT:1.500;
#LASTBEAT:439.000;
#SONGFILENAME:Songs/cedric step/Yoshi's Island Boss Theme/Yoshi's Island Boss Theme.sm;
#HASMUSIC:1;
#HASBANNER:1;
#MUSICLENGTH:117.342;
// end cache tags

//---------------dance-single - ----------------
#NOTES:
     dance-single:
     :
     Challenge:
     14:
     1.000,1.000,1.000,0.716,0.639,623.000,288.000,84.000,0.000,14.000:
0000
0000
0000
0000
0000
0000
0000
0000
0000
0000
0000
0000
0001
0000
0000
0000
1100
0000
0000
0000
0100
0000
0000
0000
0011
0000
0000
0000
1000
0000
0000
0100
,
0100
0000
0000
0000
0100
0000
2000
0000
0001
0000
0000
0000
0100
0000
0000
0010
0010
0000
0000
0000
0100
0000
0000
0000
0001
0000
0000
0000
0010
0000
3000
0100
,
0020
0000
0000
0000
0001
0000
0000
0000
0100
0000
0000
0000
1000
0000
0000
0100
0100
0000
0000
0000
1000
0000
0000
0000
0001
0000
0000
0030
1000
0100
0000
0000
,
0002
0010
1000
0100
1000
0010
0100
0010
2003
0100
0001
0010
3100
0002
0100
0010
,
1000
0000
0100
0000
1000
0000
0010
0000
0100
0000
0010
0000
1000
0000
0100
0000
0013
0000
1010
0000
0101
0000
0000
1000
0001
0001
0100
0000
1001
0000
0100
1000
,
0001
0001
0010
0001
0001
0010
0001
0001
,
0010
0001
0001
0010
0001
0001
0010
0100
,
1000
1000
0010
1000
1000
0010
1000
1000
,
0010
1000
1000
0010
1000
1000
0001
0010
,
0100
0100
0010
0100
0100
0010
0100
0100
,
0010
0100
0100
0010
0100
0100
0010
0100
,
1000
0100
0010
0001
1000
0100
0010
0001
2000
0000
0000
0000
,
0000
0000
0000
0000
,
0000
0000
0000
0000
0000
0000
3011
1100
,
1001
0000
1010
0101
1001
0000
1001
1100
,
0110
0011
1001
0101
1010
0220
0000
1331
,
1100
0110
0011
0000
1001
0101
0000
0110
,
1001
1100
0110
0000
0011
0000
1001
0101
,
0110
1010
1100
0000
0011
0000
0101
1001
,
0000
0101
1001
0000
0101
0101
0110
1010
,
1001
1100
0000
0011
0000
1010
1100
1001
,
0000
0101
1001
0110
1001
0110
1001
0110
,
1001
0110
0110
0011
1000
0011
1000
0011
,
1100
1001
0110
0011
0110
0110
2001
0000
,
3110
0110
1002
0000
1103
0110
0011
1001
,
1100
0110
0011
1001
1100
0110
0011
1001
,
2001
0000
0000
0000
0000
0000
0000
0000
0000
0000
0000
0000
3001
0010
0100
1000
0000
0000
1002
0000
0000
0000
0000
0000
,
0000
0000
0000
0000
0000
0000
1003
0010
0100
0001
0000
0000
2002
0000
0000
0000
0000
0000
0000
0000
0000
0000
0000
0000
,
0000
0000
0000
0000
0000
0000
0000
3003
,
2020
0000
3030
0202
0000
0303
2002
0000
,
3003
2200
3300
0022
0033
1001
0101
2002
,
0000
0000
0000
3003
2020
0000
0000
0000
,
0000
3030
0202
0000
0000
0000
0000
0303
,
2002
0000
0000
0000
0000
3003
1100
0001
,
0001
1100
0001
0001
0110
0001
0011
0010
,
0100
0000
0000
1100
0000
0000
0001
0000
0000
0011
0000
0000
1100
0000
0000
0000
0000
0000
1100
0000
0001
0000
0010
0000
,
0001
0100
0010
1000
0001
0010
0100
1000
0001
0010
0001
0100
,
0010
1000
0001
0010
0100
1000
0001
0100
0010
1000
0001
0010
,
0100
0001
1000
0010
0100
0001
1000
0001
0100
1000
0010
1000
,
0001
0010
0100
1000
0010
0100
0001
1000
0100
0001
1000
0010
,
0100
0001
1000
0100
1000
0001
0100
0010
1000
0001
0010
0001
,
2100
0000
0000
0000
,
0000
0000
0000
0000
,
0002
0000
0000
0000
,
0000
0000
0000
0000
,
0200
0000
0000
0000
,
0000
0000
0000
0000
,
0020
0000
0000
0000
,
0000
0000
0000
3333
,
0011
0110
1100
1001
0110
1001
1100
0011
,
1001
0101
0110
1001
1100
0011
1001
0101
,
0110
1001
1100
0011
1010
0101
1010
1001
,
0110
1100
0011
1010
1100
0101
0011
1010
,
1001
1100
0011
1001
0110
0011
0101
2100
,
0010
0100
0002
0000
0000
0000
0000
3003
,
2002
0000
0000
0000
,
0000
0000
0000
0000
0000
0000
0000
3003
,
0202
0000
0000
0000
,
0000
0000
0000
0000
,
0000
0000
0000
0303
,
0001
0010
0100
1000
0001
0010
0100
1000
0001
0010
0100
1000
,
0100
0000
0010
0000
0001
0000
1000
0000
0100
0000
0010
0000
0001
0000
1000
0000
0100
0000
0011
0000
0000
1001
0000
0000
,
0101
0000
1010
1001
1100
0000
0110
1100
,
0011
1001
0101
0110
1001
2200
0000
3311
,
1001
1001
1001
0000
1100
1100
0000
0110
,
0011
1001
0101
0000
0110
0000
0101
0110
,
1010
1100
1001
0000
1100
0000
0110
0011
,
0000
0110
0011
0000
1001
1001
1010
0101
,
1001
1100
0000
0011
0000
1001
0101
0110
,
0000
0110
1100
0011
1100
0011
1100
0011
,
1100
0001
0001
1100
0010
0011
1000
0110
,
0011
1000
0101
1000
0001
1000
0022
0000
,
0133
0010
2020
0000
3131
1001
1100
0110
,
0011
1001
0101
0110
1001
1100
0011
1001
,
0202
0000
0000
0000
0000
0000
0000
0000
0000
0303
0000
0000
0001
0010
0100
1000
0000
0000
2002
0000
0000
0000
0000
0000
,
0000
0000
0000
3003
0000
0000
1000
0010
0100
0001
0000
0000
2200
0000
0000
0000
0000
0000
0000
0000
0000
0000
0000
0000
,
0000
0000
0000
0000
0000
0000
0000
3300
,
2002
0000
3003
0202
0000
0303
2020
0000
,
3030
2002
3003
2200
0000
3311
1001
2200
,
0000
0000
0000
3300
0022
0000
0000
0000
,
0000
0033
2002
0000
0000
0000
0000
3003
,
2020
0000
0000
0000
0000
3030
1100
0001
,
0001
0011
1000
1000
1010
0100
0011
1000
,
0100
0000
0000
0011
0000
0000
0001
0000
0000
1001
0000
0000
0120
0000
0000
0000
0000
0000
2130
0000
0001
0000
0010
0000
,
3100
0001
1000
0010
0001
1000
0100
1000
0001
0010
0100
0001
,
1000
0010
1000
0001
0100
0010
1000
0001
0100
0010
0001
1000
,
0001
0100
0010
1000
0001
0010
1000
0001
0100
0001
1000
0010
,
0100
0001
1000
0001
0010
0001
1000
0100
0010
1000
0001
0100
,
0010
1000
0001
0010
0100
0001
1000
0010
0001
0100
0010
1000
,
2111
0000
0000
0000
,
0000
0000
0000
0000
,
0200
0000
0000
0000
,
0000
0000
0000
0000
,
0020
0000
0000
0000
,
0000
0000
0000
0000
,
0002
0000
0000
0000
,
0000
0000
0000
0000
0000
0000
0000
3333
,
0011
1001
0110
1100
0011
1001
0101
1010
,
1001
0110
1100
0011
1001
1001
0101
0110
,
1010
0101
1001
1100
0011
0110
1001
0101
,
1010
1001
1100
0011
1001
0110
1010
0101
,
1001
1010
1001
1100
0011
1001
0110
2010
,
0100
0001
0020
0000
0000
0000
0000
3030
,
2002
0000
0000
0000
,
0000
0000
0000
0000
0000
0000
0000
3003
,
2020
0000
0000
0000
,
0000
0000
0000
0000
,
0000
0000
0000
0000
0000
0000
0000
3030
,
0001
0010
0100
1000
0100
0010
0001
0010
0100
1000
0100
0010
,
0001
0010
0100
1000
0100
0010
0001
0010
0100
1001
0000
0000
;
