#TITLE:Roppongi Rumble;
#SUBTITLE:Accept the Fact (2005);
#ARTIST:Warmen;
#TITLETRANSLIT:;
#SUBTITLETRANSLIT:;
#ARTISTTRANSLIT:;
#CREDIT:;
#BANNER:Roppongi Rumble-bn.jpg;
#BACKGROUND:Roppongi Rumble-bg.jpg;
#LYRICSPATH:;
#CDTITLE:!ElectricWerewolf.png;
#MUSIC:Warmen - Roppongi Rumble.mp3;
#OFFSET:-6.033;
#SAMPLESTART:6.740;
#SAMPLELENGTH:12.000;
#SELECTABLE:YES;
#BPMS:0.000=250.040;
#STOPS:;
#BGCHANGES:;
// cache tags:
#FIRSTBEAT:3.000;
#LASTBEAT:384.000;
#SONGFILENAME:Songs/Astronomic Metal Collection/Roppongi Rumble (ElectricWerewolf)/Roppongi Rumble.sm;
#HASMUSIC:1;
#HASBANNER:1;
#MUSICLENGTH:101.041;
// end cache tags

//---------------dance-single - ----------------
#NOTES:
     dance-single:
     :
     Hard:
     12:
     1.000,1.000,0.188,0.188,1.000,792.000,19.000,19.000,0.000,0.000:
0000
0000
0000
0000
0000
0000
1001
0100
,
0100
0100
0001
0100
0010
0100
0001
0100
,
0100
0000
0000
0100
0000
0000
0010
0000
1000
0000
0100
0000
1000
0000
0000
0001
0000
0000
0001
0000
0000
0001
0000
0000
,
0010
0100
1000
0100
0001
0100
0100
0100
,
0010
1000
0001
0010
0100
0010
0010
0010
,
1000
0010
0100
0010
1000
0010
0010
0010
,
0100
0000
0001
0000
1000
0000
0001
0000
0000
0100
0000
0000
0100
0000
0000
0100
0000
0000
0010
0000
0000
1000
0000
0000
,
0001
0000
0000
1000
0000
0000
0100
0000
0010
0000
0001
0000
1000
0000
0010
0000
1000
0000
0001
0000
1000
0000
0100
0000
,
0010
0000
0100
0000
1000
0000
0011
0000
0000
1000
0000
0000
0100
0000
0000
1000
0000
0000
0010
0000
0000
1000
0000
0000
,
0001
0000
0000
1000
0000
0000
0010
0000
0000
1000
0000
0000
1000
0000
0000
1000
0000
0000
0001
0000
0010
0000
0100
0000
,
0010
0001
0001
0001
1000
0010
0100
0010
,
1000
0010
0100
0010
1000
0001
0010
0001
0100
0010
1000
0010
,
0100
0001
1001
0001
0010
0100
1000
0001
,
0100
0000
0000
0010
0000
0000
0010
0000
0000
0010
0000
0000
1000
0000
0001
0000
0100
0000
0001
0000
0000
1000
0000
0000
,
1000
1000
0001
1000
0010
0100
0001
0010
,
0010
0010
1000
0010
0100
0001
0010
0100
,
0100
0100
0010
0100
0001
0100
0010
1000
,
1000
0000
0000
1000
0000
0000
0001
0000
0010
0000
0100
0000
0010
0000
0000
0001
0000
0000
0001
0000
0000
0001
0000
0000
,
0010
0000
0000
0001
0000
0000
0100
0000
0000
0010
0000
0000
1000
0000
0100
0000
0010
0000
0001
0000
0100
0000
0010
0000
,
1000
0000
0001
0000
0010
0000
0100
0000
1000
0000
0001
0000
1100
0000
0000
0010
0000
0000
0001
0000
0000
0010
0000
0000
,
1000
0010
0100
0001
0010
0100
0100
0100
,
0010
0000
0001
0000
1000
0000
0001
0000
0000
0100
0000
0000
0100
0000
0000
0100
0000
0000
0010
0000
0000
1000
0000
0000
,
0010
0000
0000
0100
0000
0000
0001
0000
0100
0000
0010
0000
1000
0000
0100
0000
1000
0000
0100
0000
0010
0000
0001
0000
,
1000
0000
0010
0000
1000
0000
0001
0000
0000
1000
0000
0000
1100
0000
0000
1000
0000
0000
0010
0000
0000
1000
0000
0000
,
0001
0000
0000
1000
0000
0000
0010
0000
0000
0100
0000
0000
0100
0000
0000
0100
0000
0000
0001
0000
0100
0000
0010
0000
,
0100
0001
0001
0001
1000
0001
0010
0100
,
1001
0010
0100
1000
0001
0100
0001
0010
0001
1000
0100
0010
,
0001
0100
0010
1000
0100
0010
0100
1000
0001
0100
0010
1000
,
0201
0000
0000
0000
0000
0000
0000
0000
0000
0000
0300
0000
,
0000
0000
0000
0000
1000
0001
0010
0100
0010
0000
0000
0000
0000
0000
0000
0000
,
1002
0000
0000
0000
,
0000
0003
0000
0000
0000
0000
0000
0000
,
0000
0000
0000
0000
1000
0100
0010
0000
,
0001
0000
0000
0000
0000
0000
0001
0000
0010
0000
0100
0000
1000
0000
0010
0000
0100
0000
0001
0000
0000
1000
0000
0000
,
0200
0000
0000
0000
0000
0000
0000
0000
0000
0000
0000
0000
0000
0000
0000
0000
0000
0000
0000
0000
0000
0000
0000
0000
0000
0000
0000
0000
0000
0000
0310
0000
0000
0001
0000
0000
0010
0000
0000
0000
0100
0000
0000
0000
1000
0000
0000
0000
,
0200
0000
0300
0000
,
0000
0000
0010
0001
1000
0100
0010
0100
,
0010
0001
0100
0010
0100
0001
1000
0100
,
0020
0000
0000
0000
0000
0000
0000
0000
0030
0001
0010
0100
,
2000
0000
3000
0000
,
1000
0000
0000
0000
0010
0000
0000
0000
0100
0000
0000
0000
0001
0000
0000
0010
0000
0000
0100
0000
0000
0000
0010
0000
0000
0000
0000
0001
0000
0000
1000
0000
0000
0010
0000
0000
0100
0000
0000
0000
0000
0000
0010
0000
0000
1000
0000
0000
,
0002
0000
0103
0001
1000
0010
0100
0001
,
0020
0000
0000
0000
0000
0000
0000
0000
0000
0000
0000
0000
0000
0000
0000
0000
0000
0000
0000
0000
0000
0000
0000
0000
0000
0000
0000
0000
0000
0000
0000
0000
0000
0031
0000
0000
0010
0000
0000
0000
0001
0000
0000
0000
1000
0000
0000
0000
,
0200
0000
0000
0000
0000
0000
0310
0001
,
1000
0100
0010
0001
1000
0010
0100
0001
,
0010
0100
0010
0001
0100
0010
1000
0010
,
0201
0000
0000
0000
0000
0000
0000
0300
,
0100
0000
0100
0001
1000
0001
0200
0320
,
0000
0000
0000
1030
0100
0010
0001
0200
0000
0000
0000
0000
0000
0300
0000
0000
,
0000
0000
0000
0100
0001
1000
0100
0010
,
0002
0000
0000
0000
0000
0000
0013
0100
1000
0001
0100
0010
1000
0100
1000
0001
,
0100
0000
0000
0010
0000
0000
1000
0000
0000
0100
0000
0000
0010
0000
0000
0000
0001
0000
0000
0000
0100
0000
0000
0000
0001
0000
0000
0000
0000
0000
1000
0000
0000
0000
0000
0000
0100
0000
0000
0000
0000
0000
0000
0000
0000
0000
0000
0000
,
0001
0000
0000
0000
0000
0000
0000
0000
0000
0000
0000
0000
0100
0000
0000
0000
0000
0000
0010
0000
0000
0000
0000
0000
1000
0000
0000
0000
0100
0000
0000
0000
1000
0000
0000
0000
0001
0000
0000
0100
0000
0000
0001
0000
0000
1000
0000
0000
,
0010
1000
0100
0010
0100
1000
0001
0100
0010
0100
0001
0010
0100
1000
0001
1000
,
0120
0000
0000
0000
0000
0130
0001
1000
0100
0020
0000
0000
0000
0031
1000
0010
,
0100
0001
0010
0100
1000
0001
0100
0001
1000
0100
0010
0100
1000
0001
0010
0100
,
0010
0000
0000
0001
0000
0000
1000
0000
0000
0010
0000
0000
1000
0000
0000
0001
0000
0000
0100
0000
0000
0010
0000
0000
0100
0000
0000
0000
0001
0000
0000
0000
0000
1000
0000
0000
0100
0000
0000
0010
0000
0000
0001
0000
0000
0100
0000
0000
,
0020
0000
0000
0000
1030
0010
1000
0001
,
0020
0000
0000
0000
0000
0000
0000
0000
0000
0000
0000
0000
0000
0130
0010
0100
,
1000
0002
0000
0000
0000
0000
0000
0000
0003
0000
0000
0000
0000
0000
0000
0000
,
1000
0000
0000
0000
0001
0000
0000
0000
0001
0000
0000
0000
0100
0000
0000
0000
0010
0100
0000
0000
0001
0000
0000
0000
0010
0000
0000
0000
0100
0000
0000
0000
,
0100
0100
1000
0001
0010
0010
0100
0100
,
1001
0010
0010
0010
1000
0010
0100
0001
,
1000
0000
0000
0100
0000
0000
0100
0000
0000
0100
0000
0000
0010
0000
0001
0000
1000
0000
0001
0000
0000
0100
0000
0000
,
0100
0100
0001
0010
0100
1000
0001
1000
,
1000
1000
0010
0100
0001
1000
0100
0010
,
0010
0010
0100
0010
1000
0010
0100
0001
,
0001
0000
0000
0001
0000
0000
0010
0000
0100
0000
1000
0000
0100
0000
0000
1000
0000
0000
1000
0000
0000
1000
0000
0000
,
0100
0000
0000
1000
0000
0000
0010
0000
0000
0100
0000
0000
0001
0000
1000
0000
0100
0000
0010
0000
0001
0000
0100
0000
,
0010
0000
1000
0000
0001
0000
0010
0000
0100
0000
0010
0000
1001
0000
0000
0100
0000
0000
0010
0000
0000
0100
0000
0000
,
0001
1000
0010
1000
0001
0100
0100
0100
,
0010
0000
1000
0000
0100
0000
1000
0000
0000
0001
0000
0000
0001
0000
0000
0001
0000
0000
0010
0000
0000
0100
0000
0000
,
1000
0000
0000
0010
0000
0000
0100
0000
0001
0000
1000
0000
0100
0000
0010
0000
0100
0000
0010
0000
0001
0000
1000
0000
,
0010
0000
1000
0000
0001
0000
0010
0000
0000
0100
0000
0000
1100
0000
0000
0100
0000
0000
0010
0000
0000
0001
0000
0000
,
1000
0000
0000
0001
0000
0000
0100
0000
0000
0010
0000
0000
0010
0000
0000
0010
0000
0000
1000
0000
0001
0000
0100
0000
,
0001
1000
1000
1000
0010
0100
0001
0100
,
0010
1000
1000
1000
0100
0010
0001
0100
,
0010
1000
1000
1000
0100
1000
0010
0100
,
0001
0000
0000
0010
0000
0000
0010
0000
0000
0010
0000
0000
0100
0000
0010
0000
0001
0000
0010
0000
0000
0100
0000
0000
,
0100
0000
0000
0100
0000
0000
0010
0000
0000
0001
0000
0000
0100
0000
0000
0010
0000
0000
1000
0000
0100
0000
0010
0000
,
0100
0000
1000
0000
0010
0000
1000
0000
0001
0000
1000
0000
0010
0000
0100
0000
0001
0000
1010
0000
0000
0100
0000
0000
,
1001
0100
0010
0001
1000
0001
0100
0010
,
0010
0000
0000
0010
0000
0000
0100
0000
0001
0000
0010
0000
0001
0000
0000
1000
0000
0000
1000
0000
0000
1000
0000
0000
,
0001
0000
0000
1000
0000
0000
0010
0000
0000
1000
0000
0000
0100
0000
0010
0000
0001
0000
0100
0000
0010
0000
1000
0000
,
0010
0000
0100
0000
0010
0000
1000
0000
0001
0000
0010
0000
0100
0000
0000
1000
0000
0000
1001
0000
0000
1000
0000
0000
,
0100
1000
0010
0100
0001
0010
0010
0010
,
0001
0000
1000
0000
0100
0000
1000
0000
0000
0001
0000
0000
0001
0000
0000
0001
0000
0000
0100
0000
0000
0010
0000
0000
,
1000
0000
0000
0001
0000
0000
0110
0000
0001
0000
1000
0000
0010
0000
1000
0000
0100
0000
0010
0000
0100
0000
1000
0000
,
0001
0100
0010
0100
0010
1000
0100
0010
0001
0100
0010
1000
,
0001
0010
0100
0010
0001
1000
0001
0100
0001
0010
0100
1000
,
0010
0000
1000
0000
0001
0000
1010
0000
0000
0100
0000
0000
0001
0000
0000
0100
0000
0000
0010
0000
0000
1000
0000
0000
,
0100
0000
0000
0010
0000
0000
0001
0000
0000
1000
0000
0000
1000
0000
0000
1000
0000
0000
0001
0000
0010
0000
0100
0000
,
0010
0001
0001
0001
1000
0100
0001
0100
,
0010
1000
0001
0010
0100
1000
0001
0100
0001
1000
0100
0010
,
0001
0010
0100
1000
0010
1000
0001
1000
0100
0010
0100
1000
,
0100
0010
0001
0100
0001
1000
0001
0010
0001
1000
0100
0010
,
1001
0000
0000
0000
;

//---------------dance-single - ----------------
#NOTES:
     dance-single:
     :
     Medium:
     10:
     0.861,0.950,0.000,0.643,0.148,544.000,0.000,65.000,0.000,0.000:
0000
0000
0000
0000
0000
0000
0001
1000
,
0100
1000
0001
1000
0010
1000
0001
1000
,
0100
1000
0020
0000
0130
0001
1000
0001
,
0100
0001
0010
0001
0100
0001
1000
0001
,
0010
0100
1000
0010
0100
0001
0010
0001
,
1000
0010
1000
0001
0100
0001
0010
0001
,
2000
0000
3010
0100
0001
0100
0010
1000
,
0100
1000
0002
0000
0000
0000
2003
0000
,
0000
0000
3010
0100
0001
0100
0010
1000
,
0100
1000
0001
1000
0100
0010
0002
0000
,
0013
0100
1000
0100
0010
0001
0100
0001
,
2000
0000
3020
0000
,
0130
0001
1000
0001
0100
0001
0010
0001
,
0100
0001
1000
0001
0020
0000
0031
1000
,
0100
1000
0001
1000
0010
1000
0001
1000
,
0100
0010
0001
0100
0010
1000
0100
0010
,
0100
1000
0001
0010
0001
0100
0001
1000
,
0100
0010
0002
0000
1003
0010
0100
0010
,
1000
0001
0010
0001
0200
0000
0000
0000
,
0320
0000
0000
0000
1030
0001
0100
0001
,
0010
0100
1000
0001
0100
0010
1000
0100
,
0020
0000
0031
0100
0010
0100
0001
1000
,
0010
1000
0200
0000
0000
0000
0320
0000
,
0000
0000
0031
1000
0010
1000
0001
0010
,
0100
0010
0001
1000
0010
1000
0200
0000
,
0310
0001
0100
0001
1000
0100
0010
0100
,
2000
0000
3020
0000
,
0230
0000
0302
0000
,
2003
0000
0000
0000
0000
0000
0000
3000
,
0000
0000
0000
0100
0010
0100
0010
0000
0000
0000
0000
0000
,
0002
0000
0000
0000
,
0000
0003
0000
0000
0000
0000
0000
0000
,
0000
0000
0000
0000
1000
0100
0010
0000
,
0001
0000
0000
0000
0000
0000
0001
0000
1000
0000
0001
0000
1000
0000
0010
0000
1000
0000
0010
0000
0000
1000
0000
0000
,
0200
0000
0000
0000
0000
0000
0000
0000
0310
0001
1000
0001
,
0200
0000
0300
0000
,
0000
0000
0010
1000
0100
0010
0001
0100
,
0001
1000
0010
1000
0001
0010
0100
1000
,
0020
0000
0000
0000
0000
0000
0000
0000
0030
0100
0010
1000
,
0002
0000
0003
0000
,
1000
0000
0000
0100
0000
0000
0010
0000
0100
0000
0010
0000
0001
0000
0010
0000
0001
0000
0010
0000
0100
0000
0010
0000
,
0200
0000
0310
0100
0010
0100
0010
0001
,
2000
0000
0000
0000
0000
0000
0000
0000
3001
0010
0001
1000
,
0200
0000
0000
0000
0000
0000
1300
0001
,
0010
0100
1000
0001
0100
0010
1000
0001
,
0010
0100
0010
0001
0100
0010
1000
0010
,
0200
0000
0000
0000
0000
0000
0000
0300
,
0100
0000
0100
0010
1000
0010
0100
0002
,
0000
0000
0000
0013
0100
1000
0200
0000
0000
0000
0300
0000
,
0000
0000
0000
1000
0010
0100
0001
1000
,
0002
0000
0000
1003
0010
1000
0001
0100
,
0001
0000
0000
1000
0000
0000
0100
0000
0010
0000
0100
0000
0010
0000
0000
0001
0000
0000
0100
0000
0000
0000
0000
0000
,
0001
0000
0100
0010
1000
0100
0010
0001
,
1000
0100
1000
0001
0100
0010
1000
0100
,
0020
0000
0031
0100
0020
0000
1030
0001
,
0100
0000
0000
0010
0000
0000
1000
0000
0000
0100
0000
0000
0010
0000
0000
0100
0000
0000
1000
0000
0100
0000
0010
0000
,
0001
0000
0010
0000
0100
0000
1000
0000
0000
0001
0000
0000
1000
0000
0000
0000
0000
0000
0100
0000
0000
0010
0000
0000
,
0002
0000
0000
0000
1003
0001
1000
0100
,
0020
0000
0000
0000
0000
0000
0000
0000
0000
0031
1000
0001
,
0200
0000
0300
0000
,
0000
0000
0000
0000
,
0000
0000
0000
0000
,
0001
1000
0100
1000
0001
1000
0010
1000
,
0001
1000
0100
1000
0020
0000
0130
0001
,
1000
0001
0100
0001
0010
0001
0100
0001
,
1000
0010
0100
0001
0010
0100
0010
0100
,
1000
0100
0010
0001
0100
0001
0010
0100
,
1000
0001
0200
0000
0310
1000
0001
1000
,
0010
1000
0100
1000
0002
0000
0000
0000
,
0203
0000
0000
0000
0310
1000
0100
1000
,
0010
1000
0001
1000
0100
1000
0001
1000
,
0020
0000
0130
0001
1000
0001
0010
0001
,
0100
0001
0020
0000
0000
0000
0230
0000
,
0000
0000
1300
0001
0100
0001
1000
0001
,
0010
0001
1000
0001
0100
0001
0020
0000
,
0130
1000
0001
1000
0100
1000
0010
1000
,
0100
1000
0001
0100
0010
1000
0001
0010
,
0100
0010
0001
0100
0010
1000
0010
0100
,
0001
0010
0100
1000
0020
0000
1030
0001
,
0100
0001
1000
0001
0010
0001
0200
0000
,
0000
0000
0320
0000
0000
0000
1030
0001
,
0010
0001
0100
0001
1000
0001
0010
0001
,
0100
0001
0020
0000
0130
1000
0001
0100
,
0010
0100
0001
0010
0200
0000
0000
0000
,
2300
0000
0000
0000
3010
0100
0001
0100
,
0010
1000
0100
1000
0010
0100
0001
0100
,
0002
0000
1003
0100
0010
0100
1000
0001
,
0100
0001
0020
0000
0000
0000
0230
0000
,
0000
2300
0000
3002
,
0000
0203
0000
0320
,
0000
0000
1030
0001
0100
0001
0010
0100
,
1000
0010
0100
0010
1000
0100
0020
0000
,
0031
1000
0100
1000
0010
1000
0001
1000
,
0020
0000
0230
0000
,
0302
0000
2003
0000
,
3200
0000
0320
0000
,
0031
0000
0000
0000
;

//---------------dance-single - ----------------
#NOTES:
     dance-single:
     :
     Easy:
     5:
     0.461,0.475,0.445,0.000,0.000,281.000,45.000,0.000,0.000,0.000:
0000
0000
0000
1001
,
0000
1000
0001
1000
,
0000
0010
0100
0000
,
0100
0001
0100
0000
,
0010
1000
0100
0000
,
0100
0010
0100
0000
,
1000
0001
0000
0001
,
0100
0011
0000
1100
,
0000
1001
0000
0100
,
0010
1000
0000
1000
,
0001
0000
0100
0001
,
1100
0000
0011
0000
,
1000
1001
1000
0010
,
1000
0000
0001
0100
,
0000
0100
0010
0100
,
0000
0001
0010
0100
,
0000
0100
0010
0100
,
0000
1000
0010
0000
,
0010
0100
0110
0000
,
1001
0000
1010
0000
,
0001
1000
0010
0000
,
0010
0100
0000
0001
,
0100
1010
0000
0101
,
0000
0001
1001
0001
,
0010
0001
0000
0010
,
0001
0000
0001
0010
,
1100
0000
0011
0000
,
1010
0000
0101
0000
,
0010
0000
0000
0000
,
0000
0000
0000
0000
,
1001
0001
0000
0100
,
0000
0010
0000
1000
,
0000
0100
0010
0001
,
1000
1000
0010
0100
,
0001
1000
0000
0010
,
0100
0001
0000
1000
,
0000
0100
0010
0001
,
1000
0010
1000
0001
,
0010
0100
0000
1000
,
0001
0100
0000
0010
,
1000
0001
0010
0100
,
1000
0001
0100
0001
,
0010
0100
0000
1000
,
0001
0100
0000
0010
,
1000
0100
0010
0100
,
1000
0001
1000
0010
,
0100
0001
0000
0010
,
0100
1000
0001
0100
,
0000
0010
1000
0001
,
0000
0100
0010
1000
,
0100
0010
0001
0100
,
0001
1000
0100
0010
,
0001
0100
0010
1000
,
0001
0010
0100
1000
,
0010
0100
0010
0100
,
0001
1000
0100
0010
,
0001
0010
0100
1000
,
0001
0100
0010
1000
,
0001
0100
0000
0010
,
1000
0100
0000
0100
,
0000
0010
0100
0000
0010
0000
0000
0001
,
1000
0001
0000
0000
0000
0000
0000
0000
,
1000
0000
0001
0100
,
0001
0000
0010
0100
,
0000
1000
0010
0100
,
0000
0001
0010
0100
,
0000
1000
0001
0100
,
0000
0010
1000
0000
,
0001
0010
1100
0000
,
0011
0000
1010
0000
,
0001
0100
0010
0000
,
0010
1000
0000
0100
,
1000
0101
0000
1010
,
0000
0100
0110
0100
,
0001
0100
0000
0010
,
1000
0000
1000
0100
,
1000
0000
0001
0100
,
0010
0000
0010
1000
,
0010
0000
1000
0001
,
0000
0010
0100
1100
,
0000
0011
0000
1001
,
1001
1000
0100
0010
,
0000
0010
0100
0000
,
1000
0001
0101
0000
,
1010
0000
0001
1001
,
0001
1000
0001
0000
,
0100
0010
0000
1000
,
0100
0011
0000
1010
,
0000
0101
0000
1100
,
0000
1001
0000
0110
,
0000
1010
0000
0001
,
0100
0010
0000
0010
,
1000
0000
0100
1000
,
0011
0000
1100
0000
,
1010
0000
0101
0000
,
1100
0000
0011
0000
,
1001
0000
0000
0000
;

//---------------dance-single - Copied from----------------
#NOTES:
     dance-single:
     Copied from:
     Edit:
     12:
     1.000,1.000,0.188,0.188,1.000,794.000,19.000,19.000,0.000,0.000:
0000
0000
0000
0000
0000
0000
1001
0100
,
0100
0100
0001
0100
0010
0100
0001
0100
,
0100
0000
0000
0100
0000
0000
0010
0000
1000
0000
0100
0000
1000
0000
0000
0001
0000
0000
0001
0000
0000
0001
0000
0000
,
0010
0100
1000
0100
0001
0100
0100
0100
,
0010
1000
0001
0010
0100
0010
0010
0010
,
1000
0010
0100
0010
1000
0010
0010
0010
,
0100
0000
0001
0000
1000
0000
0001
0000
0000
0100
0000
0000
0100
0000
0000
0100
0000
0000
0010
0000
0000
1000
0000
0000
,
0001
0000
0000
1000
0000
0000
0100
0000
0010
0000
0001
0000
1000
0000
0010
0000
1000
0000
0001
0000
1000
0000
0100
0000
,
0010
0000
0100
0000
1000
0000
0011
0000
0000
1000
0000
0000
0100
0000
0000
1000
0000
0000
0010
0000
0000
1000
0000
0000
,
0001
0000
0000
1000
0000
0000
0010
0000
0000
1000
0000
0000
1000
0000
0000
1000
0000
0000
0001
0000
0010
0000
0100
0000
,
0010
0001
0001
0001
1000
0010
0100
0010
,
1000
0010
0100
0010
1000
0001
0010
0001
0100
0010
1000
0010
,
0100
0001
1001
0001
0010
0100
1000
0001
,
0100
0000
0000
0010
0000
0000
0010
0000
0000
0010
0000
0000
1000
0000
0001
0000
0100
0000
0001
0000
0000
1000
0000
0000
,
1000
1000
0001
1000
0010
0100
0001
0010
,
0010
0010
1000
0010
0100
0001
0010
0100
,
0100
0100
0010
0100
0001
0100
0010
1000
,
1000
0000
0000
1000
0000
0000
0001
0000
0010
0000
0100
0000
0010
0000
0000
0001
0000
0000
0001
0000
0000
0001
0000
0000
,
0010
0000
0000
0001
0000
0000
0100
0000
0000
0010
0000
0000
1000
0000
0100
0000
0010
0000
0001
0000
0100
0000
0010
0000
,
1000
0000
0001
0000
0010
0000
0100
0000
1000
0000
0001
0000
1100
0000
0000
0010
0000
0000
0001
0000
0000
0010
0000
0000
,
1000
0010
0100
0001
0010
0100
0100
0100
,
0010
0000
0001
0000
1000
0000
0001
0000
0000
0100
0000
0000
0100
0000
0000
0100
0000
0000
0010
0000
0000
1000
0000
0000
,
0010
0000
0000
0100
0000
0000
0001
0000
0100
0000
0010
0000
1000
0000
0100
0000
1000
0000
0100
0000
0010
0000
0001
0000
,
1000
0000
0010
0000
1000
0000
0001
0000
0000
1000
0000
0000
1100
0000
0000
1000
0000
0000
0010
0000
0000
1000
0000
0000
,
0001
0000
0000
1000
0000
0000
0010
0000
0000
0100
0000
0000
0100
0000
0000
0100
0000
0000
0001
0000
0100
0000
0010
0000
,
0100
0001
0001
0001
1000
0001
0010
0100
,
1001
0010
0100
1000
0001
0100
0001
0010
0001
1000
0100
0010
,
0001
0100
0010
1000
0100
0010
0100
1000
0001
0100
0010
1000
,
0201
0000
0000
0000
0000
0000
0000
0000
0000
0000
0300
0000
,
0000
0000
0000
0000
0000
0000
0000
0000
0000
0000
0000
0000
0000
0000
0000
0000
0000
0000
0000
0000
0000
0000
0000
0000
0000
0000
0000
0000
0000
0000
0000
0000
0000
0000
0000
0000
0000
0000
0000
0000
1000
0000
0000
0000
0000
0000
0000
0000
0000
0000
0000
0000
0000
0000
0001
0000
0000
0000
0000
0000
0000
0000
0000
0000
0000
0000
0000
0000
0010
0000
0000
0000
0000
0000
0000
0000
0000
0000
0000
0000
0100
0000
0000
0000
0000
0000
0000
0000
0000
0000
0000
0000
0010
0000
0000
0000
0000
0000
0000
0000
0000
0000
0000
0000
0000
0000
0000
0000
0000
0000
0000
0000
0000
0000
0000
0000
0000
0000
0000
0000
0000
0000
0000
0000
0000
0000
0000
0000
0000
0000
0000
0000
0000
0000
0000
0000
0000
0000
0000
0000
0000
0000
0000
0000
0000
0000
0000
0000
0000
0000
0000
0000
0000
0000
0000
0000
0000
0000
0000
0000
0000
0000
0000
0000
0000
0000
0000
0000
0000
0000
0000
0000
0000
0000
0000
0000
0000
0000
0000
0000
0000
0000
0000
0000
0000
0000
0000
0000
0000
0000
0000
0000
,
1002
0000
0000
0000
,
0000
0003
0000
0000
0000
0000
0000
0000
,
0000
0000
0000
0000
1000
0100
0010
0000
,
0001
0000
0000
0000
0000
0000
0000
0000
0000
0000
0000
0000
0000
0000
0000
0000
0000
0000
0000
0000
0000
0000
0000
0000
0000
0000
0000
0000
0000
0000
0000
0000
0000
0000
0000
0000
0000
0000
0000
0000
0000
0000
0000
0000
0000
0000
0000
0000
0001
0000
0000
0000
0000
0000
0000
0000
0000
0000
0000
0000
0000
0000
0000
0000
0000
0000
0010
0000
0000
0000
0000
0000
0000
0000
0000
0000
0000
0000
0000
0000
0000
0000
0000
0000
0100
0000
0000
0000
0000
0000
0000
0000
0000
0000
0000
0000
1000
0000
0000
0000
0000
0000
0000
0000
0000
0000
0000
0000
0000
0000
0000
0000
0010
0000
0000
0000
0000
0000
0000
0000
0000
0000
0000
0000
0000
0000
0000
0000
0100
0000
0000
0000
0000
0000
0000
0000
0000
0000
0000
0000
0000
0000
0000
0000
0001
0000
0000
0000
0000
0000
0000
0000
0000
0000
0000
0000
0000
0000
0000
0000
0000
0000
0000
0000
0000
0000
0000
0000
1000
0000
0000
0000
0000
0000
0000
0000
0000
0000
0000
0000
0000
0000
0000
0000
0000
0000
0000
0000
0000
0000
0000
0000
,
0200
0000
0000
0000
0000
0000
0000
0000
0000
0000
0000
0000
0000
0000
0000
0000
0000
0000
0000
0000
0000
0000
0000
0000
0000
0000
0000
0000
0000
0000
0310
0000
0000
0000
0001
0000
0010
0000
0000
0100
0000
0000
0000
1000
0000
0000
0000
0200
,
0000
0000
0300
0000
,
0000
0000
0010
0001
1000
0100
0010
0100
,
0010
0001
0100
0010
0100
0001
1000
0100
,
0020
0000
0000
0000
0000
0000
0000
0000
0000
0000
0000
0000
0000
0000
0000
0000
0000
0000
0000
0000
0000
0000
0000
0000
0000
0000
0000
0000
0000
0000
0000
0000
0000
0000
0000
0000
0000
0000
0000
0000
0000
0000
0000
0000
0000
0000
0000
0000
0000
0000
0000
0000
0000
0000
0000
0000
0000
0000
0000
0000
0000
0000
0000
0000
0000
0000
0000
0000
0000
0000
0000
0000
0000
0000
0000
0000
0000
0000
0000
0000
0000
0000
0000
0000
0000
0000
0000
0000
0000
0000
0000
0000
0000
0000
0000
0000
0000
0000
0000
0000
0000
0000
0000
0000
0000
0000
0000
0000
0000
0000
0000
0000
0000
0000
0000
0000
0000
0000
0000
0000
0000
0000
0000
0000
0000
0000
0000
0000
0030
0000
0000
0000
0000
0000
0000
0000
0000
0000
0000
0000
0000
0000
0000
0000
0001
0000
0000
0000
0000
0000
0000
0000
0000
0000
0000
0000
0000
0000
0000
0000
0000
0000
0010
0000
0000
0000
0000
0000
0000
0000
0000
0000
0000
0000
0100
0000
0000
0000
0000
0000
0000
0000
0000
0000
0000
0000
0000
0000
0000
0000
0000
0000
,
2000
0000
3000
0000
,
0000
1000
0000
0000
0010
0000
0000
0000
0100
0000
0000
0000
0001
0000
0000
0010
0000
0000
0100
0000
0000
0000
0010
0000
0000
0000
0000
0001
0000
0000
1000
0000
0000
0010
0000
0000
0100
0000
0000
0000
0000
0000
0010
0000
0000
1000
0000
0000
,
0002
0000
0103
0001
1000
0010
0100
0001
,
0020
0000
0000
0000
0000
0000
0000
0000
0000
0000
0000
0000
0000
0000
0000
0000
0000
0000
0000
0000
0000
0000
0000
0000
0000
0000
0000
0000
0000
0000
0000
0000
0000
0000
0031
0000
0010
0000
0000
0000
0000
0001
0000
0000
1000
0000
0000
0000
,
0200
0000
0000
0000
0000
0000
0310
0001
,
1000
0100
0010
0001
1000
0010
0100
0001
,
0010
0100
0010
0001
0100
0010
1000
0010
,
0201
0000
0000
0000
0000
0000
0000
0300
,
0100
0000
0100
0001
1000
0001
0200
0320
,
0000
0000
0000
0000
0000
0000
0000
0000
0000
0000
1030
0000
0000
0100
0000
0000
0010
0000
0000
0001
0000
0000
0000
0200
0000
0000
0000
0000
0000
0000
0000
0000
0000
0000
0000
0000
0000
0000
0000
0300
0000
0000
0000
0000
0000
0000
0000
0000
,
0000
0000
0000
0100
0001
1000
0100
0010
,
0002
0000
0000
0000
0000
0000
0013
0100
1000
0001
0100
0010
1000
0100
1000
0001
,
0100
0000
0000
0010
0000
0000
1000
0000
0000
0100
0000
0000
0010
0000
0000
0000
0001
0000
0000
0000
0100
0000
0000
0000
0001
0000
0000
0000
0000
0000
1000
0000
0000
0000
0000
0000
0100
0000
0000
0000
0000
0000
0000
0000
0000
0000
0000
0000
,
0001
0000
0000
0000
0000
0000
0000
0000
0000
0000
0000
0000
0100
0000
0000
0000
0000
0000
0010
0000
0000
0000
0000
0000
1000
0000
0000
0000
0100
0000
0000
0000
1000
0000
0000
0000
0001
0000
0000
0100
0000
0000
0001
0000
0000
1000
0000
0000
,
0010
1000
0100
0010
0100
1000
0001
0100
0010
0100
0001
0010
0100
1000
0001
1000
,
0120
0000
0000
0000
0000
0130
0001
1000
0100
0020
0000
0000
0000
0031
1000
0010
,
0100
0001
0010
0100
1000
0001
0100
0001
1000
0100
0010
0100
1000
0001
0010
0100
,
0010
0000
0000
0001
0000
0000
1000
0000
0000
0010
0000
0000
1000
0000
0000
0001
0000
0000
0100
0000
0000
0010
0000
0000
0100
0000
0000
0000
0000
0001
0000
0000
0000
1000
0000
0000
0100
0000
0000
0010
0000
0000
0001
0000
0000
0100
0000
0000
,
0020
0000
0000
0000
0000
0000
0000
0000
0000
0000
0000
0000
0000
0000
0000
0000
0000
0000
0000
0000
0000
0000
0000
0000
0130
0001
1000
0000
0000
0000
0000
0010
0000
0000
0000
0000
1000
0000
0000
0000
0000
0000
0001
0000
0000
0000
0000
0000
,
0020
0000
0000
0000
0000
0000
0000
0000
0000
0000
0000
0000
0000
0130
0010
0100
,
1000
0002
0000
0000
0000
0000
0000
0000
0003
0000
0000
0000
0000
0000
0000
0000
,
1000
0000
0000
0000
0001
0000
0000
0000
0001
0000
0000
0000
0100
0000
0000
0000
0010
0100
0000
0000
0001
0000
0000
0000
0010
0000
0000
0000
0100
0000
0000
0000
,
0100
0100
1000
0001
0010
0010
0100
0100
,
1001
0010
0010
0010
1000
0010
0100
0001
,
1000
0000
0000
0100
0000
0000
0100
0000
0000
0100
0000
0000
0010
0000
0001
0000
1000
0000
0001
0000
0000
0100
0000
0000
,
0100
0100
0001
0010
0100
1000
0001
1000
,
1000
1000
0010
0100
0001
1000
0100
0010
,
0010
0010
0100
0010
1000
0010
0100
0001
,
0001
0000
0000
0001
0000
0000
0010
0000
0100
0000
1000
0000
0100
0000
0000
1000
0000
0000
1000
0000
0000
1000
0000
0000
,
0100
0000
0000
1000
0000
0000
0010
0000
0000
0100
0000
0000
0001
0000
1000
0000
0100
0000
0010
0000
0001
0000
0100
0000
,
0010
0000
1000
0000
0001
0000
0010
0000
0100
0000
0010
0000
1001
0000
0000
0100
0000
0000
0010
0000
0000
0100
0000
0000
,
0001
1000
0010
1000
0001
0100
0100
0100
,
0010
0000
1000
0000
0100
0000
1000
0000
0000
0001
0000
0000
0001
0000
0000
0001
0000
0000
0010
0000
0000
0100
0000
0000
,
1000
0000
0000
0010
0000
0000
0100
0000
0001
0000
1000
0000
0100
0000
0010
0000
0100
0000
0010
0000
0001
0000
1000
0000
,
0010
0000
1000
0000
0001
0000
0010
0000
0000
0100
0000
0000
1100
0000
0000
0100
0000
0000
0010
0000
0000
0001
0000
0000
,
1000
0000
0000
0001
0000
0000
0100
0000
0000
0010
0000
0000
0010
0000
0000
0010
0000
0000
1000
0000
0001
0000
0100
0000
,
0001
1000
1000
1000
0010
0100
0001
0100
,
0010
1000
1000
1000
0100
0010
0001
0100
,
0010
1000
1000
1000
0100
1000
0010
0100
,
0001
0000
0000
0010
0000
0000
0010
0000
0000
0010
0000
0000
0100
0000
0010
0000
0001
0000
0010
0000
0000
0100
0000
0000
,
0100
0000
0000
0100
0000
0000
0010
0000
0000
0001
0000
0000
0100
0000
0000
0010
0000
0000
1000
0000
0100
0000
0010
0000
,
0100
0000
1000
0000
0010
0000
1000
0000
0001
0000
1000
0000
0010
0000
0100
0000
0001
0000
1010
0000
0000
0100
0000
0000
,
1001
0100
0010
0001
1000
0001
0100
0010
,
0010
0000
0000
0010
0000
0000
0100
0000
0001
0000
0010
0000
0001
0000
0000
1000
0000
0000
1000
0000
0000
1000
0000
0000
,
0001
0000
0000
1000
0000
0000
0010
0000
0000
1000
0000
0000
0100
0000
0010
0000
0001
0000
0100
0000
0010
0000
1000
0000
,
0010
0000
0100
0000
0010
0000
1000
0000
0001
0000
0010
0000
0100
0000
0000
1000
0000
0000
1001
0000
0000
1000
0000
0000
,
0100
1000
0010
0100
0001
0010
0010
0010
,
0001
0000
1000
0000
0100
0000
1000
0000
0000
0001
0000
0000
0001
0000
0000
0001
0000
0000
0100
0000
0000
0010
0000
0000
,
1000
0000
0000
0001
0000
0000
0110
0000
0001
0000
1000
0000
0010
0000
1000
0000
0100
0000
0010
0000
0100
0000
1000
0000
,
0001
0100
0010
0100
0010
1000
0100
0010
0001
0100
0010
1000
,
0001
0010
0100
0010
0001
1000
0001
0100
0001
0010
0100
1000
,
0010
0000
1000
0000
0001
0000
1010
0000
0000
0100
0000
0000
0001
0000
0000
0100
0000
0000
0010
0000
0000
1000
0000
0000
,
0100
0000
0000
0010
0000
0000
0001
0000
0000
1000
0000
0000
1000
0000
0000
1000
0000
0000
0001
0000
0010
0000
0100
0000
,
0010
0001
0001
0001
1000
0100
0001
0100
,
0010
1000
0001
0010
0100
1000
0001
0100
0001
1000
0100
0010
,
0001
0010
0100
1000
0010
1000
0001
1000
0100
0010
0100
1000
,
0100
0010
0001
0100
0001
1000
0001
0010
0001
1000
0100
0010
,
1001
0000
0000
0000
;
