#TITLE:Saria's Song;
#SUBTITLE:Zelda Techno Remix;
#ARTIST:Nintendo;
#TITLETRANSLIT:;
#SUBTITLETRANSLIT:;
#ARTISTTRANSLIT:;
#CREDIT:;
#BANNER:;
#BACKGROUND:;
#LYRICSPATH:;
#CDTITLE:;
#MUSIC:Nintendo - Zelda - Saria's Song (Techno Remix).mp3;
#OFFSET:2.360;
#SAMPLESTART:77.940;
#SAMPLELENGTH:14.980;
#SELECTABLE:YES;
#BPMS:0.000=200.000,152.000=200.000,156.000=200.000,292.000=200.000,296.000=200.000,360.000=200.000,372.000=200.000,484.000=200.000;
#STOPS:;
#BGCHANGES:;
// cache tags:
#FIRSTBEAT:8.000;
#LASTBEAT:638.875;
#SONGFILENAME:Songs/toune 4/Zelda/Saria song.sm;
#HASMUSIC:1;
#HASBANNER:0;
#MUSICLENGTH:191.652;
// end cache tags

//---------------dance-single - ----------------
#NOTES:
     dance-single:
     :
     Hard:
     11:
     1.000,1.000,0.668,1.000,0.162,929.000,128.000,311.000,136.000,26.000:

0000
0000
0000
0000
,
0000
0000
0000
0000
,
2000
0010
0010
3010
0200
0001
0001
0301
,
2000
0100
0100
3100
0020
0001
0032
0023
,
0032
1000
1000
1003
0020
0100
0230
0320
,
2030
0001
0001
3001
0020
0100
0100
0130
,
2000
0010
0010
3010
0200
0001
0001
0301
,
2000
0100
0100
3100
0020
0001
0032
0023
,
0032
1000
1000
1003
0020
0100
0230
0320
,
2030
0001
0001
3001
0020
0100
0100
0130
,
1000
0020
1030
0020
0130
0002
0103
0002
,
1003
0200
1300
0200
0310
0002
0013
0002
,
1003
0020
1030
0020
0130
0002
0103
0002
,
1003
0200
1300
0200
0310
0002
0013
0002
,
1003
0020
1030
0020
0130
0002
0103
0002
,
1003
0200
1300
0200
0310
0002
0013
0002
,
2003
3200
0320
0030
2000
3200
0320
0030
,
0200
0320
0032
0003
0200
0320
0032
0003
,
0002
0023
0030
0002
2003
3002
0003
2000
,
3200
2300
3200
2300
3200
0300
0022
0033
,
0100
1000
0010
00M0
0100
1000
0010
00M0
,
0100
1000
0010
01M0
0001
0000
0001
0010
,
0100
1000
0010
00M0
0000
0000
0010
0100
,
00M1
0000
01M0
0000
00M0
0000
0000
MM00
1M00
MM00
0000
0000
0000
0000
0000
0000
,
0010
0001
0100
0M00
0010
0001
0100
0M00
,
0010
0001
0100
0010
1000
M000
0010
0100
,
0001
0010
0100
0M00
0000
0000
0100
1000
,
0M10
0000
M100
0000
M000
0000
M000
00MM
M0M1
00MM
0000
0000
0000
0000
0000
0000
,
1100
1100
1100
0000
0101
0101
0101
0000
,
1001
1001
1001
0000
0000
0000
0000
0000
,
1010
1010
1010
0000
0011
0011
0011
0000
,
1001
1001
0110
0000
0000
0000
0000
0000
,
1001
1001
1001
0000
0110
0110
0110
0000
,
1001
1001
1001
0000
0000
0000
0000
0000
,
2000
0200
3002
0320
2003
0230
3002
0320
,
2003
0000
0230
0000
3002
0000
0320
0000
2003
0000
0230
0000
3301
0010
0000
0000
,
1000
0100
0000
0000
0000
0000
1000
0000
0100
0000
0010
0000
0000
0000
0100
0000
,
1000
0100
0010
0001
0100
0000
1MM1
0000
,
1000
0100
0000
1000
0100
0010
0000
0100
,
1000
0100
0010
0001
0100
0010
0100
0001
,
1000
0100
0000
1000
0100
0010
0000
0100
,
1000
0100
0010
0010
0100
1000
0001
0100
,
0010
1000
0000
0100
0010
0100
0000
1000
,
0100
0010
0001
1000
0010
0100
0010
0100
,
0001
0010
0000
0001
0010
0001
0000
1000
,
0100
0010
0001
0100
0010
0100
0001
1000
,
0100
1000
1100
1000
0000
0001
0101
0001
,
0000
0100
1100
0100
0000
0010
0110
0010
,
0000
0110
0010
0110
0000
1100
0100
1100
,
0000
0101
0100
0101
0000
1100
1000
1100
,
0000
0001
0101
0001
0000
1000
1001
1000
,
0000
0100
0110
0100
0000
0001
1001
0001
,
2000
0200
3020
0302
2030
0203
3020
0302
,
2030
0000
0203
0000
3020
0000
0302
0000
2030
0000
0203
0000
3310
0001
0000
0000
,
0001
0010
0000
0000
0000
0000
1000
0000
0001
0000
0010
0000
0000
0000
0001
0000
,
1000
0010
0100
0001
1000
0000
1MM1
0000
,
0002
0003
20M0
3000
0002
0003
M020
0030
0002
0003
20M0
3000
0020
0030
M200
0300
,
0002
0003
20M0
3000
0200
0300
M020
0030
0002
0003
2M00
3000
0020
0030
020M
0300
,
0002
0003
20M0
3000
0200
0300
200M
3000
0020
0030
200M
3000
0200
0300
20M0
3000
,
0020
0030
2M00
3000
0002
0003
M020
0030
0002
0003
02M0
0300
0002
0003
M020
0030
,
0002
0003
20M0
3000
0020
0030
020M
0300
0020
0030
M200
0300
0002
0003
20M0
3000
,
0002
0003
2M00
3000
0200
0300
M02M
0030
0200
0300
20M0
3000
0002
0003
M200
0300
,
0020
0030
2M00
3000
0002
0003
M020
0030
0002
0003
M020
0030
0002
0003
02M0
0300
,
0002
0003
02M0
0300
0002
0003
M020
0030
0002
0003
2M00
3000
0020
0030
020M
0300
,
0002
0203
0320
2030
3200
0300
0000
0000
0200
2300
3020
0230
0302
0003
0000
0000
,
0002
2003
3002
0023
0230
0300
0000
0000
0000
0000
0000
0000
0000
0000
0000
0000
,
2000
3200
0320
0032
2003
3000
0000
0000
2000
3002
0023
0230
2300
3000
0000
0000
,
2000
3020
0230
0320
2030
3000
0000
0000
0000
0000
0000
0000
0000
0000
0000
0000
,
2000
3200
0320
0230
0320
0030
0000
0000
0200
0320
0032
0023
0032
0003
0000
0000
,
0002
0203
0320
2030
3020
0030
0000
0000
0000
0000
0000
0000
0000
0000
0000
0000
,
2000
3200
0320
0032
2003
3200
0320
0032
2003
3200
0320
0032
0203
0320
2030
3002
,
0203
0320
2030
3002
0203
0320
2030
3002
0203
0320
2030
3200
0320
0032
0003
0000
,
0002
0023
0030
0000
0000
0000
0001
0000
1000
0000
0001
0000
0000
0000
0100
0000
,
0010
0100
2000
0010
3010
0000
1001
0000
,
1100
M100
M100
0000
0101
0M01
0M01
0000
,
1100
M100
1000
0010
0100
0000
0101
0M01
,
1000
0100
0010
0000
0000
0000
1100
M010
,
0100
0001
0000
0000
0101
0M0M
0000
0000
,
1010
M010
M010
0000
0101
010M
010M
0000
,
1010
M010
0100
0001
1000
0000
1100
M100
,
0010
0001
0100
0000
0000
0000
0011
010M
,
0010
1000
0000
0000
1001
M00M
0000
0000
,
2000
0000
0000
3000
2000
0000
0000
3000
2000
0000
0000
0000
3000
0000
0000
0000
0002
0000
0000
0003
0002
0000
0000
0003
0002
0000
0000
0000
0003
0000
0000
0000
,
2000
0000
0000
3000
2000
0000
0000
3000
2000
0000
0000
0000
3000
0000
0000
0000
0000
0000
0000
0000
0000
0000
0000
0000
0000
0000
0000
0000
0000
0000
0000
0000
,
2002
0000
0000
0003
0002
0000
0000
0003
0002
0000
0000
0000
3003
0000
0000
0000
2002
0000
0000
3000
2000
0000
0000
3000
2000
0000
0000
0000
3003
0000
0000
0000
,
0220
0000
0000
0030
0020
0000
0000
0030
0020
0000
0000
0000
0330
0000
0000
0000
0000
0000
0000
0000
0000
0000
0000
0000
0000
0000
0000
0000
0000
0000
0000
0000
,
2000
0000
0000
3000
2000
0000
0000
3000
2000
0000
0000
0000
3000
0000
0000
0000
0200
0000
0000
0300
0200
0000
0000
0300
0200
0000
0000
0000
0300
0000
0000
0000
,
0002
0000
0000
0003
0002
0000
0000
0003
0002
0000
0000
0000
0003
0000
0000
0000
0000
0000
0000
0000
0000
0000
0000
0000
0000
0000
0000
0000
0000
0000
0000
0000
,
2000
0000
0000
3000
2000
0000
0000
3000
0200
0000
0000
0300
0200
0000
0000
0300
0020
0000
0000
0030
0020
0000
0000
0030
0002
0000
0000
0003
0002
0000
0000
0003
,
0200
0000
0000
0300
0200
0000
0000
0300
0020
0000
0000
0030
0020
0000
0000
0030
2000
0000
0000
3000
2000
0000
0000
3000
0002
0003
0002
0003
0000
0000
0000
0000
,
2000
3000
2000
3000
0000
0000
0000
0000
0000
0000
0000
0000
0010
0000
0000
0000
0100
0000
0000
0000
0010
0000
0000
0000
0000
0000
0000
0000
0001
0000
0000
0000
,
1000
0010
0100
0001
1000
0000
1MM1
0000
,
1000
0100
0001
0000
1000
0100
0001
0000
,
1000
0100
0001
0010
1000
0000
1000
0010
,
1000
0001
0100
0000
0000
0000
1000
0001
,
0100
0001
0000
0000
0001
0000
0000
0000
,
0001
0100
1000
0000
0001
0100
1000
0000
,
0001
0100
1000
0010
0001
0000
1000
0100
,
0010
0100
1000
0000
0000
0000
1000
0001
,
0100
0010
0000
0000
0001
0000
0000
0000
,
0010
1100
1100
0000
0010
0101
0101
0000
,
0010
1100
1100
0000
0010
0101
0101
0000
,
1000
0101
0101
0000
0001
1100
1100
0000
,
0001
1010
1010
0000
1000
0011
0011
0000
,
0100
1001
1001
0000
0010
1001
1001
0000
,
1000
0110
0110
0000
1001
1001
1010
0000
,
1100
0101
1100
0101
1100
1001
1100
1001
,
1100
0000
1001
0000
0101
0000
1001
0000
0101
0000
1001
0000
1000
0100
0000
0000
,
0010
0001
0000
0000
0000
0000
1000
0000
0100
0000
1000
0000
0000
0000
0001
0000
,
0010
0001
0010
0001
0010
0000
1MM1
0000
,
0100
1000
0000
1000
0100
0010
0000
0100
,
0010
1000
0000
1000
0001
0010
0100
1000
,
0010
0100
0000
0010
1000
0010
0000
0100
,
0010
1000
0000
0010
0100
1000
1000
0000
,
1000
0001
0000
1000
0001
0010
0000
0001
,
1000
0010
0000
0100
0001
1000
0100
0010
,
0100
1000
0000
1000
0010
1000
0000
1000
,
0010
1000
0000
0001
1000
0100
0010
0001
,
1000
0200
0010
0310
0001
2000
0100
3100
,
0010
0002
1000
1003
0100
0020
0001
0031
,
0100
2000
0100
3100
0010
2000
0001
3001
,
0010
0002
1000
1003
0100
2000
0001
3001
,
0100
0020
1000
1030
0010
0200
0010
0310
,
0100
0002
0010
0013
0100
0020
0001
0031
,
0100
0020
1000
1030
0010
0010
0100
0000
,
0001
1000
0001
0010
0001
0001
0001
0000
,
1000
0010
0000
0100
0010
1000
0000
1000
,
0010
0100
0001
1000
0100
0000
1MM1
0000
,
4000
3004
0403
0300
4000
3004
0403
0300
,
4000
3004
0403
0340
4030
3000
0004
4003
,
3400
0340
0034
0003
000M
00M0
4M00
3400
,
0304
0000
00M0
0000
0403
0000
00M0
0000
0300
0000
00M0
0000
0000
0000
00M0
0000
4000
0000
0MMM
0MMM
3MMM
0000
00M0
0000
00M0
0000
0000
0000
0000
0000
0000
0000
,
4000
0000
0040
0030
0040
0000
3030
0000
0004
0000
0040
0030
0040
0000
0033
0000
,
4000
3004
4003
3040
0430
0300
0400
4300
,
3400
0304
0043
0030
0000
0000
0040
4030
,
3040
0034
0003
0000
0004
0000
0003
0000
,
4004
0000
0000
3003
4400
0000
0000
3300
,
0404
0000
0000
0303
0000
0000
0000
0000
,
0440
0000
0000
0330
4004
0000
0000
3003
,
4400
0000
3344
0033
0000
0000
0000
0000
,
4400
3344
4433
3300
0404
4343
3434
0303
,
4004
3443
4334
3003
0000
0000
0000
0000
,
4400
0304
0043
0034
,
3040
0000
0000
0000
4030
0000
0000
0000
3400
0000
0000
0000
0303
4000
3000
0000
,
4000
3004
0003
0000
1000
0000
0100
0000
1000
0000
0100
0000
0010
0000
0100
0000
,
0010
0001
0011
0011
0011
0000
1MM1
0000
,
1000
0001
0000
1000
0100
0001
0000
1000
,
0100
0010
0000
0001
1000
0010
0100
0001
,
1000
0100
0000
0100
1000
0100
0000
0100
,
1000
0010
0000
0010
1000
0100
0010
0000
,
0100
0010
0000
0010
0100
0001
0000
0001
,
0010
0100
0000
0100
1000
0010
0100
0001
,
1000
0100
0000
0100
0010
0100
0000
0100
,
1000
0010
0000
0010
0100
0001
0001
1000
,
0100
0010
0100
0100
2000
0010
0010
3010
,
0200
0001
0001
0301
2000
0100
0100
3100
,
0020
0001
0001
0031
2000
0010
0010
3010
,
0200
0001
0001
0301
2000
0100
0100
3100
,
1001
M0M0
M0M0
MMMM
00M0
00M0
00M0
0000
,
0M00
0000
0000
0000
0M00
0000
0000
0000
0M00
0000
0000
0000
0M00
0000
0000
0000
0M00
MMM0
MMM0
MMM0
0M00
0M00
0M00
0M00
0000
0000
0000
0000
0000
0000
0000
0000
;
