#TITLE:BRILLIANT O2U;
#SUBTITLE:;
#ARTIST:DoubtPhase;
#TITLETRANSLIT:;
#SUBTITLETRANSLIT:;
#ARTISTTRANSLIT:;
#CREDIT:;
#BANNER:bo2u.png;
#BACKGROUND:bo2u-bg.png;
#LYRICSPATH:;
#CDTITLE:cdtitle.png;
#MUSIC:bo2u.mp3;
#OFFSET:-0.030;
#SAMPLESTART:25.600;
#SAMPLELENGTH:12.000;
#SELECTABLE:YES;
#DISPLAYBPM:*;
#BPMS:0.000=149.500,8.000=150.000,31.000=300.000,225.000=150.000,329.000=600.000,391.000=1200.000;
#STOPS:;
#BGCHANGES:;
// cache tags:
#FIRSTBEAT:15.500;
#LASTBEAT:395.000;
#SONGFILENAME:Songs/Japanese Collaboration Mix/bo2u/bo2u.sm;
#HASMUSIC:1;
#HASBANNER:1;
#MUSICLENGTH:99.273;
// end cache tags

//---------------dance-single - ----------------
#NOTES:
     dance-single:
     :
     Challenge:
     12:
     0.911,1.000,0.665,0.201,0.302,547.000,66.000,20.000,0.000,0.000:
0000
0000
0000
0000
,
0000
0000
0000
0000
,
0000
0000
0000
0000
,
0000
0000
0000
0000
0000
0000
0000
0010
,
0100
0000
0100
0000
0000
0100
0000
0100
0010
0000
0010
0000
0000
0010
0000
0010
,
1000
0000
1000
0000
0000
0001
0000
0001
0010
0000
0000
0000
2002
0000
3003
0000
,
0010
0000
0010
0000
0000
0010
0000
0010
0100
0000
0100
0000
0000
0100
0000
0100
,
0010
0000
0110
0000
0000
0110
0000
0100
0010
0000
1001
0000
0220
0000
0000
0000
,
0330
0000
1000
0100
0010
0001
1000
0100
,
0010
0001
1000
0100
0010
0100
1000
0100
,
0010
0001
1000
0010
0100
0001
1000
0010
,
0100
0001
1000
0010
0100
0010
1000
0100
,
0010
0001
2000
0000
3001
0000
0120
0000
,
0031
0210
1300
1001
,
0110
0110
1001
2010
,
3100
0000
0012
0000
0103
0000
0001
0010
,
0100
0001
0100
0000
0100
0010
0000
0010
,
0100
0000
0100
0010
0000
0010
0100
0010
,
0100
0000
0010
0000
0010
0100
0000
0100
,
0010
0000
0010
0100
0000
0001
0010
0001
,
0100
0001
1000
0000
1000
0001
0000
0001
,
1000
0000
1000
0001
0000
0001
1000
0001
,
1000
0000
0001
0000
0001
1000
0000
1000
,
0001
0000
0001
1000
0010
0000
0110
0000
,
1001
0010
0010
0010
,
0010
0000
0100
0100
0000
0010
0000
1000
,
0100
0010
0001
0000
1000
0000
0001
0001
,
0000
2002
0000
0000
0000
0000
0000
0000
,
3003
0010
0001
0100
,
1000
0000
0110
0000
0001
0100
0000
0010
,
0100
0010
0100
0000
0100
0000
0001
0001
,
0000
0001
0000
0100
0010
0100
0010
0000
,
0001
0000
0100
0010
0001
0010
0100
1000
,
0100
0000
0001
0010
0100
1000
0100
0010
,
0001
0000
1000
0100
0010
0001
0010
0100
,
1000
0100
0010
0001
0010
0100
1000
0100
,
0010
0000
0001
0010
0001
0010
0001
0010
,
0001
0000
1000
0100
1000
0100
1000
0100
,
1000
0000
0010
0100
0010
0100
0001
1000
,
0001
1000
0010
0100
0010
0100
0001
1000
,
0001
0000
0100
0010
0100
0001
1000
0010
,
0100
0010
0100
0001
0010
0100
0010
0001
,
0010
0100
1000
0001
0010
0100
1000
0010
,
1000
0100
0001
0100
0010
0001
0010
0001
,
0100
0010
1000
0001
0010
0001
0100
0010
,
1000
0100
0010
1000
0001
0100
0010
0001
,
0010
0100
0010
0001
1000
0010
1000
0100
,
0010
0001
1000
0010
0100
0010
0100
0001
,
1000
0010
1000
0000
1000
0010
1000
0001
,
1000
0000
1000
0001
1000
0010
1000
0000
,
1000
0001
1000
0010
1000
0100
1000
0010
,
1000
0002
1000
0000
1000
0000
1000
0000
,
1003
0000
1000
0100
1000
0000
1000
0001
,
1000
0000
1000
0010
1000
0010
1000
0000
,
1000
0001
1000
0000
1010
0000
1000
0001
,
1000
0001
1000
0010
1000
0010
1000
0000
,
1001
0000
0000
0000
0100
0010
0100
0010
0100
0010
0100
0010
0100
0010
0100
0010
,
0100
0010
0100
0010
0100
0010
0100
0010
0100
0010
0100
0010
0100
0010
0100
0010
,
0100
0010
0100
0010
0100
0000
0000
0000
0100
0000
0000
0000
0000
0000
0000
0000
,
0100
0000
0100
0000
,
1001
0010
0010
0000
,
0010
0000
0010
0000
,
1001
0000
0000
0000
1000
0100
0010
0001
1000
0100
0010
0100
1000
0001
0010
0100
,
0001
0100
1000
0100
0001
0100
0010
0100
0010
0100
1000
0100
0001
0100
0010
0100
,
1000
0100
0010
0001
1000
0100
1000
0100
0010
0001
0010
0001
1000
0100
1000
0100
,
0010
0001
0010
0001
1000
0100
0010
0001
1000
0100
0010
0001
1000
0100
0010
0001
,
2000
0000
0000
3000
0110
0000
0000
0000
0010
0000
0000
0000
1100
0000
0000
0000
,
0001
0110
0001
0110
,
1000
1001
1010
0110
,
0110
1010
1010
1001
,
1001
0000
1001
0100
1001
0000
0101
1000
,
0110
0000
1010
0100
0011
1000
0110
1000
,
0101
0000
1001
0100
1010
0000
1001
0010
,
0101
0000
0000
0000
0120
0000
0000
0000
1030
0000
0000
0000
0001
0010
0100
0010
,
0001
0110
1001
2002
0000
3003
0110
0000
,
0000
1001
1001
1001
0110
1001
1001
1001
,
1001
1001
2002
0000
0000
0000
0000
0000
,
0000
0000
0000
0000
,
0000
0000
0000
0000
,
0000
0000
0000
0000
,
0000
0000
0000
0000
,
0000
0000
0000
0000
,
0000
3003
0100
0000
0001
0000
0010
0000
,
0001
0100
0010
1000
,
0010
0100
0001
0010
,
0001
0100
0010
1000
,
0010
0100
0001
0100
,
0001
1000
0010
1000
,
0010
0100
0001
0010
,
0001
1000
0010
1000
,
0100
0010
0001
1000
,
0010
0100
0001
0010
,
0100
1000
0010
0100
,
0001
0010
0100
1000
,
0010
0100
0000
0110
,
0000
0110
0000
0110
,
0000
0110
0100
0000
,
0110
0010
0000
2002
,
0000
0000
0000
3003
;
