#TITLE:Lifeguard;
#SUBTITLE:;
#ARTIST:DJ Myosuke;
#TITLETRANSLIT:;
#SUBTITLETRANSLIT:;
#ARTISTTRANSLIT:;
#CREDIT:;
#BANNER:../bn.png;
#BACKGROUND:../bg.png;
#LYRICSPATH:;
#CDTITLE:;
#MUSIC:DJ Myosuke - Lifeguard.ogg;
#OFFSET:0.764;
#SAMPLESTART:71.780;
#SAMPLELENGTH:17.960;
#SELECTABLE:YES;
#DISPLAYBPM:215.000;
#BPMS:0.000=215.000,96.000=216.357,100.000=215.000;
#STOPS:;
#BGCHANGES:;
// cache tags:
#FIRSTBEAT:4.000;
#LASTBEAT:659.500;
#SONGFILENAME:Songs/Cirque du Zonda/Zaia - Lifeguard/DJ Myosuke - Lifeguard.sm;
#HASMUSIC:1;
#HASBANNER:1;
#MUSICLENGTH:190.111;
// end cache tags

//---------------dance-single - Zaia 17.0----------------
#NOTES:
     dance-single:
     Zaia 17.0:
     Challenge:
     17:
     1.000,1.000,0.058,0.121,1.000,1755.000,11.000,23.000,32.000,0.000:
0000
0000
0000
0000
,
1000
0010
0100
0010
1000
0001
1000
0100
,
1000
0010
0100
0001
1000
0001
0010
0100
,
0010
0001
0100
0010
1000
0001
1000
0100
,
1000
0010
0100
0001
0010
0001
1000
0010
,
1000
0100
0010
0001
0100
0001
1000
0100
,
0010
0100
1000
0010
0100
0001
0010
0001
,
0100
0010
1000
0100
0010
0100
1000
0010
,
0200
0300
0002
0003
0020
0030
0200
0300
2000
3000
0020
0030
0200
0300
0200
0300
,
0001
1000
0100
0010
0001
1000
0001
0100
,
0001
0010
0100
1000
0001
1000
0010
0100
,
0010
1000
0100
0010
0001
1000
0001
0100
,
0001
0010
0100
1000
0010
1000
0001
0010
,
0001
0100
0010
1000
0100
1000
0001
0100
,
0010
0100
0001
0010
0100
1000
0010
1000
,
0100
0010
0001
0100
0010
0100
0001
0010
,
0200
0300
2000
3000
0002
0003
2000
3000
0020
0030
0200
0300
0002
0003
0002
0003
,
0100
0001
1000
0100
,
1000
0001
0100
0010
,
1000
0001
0010
0001
,
1000
0100
1000
0010
,
0100
0001
0100
0010
1000
0001
1000
0100
,
0010
0100
1000
0001
0100
0010
1000
0001
,
0200
0300
0000
0000
0000
0000
0000
0000
0000
0000
0000
0000
0000
0000
0000
0000
0220
0000
0330
0000
0000
0000
0000
0000
0000
0000
0000
0000
0000
0000
0000
0000
0220
0000
0000
0000
0330
0000
0000
0000
0000
0000
0000
0000
0000
0000
0000
0000
0220
0000
0000
0000
0000
0000
0330
0000
0000
0000
0000
0000
0000
0000
0000
0000
,
1000
0000
0000
0000
,
0001
0100
0010
1000
0001
1000
0010
0100
0001
1000
0001
0100
0001
0010
0100
1000
,
0001
1000
0100
0010
0100
1000
0001
0100
0001
1000
0100
1000
0001
0100
0010
0100
,
0001
1000
0100
0010
0100
1000
0001
1000
0100
0010
0001
1000
0010
0100
0001
1000
,
0001
0010
0100
1000
0001
1000
0100
0010
0001
1000
0010
0100
0001
1000
0100
0010
,
0001
0100
0010
1000
0001
1000
0010
0100
0001
1000
0001
0100
0001
0010
0100
1000
,
0001
1000
0100
0010
0100
1000
0001
0100
0001
1000
0100
1000
0001
0100
0010
0100
,
0001
1000
0100
0010
0100
1000
0001
1000
0100
0010
0001
1000
0010
0100
0001
1000
,
0001
0010
0100
1000
0001
1000
0100
0010
0001
1000
0001
1000
0010
1000
0001
0010
,
0001
1000
0100
1000
0001
1000
0100
0010
0001
1000
0001
0010
0001
0100
0010
1000
,
0001
1000
0010
0100
0010
1000
0001
0010
0001
1000
0010
1000
0001
0010
0100
0010
,
0001
1000
0010
0100
0010
1000
0001
1000
0010
0100
0001
1000
0100
0010
0001
1000
,
0001
0100
0010
1000
0001
1000
0010
0100
0001
1000
0100
0010
0001
1000
0010
0100
,
0001
0010
0100
1000
0001
1000
0100
0010
0001
1000
0001
0010
0001
0100
0010
1000
,
0001
1000
0010
0100
0010
1000
0001
0010
0001
1000
0010
1000
0001
0010
0100
0010
,
0001
1000
0010
0100
0010
1000
0001
1000
0010
0100
0001
1000
0100
0010
0001
1000
,
0010
0000
0000
0000
,
0100
0000
0001
0000
1000
0000
0001
0000
0010
0000
0100
0000
0000
0000
1000
0100
,
0010
0001
1000
0001
0100
0010
1000
0100
,
0010
0000
0100
0000
1000
0000
0001
0000
1000
0000
0010
0000
0000
0000
0100
0001
,
1000
0100
0010
0001
0100
0001
1000
0010
,
0100
0000
0001
0000
0010
0000
0100
0000
0010
0000
0001
0000
0000
0000
1000
0001
,
0010
0100
0010
0001
1000
0001
0100
0010
,
1000
0000
0001
0000
0100
0000
0001
0000
1000
0000
0100
0000
0000
0000
0010
0100
,
1000
0000
0001
0000
0001
0000
0010
0000
0100
0000
1000
0010
0100
0000
0001
0100
,
0010
1000
1010
0010
0100
0001
1001
1000
,
0100
0010
0110
0100
1000
0001
0101
0100
,
0010
1000
1010
0010
0100
0001
1001
1000
,
0100
0010
0011
0001
1000
0010
1010
1000
,
0001
1000
0001
1000
,
0001
1000
0001
1000
,
0001
0100
0010
1000
0001
0100
0010
1000
,
0001
0100
0001
1000
0001
0010
0100
1000
0001
0100
0010
0100
0001
1000
0100
0010
,
0001
1000
0010
1000
0001
0010
0001
1000
,
0010
0100
0001
1000
0100
0010
0001
1000
,
0001
0100
0010
0100
0001
1000
0100
1000
,
0001
0100
0001
1000
0100
0010
0100
1000
,
0001
0000
0100
0000
0010
0000
0100
0000
0001
0000
1000
0010
0100
0000
0001
1000
,
0001
0000
0010
0000
0100
0000
0010
0000
0001
0000
0100
0010
1000
0000
0001
0010
,
0001
0000
1000
0000
0100
0000
0010
0000
0100
0000
1000
0001
0100
0000
0010
0100
,
0010
0000
0000
0000
,
1000
0100
0010
0100
1000
0001
1000
0010
0100
0001
1000
0100
1000
0001
1000
0010
,
0100
0001
0100
0010
1000
0001
0010
0001
1000
0100
1000
0001
0010
0100
1000
0001
,
0100
0010
1000
0001
1000
0001
0010
0100
1000
0001
0010
0001
1000
0010
0100
0001
,
0010
0001
1000
0001
0100
0010
1000
0001
1000
0001
0100
0010
1000
0001
0010
0100
,
1000
0001
1000
0001
0100
0010
1000
0010
0100
0001
1000
0010
1000
0100
0010
0001
,
1000
0001
0010
0100
0010
0001
1000
0010
1000
0001
0010
0001
1000
0010
1000
0001
,
0010
0100
1000
0001
0100
0001
1000
0001
0010
0100
1000
0001
0100
0010
1000
0001
,
1000
0100
0010
0001
1000
0010
1000
0001
0010
0100
1000
0001
0100
0010
1000
0001
,
0100
0010
0100
0010
1000
0001
1000
0100
0010
0001
1000
0010
1000
0001
0010
0001
,
1000
0001
0100
0010
1000
0001
0010
0001
1000
0001
1000
0010
0100
0001
1000
0100
,
1000
0001
1000
0010
0100
0001
1000
0010
1000
0001
0010
0001
1000
0100
1000
0001
,
0010
0001
0100
0010
0100
0001
1000
0100
1000
0001
1000
0010
0100
0001
1000
0100
,
0010
0001
1000
0010
1000
0001
0010
0100
1000
0001
1000
0010
0100
0001
0010
0100
,
1000
0010
0100
0001
1000
0100
1000
0001
0100
0010
1000
0100
0010
0001
0100
0010
,
1000
0100
0010
0100
1000
0001
1000
0010
0100
0010
1000
0001
0010
0100
1000
0001
,
1000
0010
0100
0001
1000
0010
1000
0001
0010
0100
1000
0001
0100
0000
0000
0000
,
0010
0000
1000
0000
0001
0000
1000
0000
0100
0000
0010
0100
1000
0000
0001
0100
,
0010
0000
1000
0000
0001
0000
0010
0000
0100
0000
0010
0001
1000
0000
0010
1000
,
0001
0000
0010
0000
0001
0000
0100
0000
0010
0000
1000
0100
0010
0000
0001
1000
,
0010
0000
0100
0000
0001
0000
0100
0000
0010
0000
1000
0001
0010
0000
0001
1000
,
0010
0000
1000
0000
0001
0000
1000
0000
0100
0000
0010
0100
1000
0000
0001
0100
,
0010
0000
1000
0000
0001
0000
0100
0000
0010
0000
0100
0001
1000
0000
0100
1000
,
0001
0000
0010
0000
0001
0000
0100
0000
0010
0000
1000
0010
0100
0000
0001
0010
,
0100
0000
1000
0000
1000
0000
0000
0000
0001
0000
1000
0010
1000
0000
0001
0010
,
0001
0000
1000
0000
0100
0000
1000
0000
0010
0000
0100
0010
1000
0000
0001
0010
,
0100
0000
1000
0000
0001
0000
0100
0000
0010
0000
0100
0001
1000
0000
0100
1000
,
0001
0000
0100
0000
0001
0000
0010
0000
0100
0000
1000
0010
0100
0000
0001
1000
,
0100
0000
0010
0000
0001
0000
0010
0000
0100
0000
1000
0001
0100
0000
0001
1000
,
0100
0000
1000
0000
0001
0000
1000
0000
0010
0000
0100
0010
1000
0000
0001
0010
,
0100
0000
1000
0000
0001
0000
0010
0000
0100
0000
0010
0001
1000
0000
0010
1000
,
0001
0000
0100
0000
0001
0000
0010
0000
0100
0000
1000
0100
0010
0000
0001
1000
,
0010
0000
0100
0000
0100
0000
0000
0000
0010
0000
1000
0001
1000
0000
0010
0100
,
0001
0000
0000
0000
,
0000
0000
0000
0000
,
0000
0000
0000
0000
,
0000
0000
0000
0000
,
0000
0000
0000
0000
,
0000
0000
0000
0000
,
0000
0000
0000
0000
,
0000
0000
0000
0000
,
1000
0001
0010
0100
0010
0001
1000
0001
0100
0010
1000
0001
0010
0001
1000
0010
,
0100
0001
1000
0001
0100
0010
1000
0001
1000
0100
1000
0001
0010
0100
1000
0001
,
1000
0010
0100
0001
0010
0100
1000
0001
1000
0010
0100
0001
0010
0100
1000
0001
,
1000
0100
0010
0100
1000
0001
1000
0001
0100
0010
1000
0001
1000
0100
0010
0100
,
1000
0001
0010
0100
1000
0001
0100
0010
0100
0001
1000
0100
1000
0001
0100
0001
,
1000
0100
0010
0001
1000
0001
0100
0010
0100
0001
1000
0100
1000
0001
0100
0010
,
1000
0100
0010
0001
1000
0001
1000
0010
0100
0001
0010
0100
1000
0001
1000
0100
,
0010
0100
1000
0001
1000
0010
0100
0001
1000
0001
0010
0100
1000
0100
0010
0001
,
1000
0010
0100
0001
0010
0001
1000
0001
1000
0100
0010
0001
0100
0010
1000
0001
,
1000
0010
0100
0001
0010
0100
1000
0001
1000
0001
0100
0010
0100
0001
1000
0100
,
1000
0010
0100
0001
0010
0001
1000
0001
1000
0100
0010
0001
0100
0010
1000
0001
,
1000
0010
0100
0001
0010
0100
1000
0001
1000
0001
0100
0010
0100
0001
1000
0010
,
1000
0100
0010
0001
0100
0001
1000
0001
1000
0010
0100
0001
0010
0100
1000
0001
,
1000
0100
0010
0001
0100
0010
1000
0001
1000
0001
0010
0100
0010
0001
1000
0010
,
1000
0100
0010
0001
0100
0001
1000
0001
1000
0010
0100
0001
0010
0100
1000
0001
,
1000
0100
0010
0001
0100
0010
1000
0001
1000
0001
0010
0100
0010
0001
1000
0010
,
1000
0100
0010
0001
1000
0001
1000
0010
1000
0100
0010
0001
1000
0001
1000
0010
,
1000
0100
0010
0001
1000
0001
1000
0010
1000
0001
0100
0001
1000
0100
0010
0001
,
1000
0010
0100
0001
1000
0001
1000
0100
1000
0010
0100
0001
1000
0001
1000
0100
,
1000
0010
0100
0001
1000
0001
1000
0100
1000
0001
0100
0001
1000
0100
0010
0001
,
1000
0010
0100
0001
0010
0100
1000
0001
1000
0010
0100
0001
0010
0100
1000
0001
,
1000
0010
0100
0001
0010
0100
1000
0001
1000
0010
0100
0010
1000
0001
1000
0010
,
1000
0100
0010
0001
0100
0010
1000
0001
1000
0100
0010
0001
0100
0010
1000
0001
,
1000
0100
0010
0001
0100
0010
1000
0001
1000
0100
0010
0100
1000
0001
1000
0100
,
1000
0010
0100
0010
1000
0001
1000
0100
0010
0001
1000
0010
1000
0001
1000
0100
,
0010
0001
0010
0100
1000
0001
0100
0001
1000
0010
1000
0001
0100
0010
1000
0001
,
0010
0100
1000
0001
1000
0001
0100
0010
1000
0001
0100
0001
1000
0100
0010
0001
,
0100
0001
1000
0001
0010
0100
1000
0001
1000
0001
0010
0100
1000
0001
0100
0010
,
1000
0001
1000
0001
0010
0100
1000
0100
0010
0001
1000
0100
1000
0010
0100
0001
,
1000
0001
0100
0010
0100
0001
1000
0100
1000
0001
0100
0001
1000
0100
1000
0001
,
0100
0010
1000
0001
0010
0001
1000
0001
0100
0010
1000
0001
0010
0100
1000
0001
,
1000
0010
0100
0001
1000
0100
1000
0001
0100
0010
1000
0001
0010
0100
1000
0001
,
0010
0100
0010
0100
1000
0001
1000
0010
0100
0001
1000
0100
1000
0001
0100
0001
,
1000
0001
0010
0100
1000
0001
0100
0001
1000
0001
1000
0100
0010
0001
1000
0010
,
1000
0001
1000
0010
0100
0001
1000
0100
1000
0001
0100
0001
1000
0010
1000
0001
,
0100
0001
0010
0100
0010
0001
1000
0010
1000
0001
1000
0100
0010
0001
1000
0010
,
0100
0001
1000
0010
1000
0001
0010
0100
1000
0001
1000
0010
0100
0001
0010
0100
,
1000
0010
0100
0001
1000
0100
1000
0001
0010
0100
1000
0010
0100
0001
0010
0100
,
1000
0010
0100
0010
1000
0001
1000
0100
0010
0100
1000
0001
0100
0010
1000
0001
,
1000
0100
0010
0001
1000
0100
1000
0001
0100
0010
1000
0001
0010
0100
0010
0100
,
1000
0010
0100
0001
0010
0100
1000
0001
,
1000
0100
0010
0001
0100
0010
1000
0001
,
1000
0010
0100
0001
0010
0100
1000
0001
,
1000
0100
0010
0001
0100
0010
1000
0001
,
1000
0010
1000
0001
0010
0001
0100
0001
,
1000
0100
1000
0001
0100
0001
0010
0001
,
1000
0010
1000
0001
0010
0001
0100
0001
,
1000
0000
0100
0000
1000
0000
0001
0000
0100
0000
0001
0010
0100
0000
1000
0001
,
0100
0001
0010
0100
,
1000
0010
1000
0100
,
0010
0001
1000
0010
,
1000
0000
0001
0000
0010
0000
0001
1000
,
0010
0100
0001
0010
,
0100
1000
0001
0100
,
0001
0010
0100
1000
,
0001
0000
1000
0000
0010
0000
0000
0000
0100
0000
0001
1000
0100
0000
0010
0001
,
M000
0M00
M000
00M0
0M00
000M
M000
M000
,
M000
000M
0M00
000M
00M0
0M00
M000
M000
,
M000
00M0
M000
0M00
00M0
000M
M000
M000
,
M000
000M
00M0
000M
0M00
00M0
M000
M000
;
