#TITLE:Juggernaut;
#SUBTITLE:;
#ARTIST:Quattro;
#TITLETRANSLIT:;
#SUBTITLETRANSLIT:;
#ARTISTTRANSLIT:;
#CREDIT:Mad Matt;
#BANNER:../fallback-bn.png;
#BACKGROUND:../fallback-bg.png;
#LYRICSPATH:;
#CDTITLE:;
#MUSIC:Juggernaut.ogg;
#OFFSET:-0.020;
#SAMPLESTART:39.860;
#SAMPLELENGTH:13.580;
#SELECTABLE:YES;
#DISPLAYBPM:240.000;
#BPMS:0.000=240.020,68.000=240.020,212.000=240.020,222.000=242.000,230.000=240.500,294.000=240.190,485.000=240.500,540.000=240.000;
#STOPS:164.000=0.250
,164.500=0.250
,354.000=0.250
,354.500=0.250
,484.000=0.180
;
#BGCHANGES:;
// cache tags:
#FIRSTBEAT:7.000;
#LASTBEAT:565.000;
#SONGFILENAME:Songs/SSSC PACK/[Mad Matt] - Juggernaut/Juggernaut.sm;
#HASMUSIC:1;
#HASBANNER:1;
#MUSICLENGTH:146.401;
// end cache tags

//---------------dance-single - Mad Matt----------------
#NOTES:
     dance-single:
     Mad Matt:
     Challenge:
     15:
     1.000,1.000,0.178,1.000,1.000,1182.000,26.000,150.000,58.000,0.000:

0000
0000
0000
0000
,
0000
0000
0000
0000
0000
0000
0000
0000
0000
0000
0000
0000
0020
0000
0000
0030
,
0002
1003
0002
0103
0002
1003
0002
0003
,
1000
0100
1000
0100
1000
0100
1000
0100
1000
0100
1000
0100
1000
0100
1000
0100
,
0020
0031
0020
0130
0020
0031
0020
0030
,
0100
0010
0100
0010
0100
0010
0100
0010
0100
0010
0100
0010
0100
0010
0100
0010
,
0002
1003
0002
0103
0002
1003
0002
0003
,
1000
0001
1000
0001
1000
0001
1000
0001
1000
0001
1000
0001
1000
0001
1000
0001
,
0200
0310
0200
0301
0200
0310
0200
0300
,
0001
0100
0001
0100
0001
0100
0001
0100
0001
0100
0001
0100
0001
0100
0001
0100
,
0001
1000
0001
1000
0001
1000
0001
1000
0001
1000
0001
1000
0001
1000
0001
1000
,
0010
0100
0010
0100
0010
0100
0010
0100
0010
1000
0010
1000
0010
1000
0010
1000
,
0001
1000
0001
1000
0001
1000
0001
1000
0001
0100
0001
0100
0001
0100
0001
0100
,
0001
1000
0001
1000
0010
1000
0010
1000
0001
0100
0001
0100
0010
0100
0010
0100
,
0004
0000
0000
0000
0000
0000
0000
0000
0000
0000
0000
0000
1003
0001
1000
0001
,
1000
0001
1000
0001
1000
0001
1000
0001
1000
0100
1000
0100
1000
0100
1000
0100
,
0010
0001
0010
0001
0010
0001
0010
0001
1000
0100
0010
0001
0010
0100
1000
0100
,
0010
0100
0010
0100
0010
0100
0010
0001
0010
0100
1000
0100
0010
0001
0010
0100
,
1000
0000
0000
1001
0000
0000
0010
1000
,
0001
0000
0000
1001
0000
0000
0001
0010
,
0100
0000
0000
0110
0000
0000
0100
1000
,
0001
0000
0000
1010
0000
0000
0100
0001
,
1000
0000
0000
1100
0000
0000
0001
1000
,
0010
0000
0000
0101
0000
0000
0001
1000
,
0001
0010
0100
1000
0000
0000
0010
1000
,
0001
0100
0001
0100
0001
0100
0001
0100
0001
1000
0001
1000
0001
1000
0001
1000
,
0002
0000
0103
0000
0002
0000
1003
0000
0000
0000
0000
0000
0200
2300
3200
2300
,
3200
2300
3200
2300
3200
2300
3200
2300
3200
2300
3200
2300
3200
0300
0000
0000
,
0010
0000
0001
0000
1000
0000
0001
0000
0000
0000
0000
0000
0200
0302
0203
0302
,
0203
0302
0203
0302
0203
0302
0203
0302
0203
0302
0203
0302
0203
0300
0000
0000
,
0010
0000
1000
0000
0001
0000
1000
0000
0000
0000
0000
0000
0200
0320
0230
0320
,
0230
0320
0230
0320
0230
0320
0230
0320
0230
0320
0230
0320
0230
0300
0000
0000
,
1000
0000
0001
0000
1000
0000
0010
0000
0000
0000
0000
0000
2000
3002
2003
3002
,
2003
3002
2003
3002
2003
3002
2003
3002
2003
3002
2003
3002
2003
3000
0000
0000
,
0010
0000
0100
0000
0010
0000
1000
0000
0000
0000
0000
0000
0002
0203
0302
0203
,
0302
0203
0302
0203
0302
0203
0302
0203
0302
0203
0302
0203
0302
0003
0000
0000
,
1000
0000
0001
0000
1000
0000
0100
0000
0000
0000
0000
0000
0020
0032
0023
0032
,
0023
0032
0023
0032
0023
0032
0023
0032
0023
0032
0023
0032
0023
0030
0000
0000
,
0100
0000
1000
0000
0001
0000
0100
0000
0000
0000
0000
0000
0020
0230
0320
0230
,
0320
0230
0320
0230
0320
0230
0320
0230
0320
0230
0320
0230
0320
0030
0000
0000
,
0100
0000
0001
0000
1000
0000
0010
0000
0000
0000
0000
0000
0200
0302
0203
0302
,
2003
3020
0230
0300
0001
0001
0000
1000
,
1000
0000
0100
0100
0000
0010
0010
0000
,
0011
0001
1001
0000
1000
1000
0000
0010
,
0010
0000
0100
0100
0000
0001
0001
0000
,
0101
0100
0110
0000
1000
1000
0000
0010
,
0010
0000
0100
0100
0000
0001
0001
0000
,
1001
1000
1100
0000
0001
0001
0000
0010
,
0010
0000
0100
0100
0000
1000
1000
0000
,
1001
0001
0101
0000
1000
0100
0000
0010
,
0001
0000
1000
0010
0000
0100
0001
0000
,
1010
0010
0110
0000
0100
0001
0000
0100
,
0010
0000
1000
0100
0000
0010
0100
0000
,
1001
0001
0011
0000
0100
1000
0000
0001
,
0010
0000
0100
0010
0000
0001
0100
0000
,
0110
0100
0101
0000
1000
0010
1000
0010
,
0100
0000
0010
0000
0100
0000
0010
0000
0100
0001
0100
0001
0100
0001
0100
0001
,
1000
0001
1000
0001
1000
0001
1000
0001
1000
0001
1000
0001
1000
0000
0000
0000
0000
0000
0010
0000
0000
0000
0000
0000
,
1000
0000
0010
0000
0000
M000
0010
0000
0100
0000
0000
00M0
0100
0000
0001
0000
,
0000
0M00
1000
0000
0100
0000
0000
M000
0100
0000
0010
0000
0000
0M00
0010
0000
,
0001
0000
0000
00M0
1000
0000
0010
0000
0000
M000
0010
0000
0100
0000
0000
00M0
,
0100
0001
1M00
0001
0100
0000
0010
0000
,
0100
0000
0001
0000
0000
0M00
0001
0000
1000
0000
0000
000M
1000
0000
0100
0000
,
0000
M000
0010
0000
0001
0000
0000
00M0
0001
0000
1000
0000
0000
000M
1000
0000
,
0010
0000
0000
M000
0100
0000
0001
0000
0000
0M00
0001
0000
1000
0000
0000
000M
,
1000
0100
0010
0000
0001
0000
0001
0000
,
1000
0000
0100
0000
0000
M000
0100
0000
0010
0000
0000
0M00
0001
0000
1000
0000
,
0000
000M
1000
0000
0010
0000
0000
M000
0100
0000
0001
0000
0000
0M00
0001
0000
,
0010
0000
0000
000M
0100
0000
1000
0000
0000
0M00
1000
0000
0010
0000
0000
M000
,
0010
0100
00M1
0100
0010
0000
1000
0000
,
1000
0000
0001
0000
0000
M000
0001
0000
0100
0000
0000
000M
0010
0000
1000
0000
,
0000
0000
1000
0000
0001
M000
0000
0000
0100
0000
0010
0000
0100
0000
0001
0000
,
0100
0010
0100
0001
2000
0000
3100
0010
,
0000
0000
0010
0000
0100
0000
1000
0000
0001
0000
0100
0000
0010
0000
0100
0001
,
0100
0000
0010
0000
1000
0000
0000
0000
0001
0000
0100
0000
0000
0000
0010
1000
,
0001
0000
0010
0000
0100
0000
1000
0000
0001
0000
0100
0000
0000
0000
0001
1000
,
0010
0000
0100
0000
0010
0000
0000
0000
1000
0000
0100
0000
0000
0000
0010
0001
,
1000
0000
0010
0000
0100
0000
0001
0000
1000
0000
0010
0000
0000
0000
0100
0001
,
1000
0000
0100
0000
0010
0000
0000
0000
0001
0000
1000
0000
0000
0000
0010
0100
,
0001
0000
1000
0000
0100
0000
0010
0000
0001
0000
0010
0000
0000
0000
0100
1000
,
0001
0100
0010
1000
0001
0100
0010
0100
,
0001
1000
0001
1000
0001
1000
0001
1000
0010
0000
0100
0000
0000
0000
0001
1000
,
0100
0000
0010
0000
0001
0000
0000
0000
1000
0000
0100
0000
0000
0000
1000
0001
,
0100
0000
0010
0000
1000
0000
0010
0000
0100
0000
0001
0000
0000
0000
1000
0100
,
0010
0001
0100
0000
1001
0000
0110
1001
,
0000
0000
0110
0000
1001
0000
0000
0000
0010
0000
0001
0000
0000
0000
1000
0010
,
0100
0000
0001
0000
1000
0000
0000
0000
0010
0000
0100
0000
0000
0000
0001
1000
,
0100
0010
0001
1000
0010
0100
0010
1000
,
0010
0100
0010
0100
0010
0100
0010
0100
0002
0000
2003
0000
3200
0000
0300
0000
,
1000
0000
0001
0100
0000
0001
1000
0000
,
0001
0010
0000
0001
1000
0010
0100
0000
,
0010
1000
0010
0100
0001
1000
0100
0010
,
0001
0010
0100
1000
0001
0100
0001
0000
,
1000
0000
0010
0100
0000
0010
1000
0000
,
0010
0100
0000
0001
1000
0100
0010
0000
,
0001
1000
0100
1000
0001
0100
0001
1000
,
0100
0010
0001
0010
0100
1000
0010
0000
,
0100
0000
0001
1000
0000
0001
0100
0000
,
0100
0010
0000
1000
0001
1000
0100
0000
,
0010
0001
0010
0100
1000
0001
0100
0010
,
0100
0001
1000
0100
0010
0100
1000
0000
,
0001
0000
0100
0010
0000
0100
0001
0000
,
0100
0010
0000
0100
0001
1000
0100
0000
,
0010
0001
0010
0100
1000
0010
1000
0001
,
0100
0010
1000
0100
0010
0001
1000
0000
,
0010
0000
1000
0100
0000
1000
0001
0000
,
1000
0010
0000
0100
0001
0000
0010
0000
,
0100
1000
0100
1000
0100
1000
0100
1000
0100
1000
0100
1000
0100
1000
0100
1000
,
0001
1000
0001
1000
0001
1000
0001
1000
0001
0010
0001
0010
0001
0010
0001
0010
,
0100
0010
0100
0010
0100
1000
0100
1000
0100
0010
0100
0010
0001
1000
0001
1000
,
0001
0100
0001
0100
0001
1000
0001
1000
0001
0100
0001
0100
0001
0100
0001
0100
,
0001
0000
1000
0010
0000
1000
0001
0000
,
1000
0100
0000
0010
0001
1000
0010
0000
,
1000
0000
0001
0100
0000
0001
1000
0000
,
0001
0100
0000
0001
1000
0000
0010
0000
,
0100
0001
0100
0001
0100
0001
0100
0001
0100
0001
0100
0001
0100
0001
0100
0001
,
1000
0001
1000
0001
1000
0001
1000
0001
0100
0010
0100
0010
0100
0010
0100
0010
,
0100
0001
0100
0001
1000
0010
1000
0010
0100
0010
0100
0010
1000
0001
1000
0001
,
1000
0100
1000
0100
1000
0001
1000
0001
1000
0100
1000
0100
1000
0100
1000
0100
,
1000
0001
0010
0100
1000
0001
1000
0001
,
0100
0000
0000
0001
0000
0000
0100
0000
0000
0001
0000
0000
0100
0000
0000
0001
0000
0000
0100
0000
0000
0001
0000
0000
1000
0000
0001
0000
1000
0000
0001
0000
1000
0000
0001
0000
1000
0000
0001
0000
1000
0000
0001
0000
1000
0000
0001
0000
,
2000
0000
3001
0000
0100
0000
0001
0100
,
0000
000M
0100
0000
0010
0000
0000
0M00
0010
0000
1000
0000
0000
00M0
0001
0000
,
0010
0000
0000
000M
0010
0000
0100
0000
0000
00M0
0100
0000
1000
0000
0000
0M00
,
0001
0000
0100
0000
0000
000M
0100
0000
0010
0000
0000
0M00
0010
0000
1000
0000
,
00M1
1000
0010
0000
0100
0000
0010
1000
,
0000
00M0
1000
0000
0001
0000
0000
M000
0001
0000
0010
0000
0000
000M
0100
0000
,
1000
0000
0000
0M00
1000
0000
0001
0000
0000
M000
0001
0000
0100
0000
0000
000M
,
0010
0000
1000
0000
0000
00M0
1000
0000
0001
0000
0000
M000
0001
0000
0010
0000
,
0100
0000
1000
0000
1000
0000
0001
0010
,
0000
000M
0010
0000
0100
0000
0000
00M0
1000
0000
0001
0000
0000
M000
0001
0000
,
0100
0000
0000
000M
0010
0000
1000
0000
0000
00M0
1000
0000
0100
0000
0000
M000
,
0010
0000
0001
0000
0000
00M0
0001
0000
0100
0000
0000
000M
0100
0000
0010
0000
,
1M00
0010
0100
0000
0001
0000
0001
1000
,
0000
000M
1000
0000
0010
0000
0000
M000
0100
0000
0001
0000
0000
0000
0001
0000
,
1000
000M
0000
0000
0010
0000
0100
0000
0010
0000
1000
0000
0010
0000
0100
0000
,
0010
0000
0000
0000
0000
0000
1000
0000
0000
0000
0000
0000
0001
0000
0000
0100
0000
0000
0001
0000
0000
0100
0000
0000
0001
0000
0000
0100
0000
0000
0001
0000
0000
0100
0000
0000
0001
0000
1000
0000
0001
0000
1000
0000
0001
0000
1000
0000
,
0001
1000
0001
1000
0001
1000
0001
0000
0000
0100
0000
0000
0010
0000
0000
1000
0000
0000
0001
0000
0000
0010
0000
0000
,
0100
0000
0000
0000
0000
0000
0010
0000
0000
0000
0000
0000
0001
0000
0000
1000
0000
0000
0001
0000
0000
1000
0000
0000
0001
0000
0000
1000
0000
0000
0001
0000
0000
1000
0000
0000
0100
0000
1000
0000
0100
0000
1000
0000
0100
0000
1000
0000
,
0100
1000
0100
1000
0100
1000
0100
0000
0000
0010
0000
0000
0001
0000
0000
1000
0000
0000
0001
0000
0000
0100
0000
0000
,
0010
0000
0000
0000
0000
0000
0100
0000
0000
0000
0000
0000
0001
0000
0000
1000
0000
0000
0001
0000
0000
1000
0000
0000
0001
0000
0000
1000
0000
0000
0001
0000
0000
1000
0000
0000
0001
0000
0100
0000
0001
0000
0100
0000
0001
0000
0100
0000
,
0001
0100
0001
0100
0001
0100
0001
0000
0000
0000
0000
0000
0000
0000
0000
0000
0000
0000
0000
0000
0000
0000
0000
0000
;
