#TITLE:Eat it Raw;
#SUBTITLE:;
#ARTIST:Infected Mushroom;
#TITLETRANSLIT:;
#SUBTITLETRANSLIT:;
#ARTISTTRANSLIT:;
#CREDIT:;
#BANNER:Eat it Raw bn.png;
#BACKGROUND:Eat it Raw.jpg;
#LYRICSPATH:;
#CDTITLE:CDtitletiger.png;
#MUSIC:09_eat_it_raw.ogg;
#OFFSET:-4.340;
#SAMPLESTART:100.000;
#SAMPLELENGTH:12.000;
#SELECTABLE:YES;
#BPMS:0.000=145.010;
#STOPS:;
#BGCHANGES:;
// cache tags:
#FIRSTBEAT:0.000;
#LASTBEAT:264.250;
#SONGFILENAME:Songs/new cedric/Eat it Raw/Eat it Raw.sm;
#HASMUSIC:1;
#HASBANNER:1;
#MUSICLENGTH:115.113;
// end cache tags

//---------------dance-single - ----------------
#NOTES:
     dance-single:
     :
     Hard:
     11:
     1.000,1.000,1.000,1.000,1.000,840.000,167.000,166.000,0.000,30.000:
1001
0001
0100
0001
1000
0001
1100
0110
,
1000
1000
0001
1000
0010
1000
0101
1010
,
0001
0000
0001
0000
1000
0000
0001
0000
1000
0100
0010
0001
1100
0000
1010
0000
,
0101
0000
1000
0200
0000
0300
1000
0000
0000
0002
0000
1003
0000
0100
0010
0100
,
1001
0000
0011
0000
1000
0000
0001
0000
1000
0100
0010
0001
1100
0000
0011
0000
,
2000
0000
3100
0020
0000
0030
1000
0000
0000
2000
0000
3100
0000
0010
0001
0010
,
1100
0000
1000
0000
0001
0000
1000
0000
0010
0100
0010
0100
1001
0000
0101
0000
,
2000
0000
3010
0200
0000
0300
0001
0000
0000
0002
0000
0013
0000
0100
1000
0100
,
0011
0000
0011
0000
0000
0000
1000
0000
1000
0100
0010
0001
1100
0000
2001
0000
,
3001
0000
0010
0200
0000
0300
1000
0000
0000
2000
0000
3001
0000
0010
0100
0010
,
2001
0000
0010
0200
3000
0300
0001
0000
0001
1000
0001
1000
0110
0000
0101
0000
,
2000
0000
3010
0200
0000
0300
0001
0000
0000
0002
0000
0013
0000
0100
0010
0100
,
1001
1001
0100
0001
0010
0001
1100
0110
,
1010
1010
0000
0110
0011
0011
0000
1100
,
1001
1001
0000
0011
1010
1010
0000
1100
,
0101
0101
0000
0101
1100
1100
0000
1010
,
0001
0010
0100
1000
0001
0010
0001
1000
0100
1000
0010
0100
0010
1000
0100
1000
,
0001
0010
0100
1000
0001
0010
0100
1000
0010
0100
0010
0100
0001
0010
0100
1000
,
0001
0010
0100
1000
0010
0100
0010
0100
0001
0010
0001
1000
0100
1000
0010
0100
,
0010
1000
0001
1000
0010
0100
0010
1000
0100
1000
0001
0010
0001
0010
0100
0010
,
1000
0100
0010
0001
1000
0100
0010
0001
1000
0100
0010
0001
1000
0100
0010
0001
,
1000
0100
0010
0001
1000
0100
0010
0001
1000
0100
0010
0001
1000
0100
0010
0001
,
1000
0001
1000
0001
1000
0010
1000
0010
1000
0100
1000
0100
1000
0010
1000
0010
,
0100
0001
0100
0001
0100
0010
0100
0010
0100
1000
0100
1000
0100
0010
0100
0010
,
1000
0100
0010
0001
1000
0100
0010
0001
1000
0100
0010
0001
1000
0100
0010
0001
1000
0100
0010
0001
1000
0100
0010
0001
,
0100
0010
0100
0010
0100
0010
0100
0010
0100
0010
0100
0010
1000
0001
1000
0001
1000
0001
1000
0001
1000
0001
1000
0001
,
2010
0010
0010
0010
0010
0010
0100
0001
,
0010
0010
0010
0010
0010
0010
0100
3001
,
1001
0100
0001
0100
0010
0100
0001
0100
1000
0100
0010
0100
1001
0000
0110
0000
,
1001
0100
0001
0100
0010
0100
0001
0100
1000
0100
0010
0100
1001
0000
0110
0000
,
1100
0001
0010
0001
0110
1000
0001
1000
0011
1000
0100
1000
0011
0000
0110
0000
,
1100
0001
0010
0001
0110
1000
0001
1000
0011
1000
0100
1000
0011
0000
0110
0000
,
1100
0001
0010
0001
0110
1000
0001
1000
0011
1000
0100
1000
0011
0000
0110
0000
,
1100
0001
0010
0001
0110
1000
0001
1000
0011
1000
0100
1000
0011
0000
0110
0000
,
1100
0001
0010
0001
0110
1000
0001
1000
0011
1000
0100
1000
0011
0000
0110
0000
,
1000
0100
0010
0001
1100
0001
0010
0001
1000
0100
0010
0001
1100
0000
0011
0000
,
1000
0100
0010
0001
1100
0001
0010
0001
1000
0100
0010
0001
1100
0000
0110
0000
,
0001
1000
0001
1000
0100
1000
0010
1000
0201
0000
0000
0000
0301
0001
0001
0001
,
0101
0010
1000
0010
0100
0001
0010
0001
1000
0010
0100
0010
1100
0000
0110
0000
,
0101
0010
1000
0010
0100
0001
0010
0001
1000
0010
0100
0010
1000
0001
1000
0001
,
1100
0010
1000
0010
0100
0001
0010
0001
1000
0010
0100
0010
1100
0000
0110
0000
,
0101
0010
1000
0010
0100
0001
0010
0001
1000
0010
0100
0010
1000
0001
1000
0001
,
1100
0010
1000
0010
0100
0001
0010
0001
1000
0010
0100
0010
1100
0000
0110
0000
,
0101
0010
1000
0010
0100
0001
0010
0001
1000
0010
0100
0010
1000
0001
1000
0001
,
1100
0001
0010
0001
1100
0001
0010
0001
1100
0001
0010
0001
1100
0001
0010
0001
,
0110
1000
0001
1000
0110
1000
0001
1000
0110
1000
0001
1000
0110
1000
0001
1000
,
0011
0200
0302
0023
2030
3000
2000
3000
2000
3002
0003
0020
2030
3000
0002
0023
,
0030
2000
3200
0302
0023
0032
2003
3002
0203
0302
0003
0200
2300
3000
2000
3200
,
1301
0010
0100
0010
1001
0100
0010
0100
2002
0000
0000
0000
0000
0000
0000
3003
,
0000
0000
2000
3200
2300
3200
2300
3200
2300
3200
0300
0200
0320
0030
0021
0230
,
1301
0000
2000
3200
2301
3200
2300
3200
2301
3200
0300
0200
1320
0030
0021
0230
,
1301
0000
2000
3200
2301
3200
2300
3200
2301
3200
0300
0200
1320
0030
0021
0230
,
1301
0000
2000
3200
2301
3200
2300
3200
2301
3200
0300
0200
1320
0030
0021
0230
,
1301
0001
0101
0100
1100
1000
1001
0101
,
1000
0001
1000
0001
0100
0001
1000
0001
0010
0001
1000
0001
0110
0000
1100
0000
,
0001
1000
0001
1000
0010
1000
0001
1000
0100
1000
0001
1000
0110
0000
0011
0000
,
1000
0100
0010
0001
1100
0010
0100
0010
1000
0100
0010
0001
1010
0000
0110
0000
,
1001
0100
0002
0023
0032
0023
0032
0023
0032
0023
0030
0020
1230
0300
1200
0320
,
1031
0000
0020
0230
1320
0230
0320
0230
1320
0230
0300
0200
1302
0003
0012
2003
,
3101
0001
1001
1000
1010
0010
0110
0110
,
1001
0010
0100
1000
0011
0100
0010
0100
1001
0010
0100
1000
0011
0000
0011
0000
,
1010
0100
0002
2003
3012
2003
3002
2003
3012
2003
3000
2000
3120
0030
1020
0230
,
1301
0010
0200
0302
1203
0302
0203
0302
1203
0302
0003
0002
2103
3000
2001
3200
,
1310
0001
2000
3020
2030
3020
2030
3020
2030
3020
0030
0020
0230
0300
0200
0302
,
1103
0010
0100
0010
0100
0010
0100
0010
1100
0001
0010
0100
0002
0000
0000
0003
,
0000
0000
2000
3200
0320
0032
2003
3200
0320
0032
0003
0002
2003
3000
0020
0232
,
0000
0303
0000
0000
0000
0000
0000
0000
0000
0000
0000
0000
0000
0000
0000
0000
;

//---------------dance-single - Copied from----------------
#NOTES:
     dance-single:
     Copied from:
     Challenge:
     12:
     1.000,1.000,1.000,1.000,1.000,878.000,257.000,134.000,0.000,109.000:
1011
0001
0101
0001
1001
0001
1011
1101
,
1010
1000
1001
1000
1100
1000
1110
0111
,
0011
0000
0010
0000
1010
0000
0010
0000
0010
0100
0010
0100
1011
0000
1011
0000
,
0101
0100
0110
0100
1100
0100
0111
1110
,
1001
0000
1000
0000
1100
0000
1000
0000
1000
0100
0010
0001
1110
0000
1011
0000
,
0100
0000
0100
0000
1100
0000
0100
0000
0110
0000
0100
0000
0101
0010
1001
0010
,
1101
0000
1000
0000
1010
0000
1000
0000
1010
0100
0010
0100
1011
0000
1101
0000
,
0110
0000
0000
0000
0010
0000
0000
0000
1010
0000
0000
0000
0010
0000
0000
0000
0011
0000
0000
0000
0010
0000
0000
0000
1010
0000
0100
0000
1001
0100
1000
0100
,
1011
0000
1011
0000
0000
0000
1000
0000
1000
0100
0010
0001
1100
0000
2001
0000
,
3001
0000
0010
0200
0000
0300
1000
0000
0000
2000
0000
3001
0000
0010
0100
0010
,
2101
0000
0010
0200
3000
0300
0001
0000
0001
1000
0001
1000
0111
0000
1101
0000
,
2001
0000
3011
0200
0000
0300
1001
0000
0000
0002
0000
0013
0000
0010
0010
0010
,
1101
1101
0101
0001
0011
0001
1011
0111
,
1110
1110
1100
0111
1011
1011
0100
1101
,
1011
1011
0100
0111
1011
1011
0010
1110
,
1101
1101
0010
0111
1101
1101
0010
1110
,
0001
0010
0100
1000
0001
0010
0001
1000
0100
1000
0010
0100
0010
1000
0100
1000
,
0001
0010
0100
1000
0001
0010
0100
1000
0010
0100
0010
0100
0001
0010
0100
1000
,
0001
0010
0001
1000
0100
1000
0010
0100
0010
1000
0001
0100
0010
0100
0001
0010
,
0001
1000
0100
1000
0010
0100
0010
1000
0100
1000
0001
0010
0001
0010
0100
0010
,
1000
1000
1000
1000
0100
0100
0100
0100
0010
0010
0010
0010
0001
0001
0001
0001
,
0100
0100
0100
0100
0010
0010
0010
0010
1000
1000
1000
1000
0100
0100
0100
0100
,
1000
1000
1000
1000
0010
0010
0010
0010
0100
0100
0100
0100
0001
0001
0001
0001
,
0010
0010
0010
0010
1000
1000
1000
1000
0001
0001
0001
0001
0010
0010
0010
0010
,
1000
0100
0010
0001
1000
0100
0010
0001
1000
0100
0010
0001
1000
0100
0010
0001
1000
0100
0010
0001
1000
0100
0010
0001
1000
0100
0010
0001
1000
0100
0010
0001
,
1000
0100
0010
0001
1000
0100
0010
0001
1000
0100
0010
0001
1000
0100
0010
0001
1000
0100
0010
0001
1000
0100
0010
0001
1000
0100
0010
0001
1000
0100
0010
0001
,
2100
0010
0010
0010
0010
0010
0100
0001
,
0010
0010
0010
0010
0010
0010
0100
3001
,
1001
0100
0001
0100
0010
0100
0001
0100
1000
0100
0010
0100
1001
0000
0110
0000
,
1001
0100
0001
0100
0010
0100
0001
0100
1000
0100
0010
0100
1001
0000
0110
0000
,
1100
0001
0010
0001
0110
1000
0001
1000
0011
1000
0100
1000
0111
0000
1010
0000
,
1100
0001
0010
0001
0110
1000
0001
1000
0011
1000
0100
1000
0111
0000
0110
0000
,
1100
0001
0010
0001
0110
1000
0001
1000
0011
1000
0100
1000
0111
0000
0110
0000
,
1100
0001
0010
0001
0110
1000
0001
1000
0011
1000
0100
1000
0111
0000
0110
0000
,
1100
0001
0010
0001
0110
1000
0001
1000
0011
1000
0100
1000
0111
0000
0110
0000
,
1000
0100
0010
0001
1100
0001
0010
0001
1010
0100
0010
0001
1110
0000
0011
0000
,
1000
0100
0010
0001
1100
0001
0010
0001
1000
0100
0010
0001
1110
0000
0110
0000
,
0001
1000
0001
1000
0100
1000
0010
1000
0211
0000
0000
0000
0301
0001
0001
0001
,
1101
0010
1000
0010
0100
0001
0010
0001
1000
0010
0100
0010
1101
0000
1110
0000
,
0101
0010
1000
0010
1101
0010
0100
0010
1000
0100
0010
0001
1000
0010
1000
0010
,
1101
0010
1000
0010
0100
0001
0010
0001
1000
0010
0100
0010
1100
0000
0110
0000
,
0101
0010
1000
0010
0100
0001
0010
0001
1000
0010
0100
0010
1000
0001
1000
0001
,
1100
0010
1100
0010
1100
0001
0110
0001
1100
0010
0100
0010
1101
0000
0110
0000
,
0101
0010
1001
0010
1100
0001
0110
0001
1100
0010
0101
0010
1100
0001
1010
0001
,
1100
0001
0010
0001
1100
0001
0010
0001
1100
0001
0010
0001
1100
0001
0010
0001
,
0110
1000
0001
1000
0110
1000
0001
1000
0110
1000
0001
1000
0110
1000
0001
1000
,
0011
1000
0110
0001
1100
0010
0101
1000
0011
0100
1010
0001
1100
0010
0101
1000
,
0110
0001
1100
0010
0101
1000
0011
0100
1010
0100
0011
0100
1010
0100
0011
0100
,
1001
0000
0001
0000
0001
0000
0001
0000
0110
0000
0100
0000
0100
0000
0100
0000
1001
0000
0100
0100
0202
0000
0000
0000
0000
0000
0000
0000
0000
0000
0303
0000
,
0000
0000
2000
3200
2300
3200
2300
3200
2300
3200
0300
0200
0320
0030
0021
0230
,
1301
0000
2010
3200
2301
3200
2310
3200
2311
3200
0300
0200
1320
0030
0021
0230
,
1301
0000
2001
3200
2311
3200
2301
3200
2311
3200
0300
0200
1321
0030
1021
0230
,
1301
0000
2001
3200
2311
3200
2301
3200
2311
3200
0300
0200
1321
0030
1021
0230
,
1311
1001
1101
0110
1010
0100
1011
1101
,
1010
0001
1100
0001
1100
0001
1010
0001
1010
0001
1100
0001
1110
0000
1101
0000
,
0001
1000
0011
1000
0110
1000
0101
1000
0110
1000
0011
1000
0111
0000
1011
0000
,
1000
0100
1010
0001
1100
0010
0101
0010
1001
0100
1010
0001
1110
0000
0111
0000
,
1001
0100
0002
0023
0032
0023
0032
0023
0032
0023
0030
0020
1230
0300
1200
0320
,
1031
0000
1020
0230
1321
0230
1320
0230
1321
0230
0300
0200
1312
0003
0112
2003
,
3111
0101
1011
1001
1110
0110
1110
0111
,
1001
0010
0101
1000
0011
0100
1010
0100
1001
0010
0101
1000
0111
0000
1011
0000
,
1010
0100
0012
2003
3102
2003
3012
2003
3102
2003
3000
2000
3121
0030
1021
0230
,
1301
0010
0200
0302
1203
0302
0203
0302
1203
0302
0003
0002
2103
3000
2001
3200
,
1310
0001
2000
3020
2030
3020
2030
3020
2030
3020
0030
0020
0230
0300
0200
0302
,
1103
0000
0010
0000
0100
0000
0010
0000
0100
0000
0010
0000
0100
0000
0010
0000
1100
0000
0001
0010
0100
1000
0001
0010
0002
0000
0000
0000
0000
0000
0003
0000
,
0000
0000
2000
3200
0320
0032
2003
3200
0320
0032
0003
0002
2003
3000
0020
0232
,
0000
0303
0000
0000
0000
0000
0000
0000
0000
0000
0000
0000
0000
0000
0000
0000
;
