#TITLE:Real Me;
#SUBTITLE:(Megara Vs Dj Lee Remix);
#ARTIST:浜崎あゆみ;
#TITLETRANSLIT:;
#SUBTITLETRANSLIT:;
#ARTISTTRANSLIT:Ayumi Hamasaki;
#CREDIT:;
#BANNER:Real Me Banner.jpg;
#BACKGROUND:Real Me BG.jpg;
#LYRICSPATH:;
#CDTITLE:!IzzyTitle.png;
#MUSIC:Ayumi Hamasaki - Real Me [Megara Vs Dj Lee Remix].mp3;
#OFFSET:-0.180;
#SAMPLESTART:42.836;
#SAMPLELENGTH:12.000;
#SELECTABLE:YES;
#BPMS:0.000=140.000;
#STOPS:97.500=1.300
,286.000=1.260
,476.000=0.860
;
#BGCHANGES:;
// cache tags:
#FIRSTBEAT:4.750;
#LASTBEAT:572.500;
#SONGFILENAME:Songs/Bemani.se Megapack/(Izzy) Real Me/Real Me.sm;
#HASMUSIC:1;
#HASBANNER:1;
#MUSICLENGTH:256.115;
// end cache tags

//---------------dance-single - Dedicated to Ittetsu----------------
#NOTES:
     dance-single:
     Dedicated to Ittetsu:
     Hard:
     10:
     0.849,1.000,1.000,0.492,0.447,1006.000,390.000,126.000,0.000,65.000:
0000
0000
0000
0000
,
0000
0000
0000
0001
0100
0000
0010
0000
0110
0000
0001
0000
1001
0000
0010
1000
,
0000
0000
0000
0000
0100
0000
0010
1001
0000
0000
0000
0000
0101
0000
0100
0011
,
0000
0000
0000
1000
0010
0000
0100
0000
0110
0000
1000
0000
1001
0000
0100
0001
,
0000
0000
0000
0000
0010
0000
0100
1001
0000
0000
0000
0000
1010
0000
0010
1100
,
0000
0000
0000
0001
0100
0000
0010
0000
0110
0000
0001
0000
1001
0000
0010
1000
,
0000
0000
0000
0001
0100
0000
0010
0000
0110
0000
0001
0000
1001
0000
0010
1000
,
0000
1100
0011
1010
,
0101
0000
0000
0000
0011
0000
0010
0010
0101
0000
0110
0000
1100
0000
1001
0000
,
1001
0010
1001
0100
0010
0001
1100
0010
,
0100
0000
0001
1000
0011
0000
0010
0000
0100
0000
0010
0000
0101
0000
0000
0000
,
0000
0000
0010
0000
1000
0010
0100
0000
0001
0000
0010
0000
1100
0000
0000
0000
,
0000
0000
0100
0000
0100
0000
0010
0001
1000
0001
0100
0000
0011
0000
0000
0000
,
0000
0100
1001
0010
0100
1000
0011
0100
,
0010
0000
1000
0010
1100
0000
0100
0001
0010
0000
0100
0000
1010
0000
0000
0000
,
0000
0000
0010
0000
1000
0100
0010
0000
0001
0000
0010
0000
1100
0000
0000
0000
,
0000
0000
0100
1000
0001
0000
0010
0000
1000
0000
0100
0000
0011
0000
0000
0000
,
0000
0200
0002
0000
0000
0000
0000
0303
,
2000
0000
0200
0000
0000
0000
3300
0000
0010
0001
1000
0000
0100
0010
0100
0000
,
0001
0010
0001
0000
1000
0010
1000
0000
0001
0100
0001
0000
1000
0100
1000
0000
,
0001
0100
0010
0000
0100
0010
1000
0000
0001
0100
0010
0000
0001
1000
0001
0000
,
0100
0010
1000
0000
0001
0010
0001
0000
1000
0010
1000
0000
1000
0010
1000
0000
,
1000
0010
1000
0000
1000
0010
1000
0000
1000
0010
1000
0000
1000
0010
1000
0000
,
1000
0010
1000
0000
0001
0100
0001
0000
0001
0100
0001
0000
0001
0100
0001
0000
,
0001
0100
0001
0000
2002
0000
3003
1000
1001
0000
0010
0000
0110
0000
0001
0000
,
1001
0000
0010
1000
0000
0000
0000
0001
0100
0000
0010
0000
0110
0000
0001
0000
,
1001
0000
0010
1000
0000
0000
0000
0000
0002
0000
0000
0000
0000
0003
0200
0300
,
0020
0000
0000
0000
0000
0030
2000
0000
0002
0000
0000
0000
0000
0000
0000
0000
,
3003
0000
0000
0000
0000
0000
1000
0000
0100
0000
0100
0010
0000
0000
0001
0000
,
0010
0000
0010
0100
0000
0000
1000
0000
0100
0000
0100
0001
0000
0000
0001
0000
,
0010
0000
0010
1000
0000
0000
0001
0000
0200
0000
0000
0000
0000
0300
0020
0000
,
2000
0000
0000
3030
,
0000
0000
0000
0000
0000
0000
0000
1000
0101
0000
0010
0000
0110
0000
0001
0000
,
1001
0000
0010
1000
0000
0000
0000
0001
1010
0000
0100
0000
1001
0000
1000
0000
,
0110
0000
0100
0001
0000
0000
0000
0000
2000
0000
0000
0000
0000
3000
0020
0030
,
0200
0000
0000
0000
0000
0300
0002
0000
2000
0000
0000
0000
0000
0000
0000
0000
,
3003
0000
0000
0000
0000
0000
0001
0000
0010
0000
0010
0100
0000
0000
1000
0000
,
0100
0000
0100
0010
0000
0000
0001
0000
0010
0000
0010
1000
0000
0000
1000
0000
,
0100
0000
0100
0001
0000
0000
1000
0000
0020
0000
0000
0000
0000
0030
0200
0000
,
0002
0000
0000
0303
,
0000
0000
0000
0000
0000
0000
0000
1000
0101
0000
0010
0000
0110
0000
0001
0000
,
1001
0000
0010
1000
0000
0000
0000
0000
0000
0000
0000
0000
0000
0000
0000
0000
,
0000
0000
0000
0000
0000
0000
0000
1000
0101
0000
0010
0000
0110
0000
0001
0000
,
1001
0000
0010
1000
0000
0000
0000
0000
0000
0000
0000
0000
0000
0000
0000
0000
,
0000
0000
0000
0000
0000
0000
0000
1000
0101
0000
0010
0000
0110
0000
0001
0000
,
1001
0000
0010
1000
0000
0000
0000
1000
0101
0000
0010
0000
0110
0000
0001
0000
,
1001
0000
0010
1000
0000
0000
0000
1000
0101
0000
0010
0000
0110
0000
0001
0001
,
1010
0000
0100
0000
1001
0000
1000
0000
1001
0000
0000
1010
0000
0000
0011
0000
,
1100
0000
0000
0101
0000
0000
0110
0000
1001
0000
0110
0000
1001
0000
1100
0000
,
0001
0100
0010
1000
0001
0000
1010
0000
1000
0010
0100
0001
1000
0000
0101
0000
,
0001
0100
0010
1000
0001
0000
1010
0000
1000
0010
0100
0001
1000
0000
0101
0000
,
1000
0100
1000
0100
1000
0000
0011
0000
0001
0010
0001
0010
0001
0000
1100
0000
,
1000
0100
1000
0100
1000
0000
0011
0000
0001
0010
0001
0010
0001
0000
1100
0000
,
1000
0010
1000
0010
1000
0000
0101
0000
0001
0100
0001
0100
0001
0000
1010
0000
,
1000
0010
1000
0010
1000
0000
0101
0000
0001
0100
0001
0100
0001
0000
1010
0000
,
0001
0100
0010
1000
0001
0000
1001
0000
0110
0001
0000
0011
0000
0000
1100
0000
,
0011
0000
0000
1001
0000
0000
0110
0000
1001
0000
0100
0000
0010
0000
0100
0000
,
1001
0010
0001
1010
1100
0011
0101
0110
,
1001
0000
0100
0000
0100
0000
0100
0000
0001
0100
0001
0100
0001
0100
0001
0100
,
0001
0100
0010
1100
1010
1100
1010
1100
,
1001
0100
0010
1001
0110
0011
1100
0101
,
1001
0100
0010
1001
1100
0011
0101
0110
,
1001
0000
0100
0000
0001
0000
0010
0000
0010
0100
0010
0100
0010
0100
0010
0100
,
0010
1000
0001
0010
1100
0011
0110
1010
,
0101
0000
0000
0020
0200
0000
0000
0000
,
0000
0000
0000
0330
0200
0000
0002
0000
0000
0000
0000
0000
0000
0000
0000
0000
,
1303
0001
1000
0010
0100
0000
0110
0000
1000
0100
0010
0001
1000
0000
0110
0000
,
0001
0010
0100
1000
0001
0000
0110
0000
1000
0100
0010
0001
1000
0000
0110
0000
,
0001
0010
0100
1000
0001
0000
0110
0000
1000
0100
1000
0100
1000
0000
0100
0000
,
0001
0010
0001
0010
0001
0000
0001
0000
1000
0010
1000
0010
0100
0000
0001
0000
,
0001
0100
0001
0100
0010
0000
1000
0000
1100
0000
0000
0000
1100
0000
0000
0000
,
0000
0000
0000
0000
0011
0000
0000
0000
1001
0000
0000
0000
1001
0000
0000
1100
,
0000
0000
0011
0000
1001
0000
0000
1010
0000
0000
0101
0000
0011
0000
0000
0011
,
0000
0000
1001
0000
0101
0000
0000
0011
0000
0000
0110
0000
1100
0000
0000
0110
,
0000
0000
0011
0000
1100
0000
0000
0110
0000
0000
0110
0000
1001
0000
0000
1001
,
0000
0000
0011
0000
1000
0100
1000
0000
1100
0000
0110
0000
0011
0000
0000
1001
,
0000
0000
0110
0000
1001
0000
0000
0101
0000
0000
0110
0000
1001
0000
0000
1010
,
0000
0000
0110
0000
1001
0000
0000
0110
0000
0000
1001
0000
1001
0000
0000
0110
,
0000
0000
0110
0000
0000
0110
0000
0000
1001
0000
0110
0000
1000
0001
1001
0000
,
0000
0000
0100
0000
0100
0000
0000
0100
0000
0000
0010
0000
1001
0000
0010
0000
,
1000
0001
0110
0100
0001
0010
1001
0100
,
0010
0100
1010
0001
0010
0100
0101
1000
,
0001
0100
0011
0100
0001
0100
2200
0000
,
0000
0000
0000
0000
0000
0000
0000
0000
3300
0000
0010
0000
1001
0000
0010
0100
,
0000
0000
0010
0000
1100
0000
1000
0001
0000
0000
1000
0000
0011
0000
1000
0001
,
0000
0100
1010
0100
0101
0010
0202
0000
,
0000
0300
0100
0003
2200
0000
0000
0000
0000
0000
0000
0000
3300
0000
0000
0000
,
0000
0000
0000
0000
0000
0000
0000
0000
0000
0000
0000
1000
0101
0000
0010
0000
,
0110
0000
0001
0000
1001
0000
0010
1000
0000
0000
0000
0001
1010
0000
0100
0000
,
1001
0000
1000
0000
0110
0000
0100
0001
0000
0000
0000
0000
2000
0000
0000
0000
,
0000
3000
0200
0300
0020
0000
0000
0000
0000
0030
0002
0003
2002
0000
0000
0000
,
0000
0000
0000
0000
0000
0000
0000
0000
3003
0000
1000
0000
0100
0000
0100
0010
,
0000
0000
0001
0000
0010
0000
0010
0100
0000
0000
1000
0000
0100
0000
0100
0001
,
0000
0000
0001
0000
0010
0000
0010
1000
0000
0000
0001
0000
0200
0000
0000
0000
,
0000
0300
0020
0000
2000
0000
0000
0000
0000
0000
0000
0000
0000
0000
0000
0000
,
3030
0000
0000
0000
0000
0000
0000
0000
0000
0000
0000
0000
1001
0000
0000
1001
,
0000
0000
1100
0000
0101
0000
0000
0011
0000
0000
1010
0000
0101
0000
0000
0101
,
0000
0000
0101
0000
0011
0000
0000
0011
0000
0000
0011
0000
1100
0000
0000
1100
,
0000
0000
1100
0000
0110
0000
0000
0110
0000
0000
0110
0000
1001
0000
0000
1001
,
0000
0000
1001
0000
1000
0100
0010
0000
1100
0000
0110
0000
1001
0000
0000
1001
,
0000
0000
1100
0000
0101
0000
0000
0011
0000
0000
1010
0000
0101
0000
0000
0101
,
0000
0000
0101
0000
0011
0000
0000
0011
0000
0000
0011
0000
1100
0000
0000
1100
,
0000
0000
1100
0000
0110
0000
0000
0110
0000
0000
0110
0000
1001
1001
0000
1001
,
0000
0000
0110
0000
0110
0000
0000
0011
1100
0000
0110
0000
2001
0000
3120
0000
,
2031
3210
1302
0123
0132
1203
2301
3021
,
0231
0312
1023
0132
0213
0321
0231
2301
,
3201
1320
2031
3102
0213
1320
0132
0123
,
1032
0213
0321
1032
0213
1302
2103
3021
,
0231
0312
2103
3021
1230
0312
0123
2031
,
3210
0321
1032
1203
0321
0132
1023
0231
,
0321
0000
1230
0000
0321
0000
2130
0000
3012
0000
2103
0000
3110
0110
0000
1001
,
0000
0000
0000
0000
0000
0000
0011
0000
0000
0000
0000
0000
1010
0000
0000
0000
0000
0000
0000
0000
0000
0001
0000
0000
0100
0000
0010
0000
0100
0000
0010
0000
0100
0000
0010
0000
0100
0000
0010
0000
0000
0000
0101
0000
0000
0000
0000
0000
,
1100
0000
0011
0000
1000
0100
0010
0001
1000
0000
0110
0000
0001
0010
0100
1000
,
0001
0000
0110
0000
1000
0100
0000
0001
1000
0000
0110
0000
0001
0010
0100
1000
,
0001
0000
0110
0000
1000
0100
1000
0100
1000
0000
0100
0000
0001
0010
0001
0010
,
0001
0000
0001
0000
1000
0010
0000
0010
0100
0000
0001
0000
0001
0100
0001
0100
,
0010
0000
1000
0000
1000
0100
0010
0001
1000
0000
0110
0000
0001
0010
0100
1000
,
0001
0000
0110
0000
0010
0100
0001
1000
0010
0000
1001
0000
0210
0000
1302
0000
,
2103
3201
1320
0231
0312
2103
3220
0000
,
0330
1001
1100
0101
,
0011
0100
1010
0000
0011
0000
0101
0000
,
0100
0000
0110
0000
2002
0000
0000
0000
0000
3003
0020
0000
0200
0000
0000
0000
,
0000
0330
2000
0000
0002
0000
0000
0000
0000
0000
0000
0000
0000
0000
0000
0000
,
3003
0000
1000
0000
0100
0000
0100
0010
0000
0000
0001
0000
0010
0000
0010
0100
,
0000
0000
1000
0000
0100
0000
0100
0001
0000
0000
0001
0000
0010
0000
0010
1000
,
0000
0000
0001
0000
0200
0000
0000
0000
0000
0300
0020
0000
2000
0000
0000
0000
,
0000
0000
0000
0000
0000
0000
0000
0000
3030
0000
0110
0000
0110
0000
0000
0001
,
0000
0000
0100
0000
0101
0000
0010
0000
0110
0000
0001
0000
1001
0000
0010
1000
,
0000
0000
0000
0001
1010
0000
0100
0000
1001
0000
1000
0000
0110
0000
0100
0001
,
0000
0000
0000
0000
2000
0000
0000
0000
0000
3000
0200
0300
0020
0000
0000
0000
,
0000
0030
0002
0003
2002
0000
0000
0000
0000
0000
0000
0000
0000
0000
0000
0000
,
3003
0000
0001
0000
0010
0000
0010
0100
0000
0000
1000
0000
0100
0000
0100
0010
,
0000
0000
0001
0000
0010
0000
0010
1000
0000
0000
1000
0000
0100
0000
0100
0001
,
0000
0000
1000
0000
0220
0000
0000
0000
0000
0330
0200
0000
0020
0000
0000
0000
,
0000
0000
0330
0000
,
0000
0000
0000
0000
1001
0000
0000
1001
0000
0000
1100
0000
0101
0000
0000
0011
,
0000
0000
1010
0000
0101
0000
0000
0101
0000
0000
0101
0000
0011
0000
0000
0011
,
0000
0000
0011
0000
1100
0000
0000
1100
0000
0000
1100
0000
0110
0000
0000
0110
,
0000
0000
0110
0000
1001
0000
0000
1001
0000
0000
1001
0000
0001
0010
0100
0000
,
1100
0000
0110
0000
1001
0000
0000
1001
0000
0000
1100
0000
0101
0000
0000
0011
,
0000
0000
1010
0000
0101
0000
0000
0101
0000
0000
0101
0000
0011
0000
0000
0011
,
0000
0000
0011
0000
1100
0000
0000
1100
0000
0000
1100
0000
0110
0000
0000
0110
,
0000
0000
0110
0000
1001
0000
0000
1001
0000
0000
1001
0000
0010
0100
0010
0000
,
1100
1001
0000
0000
0000
0000
0000
0000
;
