#TITLE:Big Big Big Da Balls;
#SUBTITLE:;
#ARTIST:Pure Pwnage;
#TITLETRANSLIT:;
#SUBTITLETRANSLIT:;
#ARTISTTRANSLIT:;
#CREDIT:Arch0wl;
#BANNER:bigbigbigdaballs-bn.png;
#BACKGROUND:bigbigbigdaballs-bg.png;
#LYRICSPATH:;
#CDTITLE:!arch0wltitle.png;
#MUSIC:bigbigbigdaballs.ogg;
#OFFSET:1.132;
#SAMPLESTART:19.050;
#SAMPLELENGTH:25.000;
#SELECTABLE:YES;
#BPMS:0.000=116.000;
#STOPS:;
#BGCHANGES:0.000=bigbigbigdaballs-bg.png=1.000=0=0=1,
1.875=bigbigbigdaballs.avi=1.000=0=0=1,
99999=-nosongbg-=1.000=0=0=0 // don't automatically add -songbackground-
;
// cache tags:
#FIRSTBEAT:23.000;
#LASTBEAT:357.000;
#SONGFILENAME:Songs/Archmage and Dark0wl Hammer of Thor UltraHyperMegaPack/Big Big Big Da Balls/bigbigbigdaballs.sm;
#HASMUSIC:1;
#HASBANNER:1;
#MUSICLENGTH:105.000;
// end cache tags

//---------------dance-single - Arch0wl----------------
#NOTES:
     dance-single:
     Arch0wl:
     Challenge:
     16:
     1.000,1.000,1.000,0.105,1.000,1382.000,134.000,11.000,0.000,2.000:
0000
0000
0000
0000
,
0000
0000
0000
0000
,
0000
0000
0000
0000
,
0000
0000
0000
0000
,
0000
0000
0000
0000
,
0000
0000
0000
0000
0000
0000
0001
0100
,
1001
0011
1001
0101
1001
0011
0100
1001
,
1010
0000
1001
0000
0010
0000
0101
0000
0100
0010
1000
0000
1010
0001
0010
0100
,
0010
1000
0010
0001
0010
0100
0010
1000
1001
0100
0010
0001
0010
1000
0010
0100
,
0010
0000
0001
0000
0010
0000
1000
0000
0010
0000
0100
0000
0010
0000
0001
0000
0010
0000
1000
0000
0010
0000
0100
0000
0001
0100
0010
0000
0001
0000
0010
0100
,
1000
0000
0100
0000
0001
0000
0010
0000
0100
1000
0010
0000
1000
0000
0100
0010
1000
0000
0010
0000
0001
0000
0100
0000
0010
1000
0001
0100
0010
1000
0001
0100
,
0010
1000
0001
0100
0010
1000
0100
0000
0010
0000
0001
0000
1000
0000
0001
0000
0100
0000
0001
0000
0010
0000
0001
0000
0100
1000
0001
0000
0010
0000
0100
0001
,
0010
0000
0100
0000
1000
0000
0100
0000
1000
0010
0001
0000
0010
0000
1000
0001
0100
0000
0001
0000
1000
0000
0010
0000
0100
0001
1000
0010
0100
0001
1000
0010
,
0100
0001
1000
0010
0100
0001
1000
0100
0010
0000
0001
0000
0100
0000
0010
0000
1002
0000
1000
0000
1000
0000
1000
0000
0013
0001
0100
0000
0001
0000
0010
0100
,
0001
0000
0100
0000
1000
0000
0010
0000
0100
1000
0001
0000
0010
0000
0100
0001
0010
0000
0100
0000
1000
0000
0100
0000
1000
0100
0010
0001
1000
0100
0010
0001
,
1000
0100
0010
0001
1000
0010
0100
0000
0001
0000
0010
0000
0001
0000
0100
0000
2001
0000
0001
0000
0001
0000
0001
0000
3010
0001
0100
0000
0001
0000
0010
0001
,
1000
0000
0010
0000
1000
0000
0010
0000
0100
0001
0010
0000
0001
0000
0100
0010
1000
0000
0001
0000
0100
0000
0010
0000
1000
0010
0100
0001
1000
0010
0100
0001
,
1000
0010
0100
0001
1000
0010
0100
1000
0001
0000
0010
0000
1000
0000
0100
0000
1001
0000
0000
0000
0000
0000
0000
0000
0001
0000
0000
0000
1001
0000
0000
0000
,
1001
0000
1001
0000
1001
0001
0101
0000
0101
0000
0101
0000
0101
0000
0011
0001
,
0020
0001
0030
0001
2000
0001
3000
0001
1001
0000
0101
0000
0001
0000
1001
0000
,
1001
1001
1001
0101
0101
0101
0101
0011
,
0101
0000
0101
2000
0001
0000
0001
3000
2001
0000
0001
0000
3001
0010
0001
0010
,
0100
0000
1000
0000
0100
0000
1000
0000
0010
0100
0010
0100
0001
0000
0000
0000
0010
0100
0010
0100
1000
0000
0000
0000
0211
0000
0000
0000
0000
0000
0001
0000
,
0301
0000
0000
0000
0000
0000
0000
0000
0000
0000
0000
0000
0001
0000
0000
0000
0000
0000
0000
0000
0000
0000
0000
0000
0001
0000
0000
0000
0000
0000
0000
0000
0000
0000
0000
0000
0000
0000
0000
0000
0000
0000
0001
0000
0000
0000
0000
0000
0000
0000
0000
0000
0000
0000
0000
0000
0001
0000
0000
0000
0000
0000
0000
0000
0000
0000
0000
0000
0000
0000
0000
0000
0001
0000
0000
0000
0000
0000
0000
0000
0000
0001
0000
0000
0000
0000
0000
0000
0000
0000
0000
0000
0000
0000
0000
0000
0001
0000
0000
0000
0000
0000
0000
0000
0000
0000
0000
0000
0000
0000
0000
0000
0000
0000
0000
0000
0000
0001
0000
0000
0000
0000
0000
0000
0000
0000
0000
0000
0000
0001
0000
0000
0000
0000
0000
0000
0000
0000
0000
0000
0000
0000
0000
0000
0000
0000
0000
0001
0000
0000
0000
0000
0000
0000
0000
0000
0000
0000
0000
0000
0000
0000
0000
0000
0000
0000
0000
0000
0000
0000
0000
0000
0001
0000
0000
0000
0000
0000
0000
0000
0000
0000
0000
0000
0000
0000
0000
0000
0000
0000
0000
0000
,
0000
0000
0000
0001
0000
0000
0000
0000
0000
0000
0000
0000
0000
0000
0000
0000
0001
0000
0010
0000
0001
0000
0010
0000
0001
0000
0010
0000
0001
0000
0010
0000
0001
0000
0010
0000
0001
0000
0010
0000
0001
0000
0010
0000
0001
0000
0010
0000
0001
0000
0010
0000
0001
0000
0010
0000
0001
0000
0010
0000
0001
0000
0010
0000
,
0100
1000
0100
1000
0100
1000
0100
1000
0100
1000
0100
1000
0100
1000
0100
1000
0100
1000
0100
1000
0100
1000
0100
1000
1100
0000
0000
0000
0100
0000
0000
0000
,
1100
0000
1100
0000
0110
0100
0110
0000
0011
0000
1100
0000
0010
0000
0010
0010
,
1000
0010
1000
0010
0100
0010
0100
0010
0101
0000
0011
0000
1100
0000
1000
0000
,
1010
1010
0110
0110
1001
1100
0100
0100
,
0110
0110
1001
1001
0011
0011
1100
0100
,
0110
0000
0110
0000
0011
0010
0011
0000
1001
0000
1100
0000
0010
0000
0010
0010
,
0001
0010
0001
0010
1000
0010
1000
0010
0011
0000
0011
0000
1100
0000
1100
0000
,
0110
0110
0011
0011
1001
1001
0011
0011
,
0110
0000
0110
0000
1100
0000
1100
0000
1001
0000
1001
0000
1000
0010
0100
0001
,
0000
0010
0001
0000
0100
0001
0000
0010
0001
0100
0010
1000
0100
0010
0001
0010
,
0100
0000
0010
0000
0001
0000
1000
0000
0100
0000
1000
0000
0100
0000
1000
0000
0010
0000
1000
0000
0010
0000
1000
0000
0001
0010
0100
1000
0001
0000
0100
0000
,
0010
0000
1000
0000
0010
0000
0100
0000
0010
0000
1000
0000
0010
0000
0100
0000
0010
0000
1000
0000
0010
0000
0100
0000
0001
0010
0100
1000
0010
0000
0100
0000
,
0001
0100
0010
0100
1000
0100
1000
0100
1000
0100
0010
1000
0001
0000
0010
0000
,
0100
0000
0000
0000
1000
0000
0000
0000
0001
0000
0100
0000
0010
0000
0100
0000
0001
0000
0100
0010
1000
0010
0100
0001
0010
0000
0100
0000
1000
0000
0100
0000
,
0010
0000
0100
0000
1000
0010
0100
0000
0001
0010
0100
1000
0010
0100
0001
0010
0100
1000
0100
1000
0100
1000
0001
0010
0001
0010
0001
0010
0001
0000
0100
0000
,
0010
0000
0100
0000
0001
0000
0100
0000
0010
0000
0100
0000
0001
0000
0100
0000
0010
0000
0100
0000
0001
0010
0100
1000
0010
0000
0100
0000
1000
0000
0100
0000
,
0010
0000
0100
0000
1000
0000
0100
0000
0001
0010
0100
1000
0010
0100
0001
0010
0100
1000
0010
0100
0001
0010
0100
1000
0010
0000
0100
0000
0001
0000
0100
0000
,
0010
0000
0100
0000
0001
0000
0100
0000
0010
0000
0100
0000
0001
0000
0100
0000
0010
0000
0100
0000
0001
0000
0100
0000
0001
1000
0010
0000
0100
0000
0001
0100
,
1000
0000
0100
0000
0001
0000
1000
0000
0010
0100
1000
0000
0001
0000
0010
1000
0100
0000
0010
0000
0001
0000
1000
0000
0010
0100
0001
1000
0010
0100
0001
1000
,
0010
0100
0001
1000
0010
0100
1000
0001
0010
0000
1000
0000
0100
0000
0010
0000
0001
0000
1000
0000
0100
0000
0010
0000
0100
0010
0001
0000
0010
0000
0100
1000
,
0010
0000
0100
0000
0001
0000
0010
0000
0001
0010
0100
0000
1000
0000
0001
0100
0010
0000
1000
0000
0001
0000
0010
0000
0100
1000
0001
0010
0100
1000
0001
0010
,
0100
1000
0001
0100
0010
1000
0100
0010
0001
0000
0100
0000
0010
0000
1000
0000
0001
1000
0100
0000
0010
0000
0001
0000
0100
0010
1000
0000
0100
0000
1000
0010
,
0100
0000
0001
0000
1000
0010
0100
0000
0001
0010
0100
0000
0010
0000
0100
0010
0001
0000
0010
0000
0100
0010
0001
0000
0010
0100
1000
0001
0010
0100
1000
0001
,
0010
0100
1000
0001
0100
0010
1000
0100
0010
0000
0001
0000
0100
0000
0010
0000
1000
0000
0100
0000
0010
0000
0001
0000
1000
0010
1000
0010
0100
0001
0100
0001
,
0010
0100
0010
0100
1000
0010
1000
0010
0100
0001
0010
0000
0100
0000
0010
0001
0100
0000
0010
0000
0100
0010
1000
0000
0010
0100
0001
1000
0010
0100
0001
1000
,
0010
0100
0001
1000
0100
0010
0001
0100
0010
0000
1000
0000
0100
0010
0001
0100
0010
0000
1000
0000
0100
0000
1000
0000
0001
0010
0100
1000
0010
0100
0001
0010
,
0100
1000
0010
0100
0001
0010
0100
1000
0010
0100
0001
0010
0100
1000
0010
0100
0001
0010
0100
1000
0010
0100
0001
0010
0100
1000
0010
0100
0001
0010
0100
1000
,
0001
0000
0000
0000
0000
0000
0000
0000
0000
0001
0000
0000
0000
0000
0000
0000
0000
0000
0001
0000
0000
0000
0000
0000
0000
0000
0000
0000
0000
0000
0000
0000
0000
0000
0000
0000
0001
0000
0000
0000
0000
0000
0000
0000
0000
0001
0000
0000
0000
0000
0000
0000
0000
0000
0000
0000
0000
0000
0000
0000
0000
0000
0000
0000
0000
0000
0000
0000
0000
0001
0000
0000
0000
0000
0000
0000
0000
0000
0000
0000
0000
0000
0000
0000
0000
0000
0000
0000
0000
0000
0001
0000
0000
0000
0000
0000
0000
0000
0000
0000
0001
0000
0000
0000
0000
0000
0000
0000
0000
0000
0000
0000
0001
0000
0000
0000
0000
0000
0000
0000
0000
0000
0000
0000
0000
0000
0001
0000
0000
0000
0000
0000
0000
0000
0000
0001
0000
0000
0000
0000
0000
0000
0000
0000
0000
0000
0000
0000
0000
0000
0000
0000
0000
0001
0000
0000
0000
0000
0000
0000
0000
0000
0000
0000
0000
0000
0000
0000
0000
0000
0000
0001
0000
0000
0000
0000
0000
0000
0000
0000
0000
0000
0000
0000
0000
0000
0000
0000
0000
0000
0000
0000
,
0000
0000
0000
0000
0000
0000
0000
0001
0000
0000
0000
0000
0000
0000
0000
0000
0000
0000
0000
0000
0000
0000
0000
0000
0000
0000
0000
0000
0000
0000
0000
0000
0001
0000
1000
0000
0001
0000
1000
0000
0001
0000
1000
0000
0001
0000
1000
0000
0001
0000
1000
0000
0001
0000
1000
0000
0001
0000
1000
0000
0010
0000
0100
0000
,
0001
0010
0100
1000
0010
0100
0001
0010
0100
1000
0010
0100
0001
0010
0100
1000
0001
1000
0001
1000
0001
1000
0001
1000
1001
0000
0000
0000
1000
0000
1000
0000
,
0010
1000
0010
1000
0100
1000
0100
1000
1010
0000
1001
0000
0001
0000
0001
0000
,
0011
0011
0110
0110
0011
1001
0011
0010
,
0110
0110
1100
1100
1001
0110
0001
0001
,
0101
0000
0101
0000
0012
0010
0010
0000
1003
0100
0011
0000
0011
0000
1000
1000
,
0010
1000
0010
1000
0001
1000
0001
1000
1010
0000
0110
0000
0010
0000
0010
0000
,
1010
1010
0101
0101
1001
1001
1100
1100
,
0110
0110
0011
0011
1001
1001
0011
0011
,
0110
0000
0000
0000
0110
0000
0000
0000
1100
0000
0100
0000
1100
0000
0000
0000
1001
0000
0000
0000
1000
0001
0010
0100
0010
0000
0000
0000
0000
0000
0000
0000
,
0001
0010
0100
1000
0100
0000
0000
0000
0010
0001
0100
0010
0100
0000
0000
0000
0000
0000
0000
0000
0100
0010
1000
0100
1000
0000
0000
0000
0000
0000
0000
0000
,
0000
0000
0000
0000
0100
0010
0100
0010
0001
1000
0001
0000
1000
0001
1000
0000
0000
0000
0000
0000
0100
0010
0100
0010
0001
0010
0100
1000
0001
0010
0100
1000
,
0001
0010
0100
1000
0001
0010
0100
1000
0001
0010
0100
1000
0001
0100
0010
1000
0001
0100
0010
1000
0001
0100
0010
1000
0001
0100
0010
1000
0001
0100
0010
1000
,
0001
0100
0010
1000
0010
0000
0000
0000
0010
1000
0100
0010
0100
0000
0000
0000
0000
0000
0000
0000
1000
0001
0010
0100
0010
0000
0000
0000
0000
0000
0000
0000
,
0001
0010
0100
1000
0100
0000
0000
0000
0010
0001
0100
0010
0100
0000
0000
0000
0000
0000
0000
0000
0100
0010
1000
0100
1000
0000
0000
0000
0000
0000
0000
0000
,
0000
0000
0000
0000
0100
0010
0100
0010
0001
1000
0001
0000
1000
0001
1000
0000
0000
0000
0000
0000
0100
0010
0100
0010
0001
0010
0100
1000
0001
0010
0100
1000
,
0001
0100
0010
1000
0001
0100
0010
1000
0001
0010
0100
1000
0001
0100
0010
1000
0001
0010
0100
1000
0001
0100
0010
1000
0001
0010
0001
0010
0001
0010
0001
0010
,
0100
0000
0000
0000
0000
0000
1000
0000
0000
0000
0000
0000
0100
0000
0000
0000
0000
0000
1000
0000
0000
0000
0000
0000
0100
0000
0000
0000
0000
0000
1000
0000
0000
0000
0000
0000
0100
0000
0000
0000
0000
0000
1000
0000
0000
0000
0000
0000
0010
0000
0000
0000
0100
0000
0000
0000
0001
0000
0000
0000
0010
0000
0000
0000
0100
0000
0000
0000
1000
0000
0000
0000
0020
0000
0000
0000
0000
0000
0000
0000
0000
0000
0000
0000
0000
0000
0000
0000
0000
0000
0000
0000
0000
0000
0000
0000
0000
0000
0000
0000
0000
0000
0000
0000
0000
0000
0000
0000
0000
0000
0000
0000
0000
0000
0000
0000
0000
0000
0000
0000
0000
0000
0000
0000
0000
0000
0000
0000
0000
0000
0000
0000
0000
0000
0000
0000
0000
0000
0000
0000
0000
0000
0000
0000
0000
0000
0000
0000
0000
0000
0000
0000
0000
0000
0000
0000
0000
0000
0000
0000
0000
0000
0000
0000
0000
0000
0000
0000
0130
0000
0000
0000
0000
0000
0001
0000
0000
0000
0000
0000
0100
0000
0000
0000
0000
0000
0001
0000
0000
0000
0000
0000
,
0010
0000
0000
0000
0010
0100
1000
0000
0001
0100
0010
0000
0000
0000
0010
0100
0001
0000
0000
0000
0000
0000
0000
0000
0000
0000
0000
0000
0010
0001
1000
0000
,
0010
0100
0001
0000
0100
0010
1000
0000
0100
0010
0001
0000
0000
0000
0001
0010
0100
0000
0000
0000
0000
0000
0000
0000
0000
0000
0000
0000
1000
0001
0010
0000
,
0100
0010
0001
0000
0010
0001
1000
0000
0010
0100
0001
0000
1000
0100
0010
0000
0001
0010
0100
0000
1000
0100
0010
0000
0001
0010
0100
0000
1000
0010
0100
0000
,
0001
0000
0000
0000
0000
0000
0100
0000
0000
0000
0000
0000
0010
0000
0000
0000
0000
0000
0000
0000
0000
0000
0000
0000
1000
0000
0000
0000
0000
0000
0010
0000
0000
0000
0000
0000
1000
0000
0000
0000
0000
0000
0010
0000
0000
0000
0000
0000
0100
0000
0000
0000
0000
0000
0001
0000
0000
0000
0000
0000
0010
0000
0000
0000
0000
0000
0100
0000
0000
0000
0000
0000
1000
0000
0000
0000
0000
0000
0010
0000
0000
0000
0000
0000
0100
0000
0000
0000
0000
0000
0001
0000
0000
0000
0000
0000
1000
0000
0000
0000
0100
0000
0000
0000
0010
0000
0000
0000
0001
0000
0000
0000
0000
0000
0000
0000
0000
0000
0000
0000
0000
0000
0000
0000
0000
0000
0000
0000
0000
0000
0000
0000
0000
0000
0000
0000
0000
0000
0000
0000
0000
0000
0000
0000
0000
0000
0000
0000
0000
0000
0000
0000
0000
0000
0000
0000
0000
0000
0000
0000
0000
0000
0000
0000
0000
0000
0000
0000
1000
0000
0000
0000
0000
0000
0100
0000
0000
0000
0000
0000
1000
0000
0000
0000
0000
0000
0000
0000
0000
0000
0000
0000
,
0001
0100
0001
0000
1000
0100
1000
0000
0001
0010
0100
0000
0000
0000
0000
0000
0000
0000
0000
0000
0000
0000
0000
0000
0000
0000
0000
0000
1000
0010
1000
0000
,
0001
0010
0001
0000
1000
0010
1000
0000
0001
0100
0010
0000
0000
0000
0010
0100
0001
0000
0000
0000
0000
0000
0000
0000
0000
0000
0000
0000
0001
0010
0100
1000
,
0100
0000
0000
0000
0000
0000
0000
0000
0000
0000
0000
0000
1000
0010
0100
0001
0100
0000
0000
0000
0000
0000
0000
0000
0001
0100
1000
0100
0001
0100
1000
0100
,
0001
0100
1000
0100
0001
0100
1000
0100
0001
0000
0000
0000
0000
0000
0000
0000
0000
0000
0000
0000
0000
0000
0000
0000
0000
0000
0000
0000
1000
0010
0100
0001
,
0100
0000
0000
0000
0000
0000
0000
0000
0000
0000
0000
0000
0001
0010
0100
1000
0100
0000
0000
0000
0000
0000
0000
0000
1000
0010
0001
0010
1000
0010
0001
0010
,
1000
0010
0001
0010
1000
0010
0001
0010
1000
0000
0000
0000
0000
0000
0000
0000
0000
0000
0000
0000
0000
0000
0000
0000
0000
0000
0000
0000
0001
0010
0100
0000
,
0010
0000
0000
0000
0000
0000
0100
0000
0000
0000
0000
0000
1000
0000
0000
0000
0000
0000
0000
0000
0000
0000
0000
0000
0100
0000
0000
0000
0000
0000
1000
0000
0000
0000
0000
0000
0010
0000
0000
0000
0000
0000
0000
0000
0000
0000
0000
0000
0100
0000
0000
0000
0000
0000
0010
0000
0000
0000
0000
0000
1000
0000
0000
0000
0000
0000
0000
0000
0000
0000
0000
0000
0100
0000
0000
0000
0000
0000
0010
0000
0000
0000
0000
0000
0001
0000
0000
0000
0000
0000
0000
0000
0000
0000
0000
0000
0010
0000
0000
0000
0000
0000
0001
0000
0000
0000
0000
0000
1000
0000
0000
0000
0000
0000
0000
0000
0000
0000
0000
0000
0001
0000
0000
0000
0010
0000
0000
0000
0100
0000
0000
0000
1000
0000
0000
0000
0000
0000
0000
0000
0000
0000
0000
0000
0000
0000
0000
0000
0000
0000
0000
0000
0000
0000
0000
0000
0000
0000
0000
0000
0000
0000
0000
0000
0000
0000
0000
0000
0100
0000
0000
0000
0000
0000
0001
0000
0000
0000
0000
0000
0010
0000
0000
0000
0000
0000
0100
0000
0000
0000
0000
0000
,
1000
0010
1000
0010
1000
0000
0000
0000
0001
0100
0001
0100
0001
0000
0000
0000
0000
0000
0000
0000
0000
0000
0000
0000
0000
0000
0000
0000
0001
1000
0100
1000
,
0010
0000
0000
0000
0000
0000
0000
0000
0000
0000
0000
0000
0010
1000
0001
1000
0100
0000
0000
0000
0000
0000
0000
0000
0000
0000
0000
0000
0000
0000
0000
0000
,
0000
0000
0000
0000
1000
0100
0010
0000
0000
0000
0000
0000
0010
0100
1000
0000
0000
0000
0000
0000
0000
0000
0000
0000
0000
0000
0000
0000
0001
0100
0010
1000
,
0100
0000
0000
0000
0010
0001
0100
0010
1000
0001
1000
0001
1000
0001
1000
0001
1000
0001
1000
0001
1000
0001
1000
0001
1000
0000
0000
0000
1000
0100
0010
0001
,
0100
0000
0000
0000
0010
1000
0100
0010
0001
1000
0001
1000
0001
1000
0010
0100
0010
0100
0010
0100
0010
0100
0010
0100
0010
0100
0010
0100
0001
0000
0000
0000
,
0011
0000
0000
0000
0000
0000
0001
0000
0011
0000
0000
0000
0001
0000
0000
0001
,
0000
0001
0011
0000
0000
0000
2102
0000
,
0000
3003
0000
0000
;

//---------------dance-single - Arch0wl----------------
#NOTES:
     dance-single:
     Arch0wl:
     Hard:
     9:
     0.756,0.892,0.610,0.333,0.286,456.000,64.000,35.000,0.000,4.000:
0000
0000
0000
0000
,
0000
0000
0000
0000
,
0000
0000
0000
0000
,
0000
0000
0000
0000
,
0000
0000
0000
0000
,
0000
0000
0000
0001
,
1000
0010
1000
0100
1000
0001
0000
0001
,
1000
0000
0010
0000
0000
0000
0100
0000
0001
1000
0010
0000
1010
0000
0000
0000
,
0000
0000
2002
3003
,
0000
0000
0000
0000
0000
0000
0000
0000
0000
0000
0000
0000
0001
0010
0000
0001
,
1000
0000
0000
0000
0100
0010
0000
0100
1000
0000
0000
0000
0010
0000
0010
0000
,
0010
0000
0010
0100
0000
0000
0000
0000
0100
0000
0010
0000
0100
0001
0000
0100
,
0010
0000
0000
0000
1000
0001
0000
1000
0100
0000
0000
0010
0100
0000
0100
0000
,
0100
0000
0100
0010
0000
0000
0100
0000
2002
0000
0000
0000
3103
0010
0000
1000
,
0010
0000
0000
0000
0100
0001
0000
0100
0010
0000
0000
0000
1000
0000
1000
0000
,
1000
0000
1000
0100
0000
0000
0010
0000
2002
0000
0000
0000
3013
0100
0000
0010
,
0001
0000
0000
0000
0100
0010
0000
0100
1000
0000
0000
0000
0001
0000
0001
0000
,
0001
0000
0001
0010
0000
0000
0100
0000
1001
0000
0000
0000
0001
0000
1000
0000
,
1000
1000
1000
0100
0100
0100
0100
0010
,
0022
0033
2200
3300
0010
0001
0000
0001
,
0001
0001
0001
0100
0100
0100
0100
0010
,
0010
0000
0010
2000
0000
0000
0000
3000
2002
0000
0000
0000
3003
0000
0000
0000
,
0000
0000
0020
0030
0020
0030
0220
0000
,
0330
0000
0000
0000
,
0000
0002
0000
0000
,
2003
0000
0000
3100
,
0100
0100
0010
0010
0001
1000
0000
0000
,
1000
1000
0010
0010
0100
0001
1000
0000
,
0010
0010
0100
0100
0001
1000
0000
0000
,
0010
0010
1000
1000
0001
0010
0100
0000
,
0100
0100
1000
1000
0001
0100
0000
0000
,
0001
0001
1000
1000
0010
0010
1000
1000
,
0100
0100
0010
0010
0001
0001
1000
1000
,
0100
0000
0100
0000
0010
0000
0010
0000
0001
0000
0001
0000
1000
0010
0100
0001
,
0000
0010
0001
0000
0100
0001
0000
0010
0001
0100
0010
1000
0100
0000
0000
0000
,
0000
1000
0100
0100
0010
0010
1001
0000
,
0000
0000
0000
0000
0000
0000
0000
0000
0000
0100
0010
0000
1010
0000
0000
0000
,
0000
1000
1000
0100
0100
0010
0001
0000
,
0000
0000
0000
0000
0000
0000
0000
0000
0000
0000
0001
0100
1000
0000
0000
0000
,
0000
0000
0100
0000
0101
0000
1100
0000
0101
0000
1100
0001
0000
0000
0000
0000
,
0000
0000
0000
0000
0000
0000
0000
0000
0000
0000
0001
0100
1000
0000
0000
0000
,
0000
0000
0100
0000
1010
0000
0101
0000
0011
0000
0100
1000
0000
0000
0000
0000
,
0000
0000
0000
0000
0000
0000
0000
0000
0000
0000
0000
0000
0001
0010
0000
0001
,
1000
0000
0000
0000
0010
1000
0000
0010
0100
0000
0000
0000
0010
0000
0010
0000
,
0010
0000
0010
0100
0000
0000
0000
0000
0001
0000
0010
0000
0100
1000
0000
0100
,
0010
0000
0000
0000
0001
1000
0000
0001
0100
0000
0000
0000
0010
0000
0010
0000
,
0010
0000
0010
1000
0000
0000
0000
0000
1000
0000
0100
0000
0010
0001
0000
0001
,
0000
0000
0001
0000
1000
0010
0000
0010
0000
0000
0010
0000
0100
0000
0100
0000
,
0100
0000
0100
0001
0000
0000
0000
0000
0000
0000
0000
0000
1000
0000
1000
0000
,
1000
0000
1000
0000
0001
0010
0000
0010
0000
0000
0010
0000
0100
0000
0100
0000
,
0100
0000
0100
0010
0000
0000
0001
0000
0101
0000
0000
0000
1100
0000
0000
0000
,
1100
0110
1100
0110
0000
0220
0000
0000
,
0332
0000
0000
0000
,
0000
0000
0000
0000
,
0000
0000
0000
1003
,
0100
0100
0010
0010
0001
1000
0000
0000
,
1000
1000
0010
0010
0100
0001
1000
0000
,
0010
0010
0100
0100
0001
1000
0000
0000
,
0010
0000
0010
0000
2000
0000
0000
0000
3001
0010
0100
0000
0100
0000
0000
0000
,
0100
0100
1000
1000
0001
0100
0000
0000
,
0001
0001
1000
1000
0010
0010
1000
1000
,
0100
0100
0010
0010
0001
0001
1000
1000
,
0100
0100
0010
0010
0001
1001
1100
0000
,
1000
0010
1000
1000
0000
0010
0011
0000
,
0000
0010
1000
1000
0000
0100
0011
0000
,
0000
0010
0101
0000
0000
0001
0011
0000
,
0010
0000
0010
0010
0000
1000
0011
0000
,
0010
0001
0100
0100
0000
0010
1001
0000
,
0000
1000
0100
0100
0000
1000
0110
0000
,
0010
0000
0010
0010
0100
0100
0110
0000
,
0110
0000
0110
0110
0000
0000
0000
0010
,
1000
0000
0100
0000
1100
0000
0000
0101
0000
0000
0000
0000
0000
0000
0100
0000
,
1000
0000
0010
0000
1010
0000
0000
0011
0000
0000
0000
0000
0000
0000
1000
0000
,
0010
0100
0110
1010
1010
1010
1100
0100
,
0010
0000
0100
0000
1100
0000
0000
0011
0000
0000
0000
0000
0000
0000
0001
0000
,
0100
0010
1001
0000
0000
0000
0000
1000
,
0100
0000
0010
0000
1001
0000
0000
0110
0000
0000
0000
0000
0000
0000
1000
0000
,
0010
0000
0000
0001
0010
0000
1000
0001
,
0100
1000
0100
0000
0000
0000
0000
0001
,
0010
0000
0000
1000
0010
0000
0001
1000
,
0010
0001
0010
0000
0000
0000
0000
1000
,
0100
0010
0001
0010
0100
2002
3003
0010
,
0202
0303
2020
0000
3030
0000
0000
1000
,
0100
0000
0000
0100
0010
0000
0000
0000
,
0000
2002
3003
2002
0000
3003
0000
1000
,
0010
0100
1001
0000
0000
0000
0000
0001
,
0010
0000
0100
0000
1001
0000
0000
0110
0000
0000
0000
0000
0000
0000
1000
0000
,
1100
0000
0000
0000
0000
0000
1000
0000
1100
0000
0000
0000
1000
0000
0000
1000
,
0000
1000
1100
0000
0000
0000
2012
0000
,
0000
3003
0000
0000
;
