#TITLE:End of the Moonlight;
#SUBTITLE:;
#ARTIST:Forte Escape;
#TITLETRANSLIT:;
#SUBTITLETRANSLIT:;
#ARTISTTRANSLIT:;
#CREDIT:Flash;
#BANNER:../Zeppelin_bn.png;
#BACKGROUND:../bg_Zeppelin.png;
#LYRICSPATH:;
#CDTITLE:../cdtitle_ZAiA.png;
#MUSIC:Forte Escape - End of the Moonlight.ogg;
#OFFSET:1.162;
#SAMPLESTART:28.050;
#SAMPLELENGTH:26.940;
#SELECTABLE:YES;
#BPMS:0.000=155.000;
#STOPS:;
#BGCHANGES:;
// cache tags:
#FIRSTBEAT:3.500;
#LASTBEAT:280.000;
#SONGFILENAME:Songs/Cirque du Zeppelin/End of the Moonlight - [Zaia]/End of the Moonlight.sm;
#HASMUSIC:1;
#HASBANNER:1;
#MUSICLENGTH:114.905;
// end cache tags

//---------------dance-single - 8/8-16----------------
#NOTES:
     dance-single:
     8/8-16:
     Challenge:
     12:
     1.000,1.000,0.131,0.078,1.000,869.000,15.000,9.000,0.000,0.000:
0000
0000
0000
0000
0000
0000
0000
1000
,
0001
0100
0001
1000
0100
1000
0010
0100
0001
1000
0001
0010
0100
0010
0001
0100
,
0010
0100
0001
1000
0010
1000
0100
0010
0100
1000
0001
0010
0100
1000
0001
0100
,
0001
0010
0001
1000
0010
1000
0100
0010
0001
1000
0001
0010
0100
0010
0001
0100
,
0010
1000
0001
0100
0001
0010
0100
1000
0001
0100
0010
0100
0001
1000
0010
1000
,
0100
0010
0001
1000
0010
1000
0100
0010
0001
1000
0001
0100
0010
0100
0001
0010
,
0100
0010
0001
1000
0100
1000
0010
0100
0010
1000
0001
0100
0010
1000
0001
0010
,
0001
0100
0001
1000
0100
1000
0010
0100
0001
1000
0001
0100
0010
0100
0001
0010
,
0100
1000
0001
0010
0001
0100
0010
1000
0001
0010
0100
0010
0001
1000
0001
0100
,
0000
0000
0000
0000
,
0001
0000
0000
0000
1000
0000
0000
0001
0000
1000
0000
0010
0100
0000
0000
0000
,
0001
1000
0010
0000
0100
0000
0001
0000
0010
0000
0001
0000
1000
0000
0010
0100
,
0001
0000
1000
0000
0100
0000
0010
0100
1000
0000
0001
0000
0100
0000
0010
0100
,
0001
0000
0000
0010
0001
0000
1000
0001
0100
0000
0010
0000
1000
0000
0001
0000
,
0010
0100
0000
1000
0100
0000
0010
0100
1000
0000
0001
0000
0100
0000
0010
0100
,
0001
0000
1000
0000
0100
0000
1000
0001
1000
0000
0010
0000
0100
0000
0001
0010
,
0100
1000
0001
1000
0010
0000
0100
0001
1000
0000
0001
0000
0010
0000
0100
1000
,
0001
0100
0000
0010
0100
0000
0001
1000
0100
0000
0010
0000
0001
0000
1000
0000
,
0001
0100
0000
0010
1000
0000
0001
1000
0100
0010
0100
1000
0001
1000
0010
0100
,
0001
0000
1000
0100
0010
0000
0001
0000
1000
0000
0010
0000
1010
0000
1000
0000
,
0001
0000
0010
0001
1000
0000
0100
0000
0010
0000
0001
0000
1001
0000
1000
0000
,
0010
0000
0100
0001
1000
0000
0100
0000
0010
0000
0100
0000
1100
0000
1000
0000
,
0010
0000
0100
0001
1000
0000
0100
0000
1000
0000
0010
0000
0110
0000
0100
0000
,
0010
0000
0100
0010
1000
0000
0001
0000
0010
0000
0100
0000
1100
0000
1000
0000
,
0001
0000
0100
0001
1000
0000
0010
0000
0100
0000
0001
0000
1001
0000
1000
0000
,
0100
0000
0010
0001
1000
0000
0010
0000
0100
0000
0010
0000
1010
0000
1000
0000
,
0100
0000
0010
0000
0001
0000
1000
0000
0001
0100
0001
0100
0001
0000
0010
0100
,
1000
0001
0100
0010
1000
0010
0100
0001
1000
0001
0010
0001
0100
0010
0100
0001
,
0010
0100
1000
0100
0010
0001
1000
0010
1000
0100
1000
0001
0100
0001
0010
0100
,
1000
0001
0100
0010
1000
0010
0100
0001
1000
0001
0010
0001
0100
0010
0100
0001
,
0010
0100
1000
0100
0010
0001
1000
0010
1000
0100
1000
0001
0100
0001
0010
0100
,
1000
0001
1000
0010
0100
0001
0100
0010
1000
0001
1000
0100
1000
0010
0100
0010
,
1000
0100
0010
0001
0010
0100
1000
0001
0100
0001
0010
0001
1000
0010
1000
0100
,
0010
0001
1000
0010
0100
0001
0100
0010
1000
0001
1000
0100
1000
0010
0100
0010
,
1000
0100
0010
0001
0010
0100
1000
0001
0100
0001
0010
0001
1000
0010
1000
0100
,
0010
0000
0011
0000
1001
0000
1000
0010
0100
0000
0110
0000
0000
0000
0001
0000
,
1000
0001
0100
0001
0010
0100
1000
0010
0100
0010
1000
0001
1000
0100
0010
0001
,
0100
0010
1000
0001
0100
0001
0010
0100
1000
0001
1000
0001
0010
0001
1000
0100
,
1000
0010
0100
0001
0100
0010
1000
0100
0010
0001
0010
0001
1000
0010
0100
0001
,
0010
0100
1000
0010
0100
0010
1000
0001
0010
0100
0010
0001
0100
0010
0100
0001
,
1000
0010
1000
0100
1000
0001
0100
0001
0010
0100
1000
0100
0010
0001
0100
0010
,
1000
0001
1000
0100
0010
0100
1000
0010
0100
0001
1000
0001
0100
0010
0100
0010
,
1000
0001
0010
0001
0100
0010
1000
0100
1000
0001
0100
0010
0100
0001
0010
0100
,
1000
0001
1000
0010
0100
0010
1000
0001
1000
0100
0010
0100
1000
0001
0100
0001
,
1000
0100
0010
0001
1000
0010
1000
0100
0010
0100
1000
0001
1000
0010
0100
0001
,
0010
0100
1000
0001
0010
0001
0100
0010
1000
0001
1000
0010
1000
0001
0010
0001
,
1000
0010
0100
0001
1000
0001
0010
0100
0010
0001
1000
0010
1000
0001
0100
0001
,
0010
0100
1000
0001
1000
0010
0100
0010
1000
0100
0010
0001
1000
0001
0100
0001
,
1000
0100
1000
0010
1000
0001
0100
0001
0010
0001
0100
0010
1000
0001
0010
0100
,
0010
0001
1000
0001
0100
0001
1000
0010
0100
0001
1000
0001
1000
0100
1000
0001
,
0010
0100
1000
0001
0100
0001
1000
0010
1000
0100
0010
0100
1000
0001
1000
0010
,
0100
0001
0010
0001
1000
0001
0100
0010
1000
0100
1000
0001
1000
0010
0100
0001
,
1000
0100
0000
0010
0001
0000
1000
0001
0000
0100
0001
0000
1000
0000
0010
0000
,
0100
0001
1000
0001
0010
0000
0100
0000
1200
0000
0000
0000
1300
0000
0100
1000
,
0001
0000
0100
0000
0100
0000
0010
1000
0001
0000
0010
0000
0012
0000
0000
0000
,
0013
0100
1000
0001
0100
0000
0020
0000
1030
0000
0000
0000
0001
0000
0000
0000
,
0010
0100
0100
1000
2000
3001
0001
0000
,
0010
0000
0001
0000
1000
0000
0001
0000
1000
0000
0000
0000
0010
0000
0000
0000
1020
0000
0000
0030
1000
0000
0010
0000
0100
0000
0000
0000
0001
0000
0010
0000
,
0100
0000
1000
0000
1000
0000
0001
0000
0102
0000
0103
0000
0010
0000
1000
0100
,
0010
0000
0001
0000
0001
0000
1000
0010
0200
0000
0000
0000
0301
0000
1000
0001
,
0010
0001
0001
1000
2010
3001
0001
1000
,
0001
0000
0100
0000
0010
0000
0100
0000
0001
0010
0001
0010
0100
1000
0010
0100
,
0001
0000
1000
0000
0100
0000
1000
0000
0010
0100
0001
1000
0100
1000
0010
0100
,
0001
0000
1000
0000
0001
0000
1000
0000
0010
0100
0001
0010
0001
1000
0100
1000
,
0001
0000
0100
0000
0010
0000
0100
0000
0001
1000
0001
1000
0010
0100
0001
0010
,
0100
0000
1000
0000
0001
0000
0100
0000
0010
1000
0010
1000
0100
0010
0100
1000
,
0001
0000
0100
0000
0010
0000
1000
0000
0001
0010
0001
1000
0010
1000
0001
0010
,
0100
0000
1000
0000
0001
0000
0100
0000
0010
0100
0001
1000
0100
0010
0100
1000
,
0001
0010
0001
1000
0100
1000
0010
1000
0001
0010
0001
0100
0010
1000
0001
1000
,
0200
0000
0000
0000
,
0300
0000
0000
0000
;

//---------------dance-single - 2/2/2/1/2----------------
#NOTES:
     dance-single:
     2/2/2/1/2:
     Hard:
     10:
     0.909,1.000,0.131,0.226,0.923,690.000,15.000,26.000,0.000,0.000:
0000
0000
0000
0000
0000
0000
0000
1000
,
0002
0000
0013
0200
0000
1300
0000
0002
,
0000
0103
0010
2000
0000
3000
0000
0001
,
0020
0000
0031
2000
0000
3010
0000
0200
,
0000
0301
1000
0200
0000
0310
0001
1000
,
0020
0000
0130
0002
0000
0013
0000
0002
,
1003
0100
1000
0001
0010
0001
0100
0010
0100
0001
1000
0010
0100
0001
1000
0100
,
1000
0010
1000
0001
0010
0001
0100
0010
1000
0001
1000
0010
0100
0010
1000
0100
,
0010
0001
1000
0100
1000
0010
0100
0001
1000
0100
0010
0100
1000
0001
0010
0001
,
0000
0000
0000
0000
,
1000
0000
0000
0000
0001
0000
0000
1000
0000
0001
0000
0100
0010
0000
0000
0000
,
1000
0001
0100
0000
0010
0000
1000
0000
0100
0000
1000
0000
0001
0000
0100
0010
,
1000
0000
0001
0000
0010
0000
0100
0010
0001
0000
1000
0000
0010
0000
0100
0010
,
1000
0000
0000
0100
1000
0000
0001
1000
0010
0000
0100
0000
0001
0000
1000
0000
,
0100
0010
0000
0001
0010
0000
0100
0010
0001
0000
1000
0000
0010
0000
0100
0010
,
1000
0000
0001
0000
0010
0000
0001
1000
0001
0000
0100
0000
0010
0000
1000
0100
,
0010
0001
1000
0001
0100
0000
0010
1000
0001
0000
1000
0000
0100
0000
0010
0001
,
1000
0010
0000
0100
0010
0000
1000
0001
0010
0000
0100
0000
1000
0000
0001
0000
,
1000
0010
0000
0100
0001
0000
1000
0001
0010
0100
0010
0001
1000
0001
0100
0010
,
1000
0000
0100
0010
0001
0000
1000
0000
0010
0000
0100
0000
0101
0000
0001
0000
,
1000
0000
0100
1000
0001
0000
0010
0000
0100
0000
1000
0000
1001
0000
0001
0000
,
0100
0000
0010
1000
0001
0000
0010
0000
0100
0000
0010
0000
0011
0000
0001
0000
,
0100
0000
0010
1000
0001
0000
0010
0000
0001
0000
0100
0000
0110
0000
0010
0000
,
0100
0000
0010
0100
0001
0000
1000
0000
0100
0000
0010
0000
0011
0000
0001
0000
,
1000
0000
0010
1000
0001
0000
0100
0000
0010
0000
1000
0000
1001
0000
0001
0000
,
0010
0000
0100
1000
0001
0000
0100
0000
0010
0000
0100
0000
0101
0000
0001
0000
,
0010
0000
0000
0100
1000
0000
0001
0000
1000
0010
1000
0010
1000
0000
0100
0010
,
0001
1000
0000
0001
1000
0000
0010
0100
0001
0000
1000
0000
0100
0000
0010
0000
,
0001
0100
0000
0001
1000
0000
0010
1000
0001
0000
0010
0000
0100
0000
1000
0000
,
0100
0010
0000
0001
0010
0000
0100
1000
0001
0000
0100
0000
0010
0000
1000
0000
,
0100
1000
0000
0001
1000
0000
0010
0100
0001
0000
1000
0000
0100
0000
0010
0000
,
0001
1000
0000
0010
1000
0000
0100
0010
0001
0000
1000
0000
0010
0000
0100
0000
,
0001
0010
0000
0001
1000
0000
0100
1000
0001
0000
0100
0000
0010
0000
1000
0000
,
0010
0100
0000
0001
0100
0000
0010
1000
0001
0000
0010
0000
0100
0000
1000
0000
,
0010
1000
0000
0001
1000
0000
0100
0010
0001
0000
1000
0000
0001
0000
1000
0000
,
0001
0000
0011
0000
1001
0000
1000
0010
0100
0000
0110
0000
0000
0000
0001
0000
,
1000
0001
0100
0001
0010
0000
0100
0000
0000
0000
0010
0000
0000
0000
0001
0000
,
0000
0000
0100
0010
0100
0000
0010
0000
1000
0000
1000
0000
1000
0000
0000
0000
,
0001
0100
0010
1000
0010
0100
0001
0010
0100
1000
0100
1000
0001
0100
0010
1000
,
0100
0010
0001
0100
0010
0100
0001
1000
0100
0010
0100
1000
0010
0100
0010
1000
,
0001
0100
0001
0010
0001
0000
1000
0000
0000
0000
0001
0000
0000
0000
0100
0000
,
0000
0000
0010
1000
0001
0000
0010
0000
0100
0000
0100
0000
0100
0000
0000
0000
,
0010
0001
1000
0000
0010
0000
0100
0001
0000
1000
0010
0000
1000
0000
0100
0000
,
0010
0001
0010
0000
0001
0000
1000
0010
0000
1000
0001
0010
0100
1000
0001
0010
,
0001
0100
0010
1000
0001
0010
0001
0100
0010
0100
0001
1000
0001
0010
0100
1000
,
0010
0100
0001
1000
0010
1000
0100
0010
0001
0000
1000
0000
0001
0000
0000
0000
,
1000
0010
0100
0002
0000
2003
0000
3200
,
0000
0320
0000
0230
0000
2300
0000
3001
,
1000
0010
1000
0100
1000
0001
0010
0001
0100
0001
0010
0100
1000
0001
0100
0010
,
0100
0001
1000
0001
0010
0001
1000
0100
0010
0001
1000
0001
1000
0010
1000
0001
,
0100
0010
1000
0000
0001
0000
0010
0100
0000
1000
0001
0000
0010
0000
0001
0000
,
1000
0001
0100
0001
1000
0001
0010
0100
1000
0010
1000
0001
1000
0100
0010
0001
,
1000
0010
0000
0100
0001
0000
1000
0001
0000
0010
0001
0000
1000
0000
0100
0000
,
0010
0001
1000
0001
0100
0000
0010
0000
1020
0000
0000
0000
1030
0000
0010
1000
,
0001
0000
0010
0000
0010
0000
0100
1000
0001
0000
0100
0000
0102
0000
0000
0000
,
0103
0010
1000
0001
0010
0000
0200
0000
1300
0000
0000
0000
0001
0000
0000
0000
,
0100
0010
0010
1000
2000
3001
0001
0000
,
0100
0000
0001
0000
1000
0000
0001
0000
1000
0000
0000
0000
0100
0000
0000
0000
1200
0000
0000
0300
1000
0000
0100
0000
0010
0000
0000
0000
0001
0000
0100
0000
,
0010
0000
1000
0000
1000
0000
0001
0000
0012
0000
0013
0000
0100
0000
1000
0010
,
0100
0000
0001
0000
0001
0000
1000
0100
0020
0000
0000
0000
0031
0000
1000
0001
,
0100
0001
0001
1000
2100
3001
0001
1000
,
0001
0000
0100
0000
0001
0000
1000
0000
0001
0010
0001
0010
0100
1000
0010
0100
,
0001
0000
1000
0000
0100
0000
1000
0000
0010
0100
0001
1000
0100
1000
0010
0100
,
0001
0000
1000
0000
0001
0000
1000
0000
0010
0100
0001
0010
0001
1000
0100
1000
,
0001
0000
0100
0000
0010
0000
0100
0000
0001
1000
0001
1000
0010
0100
0001
0010
,
0100
0000
1000
0000
0001
0000
0100
0000
0010
1000
0010
1000
0100
0010
0100
1000
,
0001
0000
0100
0000
0010
0000
1000
0000
0001
0010
0001
1000
0010
1000
0001
0010
,
0100
0000
1000
0000
0001
0000
0100
0000
0010
0100
0001
1000
0100
0010
0100
1000
,
0001
0010
0001
1000
0100
1000
0010
1000
0001
0010
0001
0100
0010
1000
0001
1000
,
0200
0000
0000
0000
,
0300
0000
0000
0000
;

//---------------dance-single - ----------------
#NOTES:
     dance-single:
     :
     Medium:
     9:
     0.681,0.670,0.131,0.479,0.148,478.000,15.000,55.000,0.000,0.000:
0000
0000
0000
0000
0000
0000
0000
1000
,
0002
0000
0013
0200
0000
1300
0000
0002
,
0000
0103
0010
2000
0000
3000
0000
0001
,
0020
0000
0031
2000
0000
3010
0000
0200
,
0000
0301
1000
0200
0000
0310
0001
1000
,
0020
0000
0130
0002
0000
0013
0000
0200
,
0000
0310
0001
2000
0000
3010
0100
0001
,
0020
0000
0030
0200
0000
0300
0000
2000
,
0000
3000
0000
0002
0000
0003
0000
0000
,
1000
0000
0000
0000
,
0001
0000
0000
0000
1000
0000
0000
0001
0000
1000
0000
0010
0100
0000
0000
0000
,
0001
0100
0010
1000
0100
1000
0001
0100
,
0001
0000
0010
0000
0100
0000
1000
0000
0001
0000
0100
0000
0001
0000
1000
0100
,
0010
0001
1000
0001
0100
0010
0100
0001
,
0010
0000
0100
0000
1000
0000
0001
0000
1000
0000
0010
0000
0100
0000
0001
1000
,
0010
1000
0001
0100
0001
0010
0001
1000
,
0100
0010
0100
1000
0001
0100
0010
0100
,
0001
1000
0001
0010
0100
1000
0010
0100
,
0002
0000
0000
0000
,
0013
0000
0100
0010
0001
0000
1000
0000
0010
0000
0100
0000
0101
0000
0001
0000
,
1000
0000
0100
1000
0001
0000
0010
0000
0100
0000
1000
0000
1001
0000
0001
0000
,
0100
0000
0010
1000
0001
0000
0010
0000
0100
0000
0010
0000
0011
0000
0001
0000
,
0100
0000
0010
1000
0001
0000
0010
0000
0001
0000
0100
0000
0110
0000
0010
0000
,
0100
0000
0010
0100
0001
0000
1000
0000
0100
0000
0010
0000
0011
0000
0001
0000
,
1000
0000
0010
1000
0001
0000
0100
0000
0010
0000
1000
0000
1001
0000
0001
0000
,
0010
0000
0100
1000
0001
0000
0100
0000
0010
0000
0100
0000
0101
0000
0001
0000
,
0010
0000
0000
0100
1000
0000
0001
0000
1000
0000
1000
0000
1000
0000
0100
0010
,
0001
1000
0100
1000
0100
1000
0100
1000
,
0001
0010
0001
0010
0001
0010
0001
0010
,
0001
1000
0001
1000
0001
1000
0001
1000
,
0010
1000
0010
1000
0010
1000
0010
1000
,
0001
0100
0001
0100
0001
0100
0001
0100
,
0010
1000
0010
1000
0010
1000
0010
1000
,
0100
0010
0100
0010
0100
0010
0100
0010
,
0100
1000
0000
0001
1000
0000
0001
0010
0001
0000
1000
0000
0001
0000
1000
0000
,
0001
0011
1001
1000
0001
0110
0000
0000
,
2000
3002
0013
0100
0000
0010
0000
0001
,
0000
0000
0100
0010
0100
0000
0010
0000
1000
0000
1000
0000
1000
0000
0000
0000
,
0001
0100
0100
0001
0001
0020
0000
0230
,
0000
2300
0000
3020
0000
0230
0000
0300
,
0002
2003
3010
1000
0000
0001
0000
0100
,
0000
0000
0010
1000
0001
0000
0010
0000
0100
0000
0100
0000
0100
0000
0000
0000
,
1000
0001
0010
0001
1000
0100
0010
0001
,
1000
0001
1000
0000
0001
0000
0100
0010
0000
1000
0001
0000
0100
0000
0100
0000
,
0001
1000
0001
0020
0000
0230
0000
2300
,
0000
0000
3010
0100
0010
0000
1000
0000
0001
0000
0100
0000
0001
0000
0000
0000
,
1000
0010
0100
0002
0000
2003
0000
3200
,
0000
0320
0000
0230
0000
2300
0000
3001
,
0200
0000
0000
0000
0000
0320
2030
3002
,
0023
0230
0000
2300
3020
0230
0000
0300
,
0010
0100
0001
0000
1000
0000
0100
0010
0000
0001
1000
0000
0100
0000
1000
0000
,
0001
0100
0010
1000
0001
0010
0100
1000
,
0002
0000
0000
0000
0000
0000
0000
0003
,
2000
0000
0000
0000
3010
0000
0100
0000
0201
0000
0000
0000
0301
0000
0010
0001
,
0010
0000
0100
0000
0100
0000
1000
0001
1000
0000
0010
0000
2010
0000
0000
0000
,
3001
0100
0010
0200
0301
0000
1000
0000
,
0100
0000
0010
0000
0010
0000
0001
0000
0002
0000
1003
0010
1000
0000
0000
0000
,
0100
0000
0000
0000
1000
0000
0000
0000
0001
0000
0000
0000
0100
0000
0000
0000
0201
0000
0000
0300
0001
0000
0100
0000
0001
0000
0000
0000
1000
0000
0001
0000
,
1000
0000
0001
0000
0001
0000
1000
0000
2010
0000
3010
0000
0100
0000
0001
0010
,
0100
0000
0000
0000
0000
0000
1000
0100
0020
0000
0000
0000
0031
0000
1000
0001
,
0010
0001
0001
1000
2010
3000
0001
1000
,
0001
0001
0010
0001
1000
1000
0001
0100
,
0010
1000
0001
0010
0100
1000
0001
0100
,
0010
0010
1000
0001
0010
0010
0100
1000
,
0001
0001
0100
0010
1000
1000
0100
0010
,
0001
0001
0100
0001
1000
1000
0001
0010
,
0100
1000
0001
0100
0010
1000
0001
0010
,
0100
0100
1000
0001
0100
0100
0010
1000
,
0001
0001
0010
0100
1000
1000
0010
0100
,
0002
0000
0000
0000
,
0003
0000
0000
0000
;
