#TITLE:Twin AmadeuS;
#SUBTITLE:;
#ARTIST:Twin AmadeuS;
#TITLETRANSLIT:;
#SUBTITLETRANSLIT:;
#ARTISTTRANSLIT:;
#CREDIT:;
#BANNER:tabr.gif;
#BACKGROUND:rabg.gif;
#LYRICSPATH:;
#CDTITLE:;
#MUSIC:Twin AmadeuS.mp3;
#OFFSET:0.540;
#SAMPLESTART:62.104;
#SAMPLELENGTH:18.280;
#SELECTABLE:YES;
#BPMS:0.000=135.000,259.000=126.000,511.500=140.000;
#STOPS:;
#BGCHANGES:;
// cache tags:
#FIRSTBEAT:8.000;
#LASTBEAT:776.000;
#SONGFILENAME:Songs/dragon force/Twin AmadeuS/Twin AmadeuS.sm;
#HASMUSIC:1;
#HASBANNER:1;
#MUSICLENGTH:356.476;
// end cache tags

//---------------dance-single - ----------------
#NOTES:
     dance-single:
     :
     Hard:
     10:
     0.495,0.544,0.236,0.356,0.160,1025.000,84.000,127.000,0.000,0.000:
0000
0000
0000
0000
,
0000
0000
0000
0000
,
1001
0000
0100
0000
0001
0000
0010
0001
,
0010
0100
0001
0000
,
1001
0000
0010
0000
1000
0000
0100
1000
,
0100
0010
1010
0000
,
0001
0000
0010
0000
0100
0010
0100
0000
,
0001
0100
0001
0000
0101
0000
0001
0000
,
1100
0000
0100
0000
0010
0100
0010
0000
,
1000
0010
1000
0000
1010
0000
2000
0000
,
3010
0000
0000
0001
0000
0000
0100
0000
0002
0000
0000
0000
0000
0000
0103
0000
,
0100
0000
0000
1000
0000
0000
0100
0000
0001
0000
0000
0001
0000
0000
0200
0000
,
0010
0000
0300
0001
0000
0000
0010
0000
0002
0000
0000
0000
0000
0000
0000
0000
,
1003
0000
0000
1000
0000
0000
0100
0000
0010
0000
0000
0000
0002
0000
0100
0000
,
1003
0000
0000
1000
0000
0000
0010
0000
2000
0000
0000
0000
0000
0000
3010
0000
,
0010
0000
0000
0001
0000
0000
0010
0000
1000
0000
0000
1000
0000
0000
0020
0000
,
0100
0000
0030
1000
0000
0000
0100
0000
2000
0000
0000
0000
0000
0000
0000
0000
,
3001
0000
0000
0001
0000
0000
0010
0000
0200
0000
0000
0000
0000
0000
0000
0000
,
0301
0000
0001
0000
0001
0000
0001
1000
,
0010
0000
0000
0100
0000
0000
0001
0000
0010
0000
0000
1000
0000
0000
0100
0000
,
0201
0000
0001
0000
0001
0000
0301
0001
,
1000
0000
0000
0100
0000
0000
0001
0000
0100
0000
0000
0010
0000
0000
1000
0000
,
0102
0000
0100
0000
0100
0000
0103
0100
,
0001
0000
0000
1000
0000
0000
0010
0000
0001
0000
0000
0100
0000
0000
1000
0000
,
0002
0100
0003
0100
,
2000
0000
0000
3200
0000
0000
0320
0000
0032
0000
0000
0023
0000
0000
0230
0000
,
2300
0000
0000
3001
,
1000
0010
2000
0000
3001
0000
0000
0000
0001
0100
0002
0000
1003
0000
0000
0000
,
0010
0100
0020
0000
1030
0000
0000
0000
1100
0000
0000
0000
0011
0000
0000
0000
,
0001
0100
0002
0000
1003
0000
0000
0000
1000
0010
2000
0000
3001
0000
0000
0000
,
0100
0010
0200
0000
0301
0000
0000
0000
0011
0000
0000
0000
1100
0000
0000
0000
,
1000
0100
0020
0000
1030
0000
0000
0000
2000
0000
0000
0000
3010
0000
0000
0000
,
1000
0100
0020
0000
1030
0000
0000
0000
0020
0000
0000
0000
1030
0000
0000
0000
,
1000
0001
2000
0000
3001
0000
0000
0000
0200
0000
0000
0000
0310
0000
0000
0000
,
0002
0023
0230
2300
,
3020
0000
0130
1000
0002
0000
0000
0000
,
0000
0000
0003
0000
0001
0000
1000
0000
0001
0000
0000
0100
0000
0000
0001
0000
,
1000
0000
0000
0001
0000
0000
1000
0000
0001
0000
0010
0100
0000
0010
0200
0000
,
0000
0000
0302
0000
0000
0000
0000
0000
2003
0000
0000
0100
3000
0000
0010
0000
,
0001
0000
0001
0010
2000
0000
0000
3002
,
0000
0000
0103
0200
0000
0000
0000
0302
,
0000
0000
0000
0000
1003
0000
0100
0000
0010
0000
0000
0001
0000
0000
2000
0000
,
0000
0000
0000
0000
0000
0000
3010
0000
0010
0000
0000
0100
0002
0000
0000
0000
,
0000
0000
0000
0000
1003
0000
0000
0000
1000
0010
0000
1000
0010
0000
1000
0010
,
0000
1000
0001
0000
0100
0000
1000
0000
0020
0000
0000
0032
0000
0000
0000
0000
,
0000
0000
0000
0000
0000
0000
0000
0000
2003
0000
0000
3020
0000
0000
0000
0000
,
0000
0000
1030
0100
0001
0100
1000
0100
,
0001
0010
0100
1000
0100
1000
0100
0001
,
0100
2000
0000
0000
3002
0000
0000
0000
,
0000
0000
0000
0000
0000
0000
0000
0000
1003
0000
0000
1000
0000
0000
0010
0000
,
0001
0000
0000
0001
0000
0000
0100
0000
2000
0000
0000
0001
0000
0000
0001
0000
,
0100
0000
0000
0100
0000
0000
0010
0000
0020
0000
3000
0000
0000
0000
0000
0000
,
0000
0030
2000
0000
,
3100
0002
0000
0000
0000
0000
0003
1000
,
0020
0000
0000
0030
1000
0100
0001
0100
,
1000
0100
0001
0010
0100
1000
0100
0010
,
0002
0000
0000
0000
0000
0000
0000
0000
1003
0000
0000
0100
0000
0000
2000
0000
,
0000
0000
0000
0000
3001
0000
0010
0000
0100
0000
0000
2000
0000
0000
0000
0000
,
0000
0000
3001
0100
0002
0000
0023
0000
,
0230
2300
3002
0003
,
1001
0000
2002
0000
,
0000
0000
0000
0000
,
0000
0000
0000
0000
,
0000
0000
0000
0000
,
0000
0000
0000
0000
0000
0000
0000
0000
3003
0000
0000
0000
1000
0001
1000
0001
,
1000
0000
0001
0000
0100
0000
0000
0010
0000
0000
0001
0000
0000
0000
1000
0000
,
0100
0002
0000
0000
0000
0000
0000
0000
0003
0000
0000
0000
0110
0000
0000
0001
,
0000
0000
1000
0000
0020
0000
0000
0000
0000
0000
0000
0000
1030
0000
0000
0001
,
0000
0000
1000
0000
0020
0000
0000
0000
0000
0000
0000
0000
1030
0000
0000
0001
,
0000
0000
0100
0000
0020
0000
0000
0000
0000
0000
0000
0000
1030
0000
0000
0001
,
0000
0000
1000
0000
0002
0000
0000
0000
0000
0000
0003
0000
1000
0000
0000
0001
,
0000
0000
0100
0000
0000
0020
0000
0000
0130
0000
1000
0000
0002
0000
0000
0000
,
0000
0000
0000
0000
0000
0000
0000
0000
0003
0100
0010
0000
1000
0000
0000
0001
,
0000
0000
0100
0000
0000
0100
0000
0000
0100
0000
0010
0000
2000
0000
0000
0000
,
0000
0000
0000
0000
0000
0000
0000
0000
3001
0000
0000
0000
1000
0000
0000
0001
,
0000
0000
0100
0000
0000
1000
0000
0000
0001
0000
0010
0000
0200
0000
0000
0000
,
0000
0000
0000
0000
0000
0000
0000
0000
0300
0000
0100
0000
0011
0000
0000
1100
,
0000
0000
0110
0000
0000
0100
0000
0000
1000
0100
0010
0001
0020
0000
0000
0100
,
0000
0000
0100
0000
0030
0000
1000
0000
0000
0010
0000
0000
1000
0000
0000
0001
,
0000
0000
0002
0000
0000
0000
0100
0000
0000
0100
0000
0000
0103
0000
0000
0010
,
0000
0000
1000
0000
0000
0001
0000
0000
1000
0000
0100
0000
0020
0000
0000
0100
,
0000
0000
0100
0000
0000
0000
1000
0000
0000
1030
0000
0000
1000
0000
0000
0001
,
0000
0000
0010
0000
0000
0100
0000
0000
0010
0000
1000
0000
0002
0000
0000
1000
,
0000
0000
1003
0000
0010
0000
0100
0000
0001
0000
0010
0000
1000
0000
0000
0001
,
0000
0000
0010
0000
0000
0010
0000
0000
1000
0000
0100
0000
0020
0000
0000
1000
,
0000
0000
1000
0000
0030
0000
1000
0000
0000
0001
1000
0000
0011
0000
0000
1010
,
0000
0000
0110
0000
0000
1000
0000
0000
0001
0000
0000
0000
1000
0000
0010
0000
,
1000
0010
1000
0010
0100
0001
0100
0001
,
0100
0001
1000
0001
1000
0001
1000
0001
,
0010
0100
1000
0100
0001
0100
1000
0001
,
1000
0010
0100
1000
0010
0001
0100
0010
,
1000
0100
0001
0100
0001
0100
0001
0100
,
0010
1000
0010
1000
0010
1000
0001
1000
,
0001
1000
0001
1000
0100
0010
0002
0000
,
0000
0000
1000
0000
1003
0000
0000
0000
0100
0000
0010
0000
1000
0000
0001
0100
,
0000
0001
0100
0000
0001
0000
0000
0000
0001
0000
0100
0000
2000
0000
0000
0000
,
0000
0000
0001
0000
3001
0000
0000
0000
0010
0000
0100
0000
0001
0000
1000
0010
,
0000
1000
0010
0000
1000
0000
0000
0000
0010
0000
0000
0000
1010
0000
0000
0000
,
1000
0100
0002
0000
0013
0000
0101
0000
,
0001
0100
2000
0000
3100
0000
1001
0000
,
1000
0010
1000
0100
1000
0010
1000
0001
,
0010
0100
0001
0010
1000
0000
0010
0000
,
0100
0000
1000
0000
0001
0010
0100
0200
,
0000
0000
0000
0000
0300
0000
0000
0000
0100
0000
0000
0000
1000
0000
0000
1000
,
0000
0010
1000
0100
0010
0001
0020
0000
,
0000
0000
0000
2030
,
0000
0000
3100
0000
0100
0000
0000
0001
0000
0000
0100
0000
0002
0000
0000
0000
,
0000
0000
0100
0000
0013
0000
0000
0000
1000
0000
0000
0000
1000
0000
0000
0100
,
0000
0010
2002
0000
0000
3003
0001
0010
,
0001
0010
0001
0010
1000
0100
1000
0100
,
1000
0100
0001
0100
0001
0100
0001
0100
,
0010
1000
0001
1000
0100
1000
0001
0100
,
0001
0010
1000
0001
0010
0100
1000
0010
,
1000
0001
1000
0010
1000
0010
0100
0001
,
0100
0001
0100
0001
1000
0001
1000
0001
,
1000
0001
0010
0100
1000
0100
0002
0000
,
1000
0000
1000
0010
0103
1000
0010
0001
,
0100
0010
2000
0000
0000
0001
3001
0000
,
0010
0000
0100
0000
0001
0000
1000
0001
0000
1000
0001
0000
0100
0000
0000
0000
,
1000
0000
0001
0000
0200
0000
0000
0000
0000
0000
0000
0000
0301
0000
0000
0001
,
0000
1000
0020
0000
0130
0000
2000
0000
,
3200
0320
0032
2003
,
0000
0000
3001
2002
,
0000
0000
0000
0000
0000
0000
0000
0000
0000
0000
3003
0000
0010
0000
0000
0010
,
0000
0000
0010
0000
0000
0000
0100
0000
0001
1000
0000
0000
0100
0000
0000
0100
,
0000
0000
0100
0000
0000
0000
0010
0000
1000
0001
0000
0000
0001
0000
0000
0010
,
0000
0000
0100
0000
0000
0000
0100
0000
1000
0002
0000
0000
0000
0000
0000
0000
,
0000
0000
1003
0000
0000
0000
0000
1100
,
0110
0101
0000
1000
0100
0001
0100
1000
,
0010
0010
0000
0010
0000
0000
0000
0011
,
0110
1010
0000
0001
0010
1000
0010
0001
,
0100
1000
0100
0001
0100
1000
0000
1000
,
0100
0002
0000
1000
0003
1000
0000
0001
,
0010
2000
0000
0001
3000
0001
0000
1000
,
0010
1000
0001
1000
0010
1000
0100
0010
,
0001
2000
0000
0001
0000
3001
0000
1000
,
0100
0002
0000
0000
1003
1000
0000
0000
,
0010
2000
0000
0000
3001
0001
0000
0010
,
0100
0000
2000
0000
0000
0000
0000
0000
3001
0000
0011
0000
0000
0101
0000
0000
,
1001
0000
0000
1000
0000
1000
0000
0001
,
0010
2000
0000
0001
3000
0001
0000
1000
,
0100
0002
0000
1000
0003
1000
0000
0001
,
0100
0000
0001
0000
1000
0000
0001
0000
0100
0000
0001
0000
0000
0010
0000
0000
,
1000
0100
0002
0000
0000
0000
1000
0000
0000
0000
1003
0000
0000
0000
0001
0000
,
0010
2000
0000
0000
3001
0001
0000
0000
,
0100
0002
0000
0000
1003
1000
0000
0100
,
0010
0000
0002
0000
0000
0000
0000
0000
1003
0000
1100
0000
0000
1010
0000
0000
,
1001
0000
0000
0001
0000
0001
0000
1000
,
0100
0000
0001
0000
0001
0000
1000
0100
0010
0001
0010
0000
0000
0000
1000
0000
,
0100
0000
0001
0000
0001
0000
1000
0100
0010
0001
0010
0000
0000
0000
0001
0000
,
0010
0000
1000
0000
1000
0000
0001
0010
0100
1000
0100
0000
0000
0000
0001
0000
,
0010
0000
1000
0000
1000
0000
0001
0010
0100
1000
0100
0000
0000
0000
0020
0000
,
1030
0100
0010
0100
1000
0000
1000
0200
,
0301
0010
0100
0010
0001
0000
0001
0010
,
0100
0000
0001
0000
0100
0000
0001
0000
0100
0000
0001
0000
0000
1000
0000
0000
,
0100
0010
0002
0000
0000
0000
0010
0000
0000
0000
0013
0000
0000
0000
1000
0000
,
0100
0010
0000
0100
0010
0100
0000
0001
,
0010
0100
0000
0010
0100
0002
0000
0000
,
1003
0010
0000
0010
0000
0010
0100
1000
,
0001
0020
0000
0000
0000
0000
0000
0130
,
0000
1000
0000
1000
0000
1000
0000
1001
,
0101
0011
0000
1000
0100
0010
0001
0010
,
0100
0110
0000
1001
0000
0110
0000
1001
,
1010
1100
0000
0001
0010
0100
1000
0100
,
0010
0110
0000
1001
0000
0110
0000
1000
,
0100
0010
0100
1000
0100
0010
0001
0010
,
0100
0010
0001
0010
0001
0010
0001
0010
,
0100
0010
0100
0010
0100
1000
0100
0010
,
0001
0010
1000
0010
0001
1000
0000
0001
,
0010
0100
0010
0001
0010
0100
1000
0100
,
0010
0100
1000
0100
1000
0100
1000
0100
,
0010
0100
0010
0100
0010
0001
0010
0100
,
1000
0100
0001
0100
1000
0001
0000
1000
,
0010
0110
0000
1010
0000
0101
0000
1010
,
0000
0110
0000
1001
0000
0100
0010
1000
,
0010
0110
0000
1010
0000
0101
0000
1010
,
0000
1001
0000
0110
0000
1001
0000
1001
,
1010
1100
0000
0001
0010
0100
1000
0100
,
0010
0110
0000
1001
0000
0110
0000
1001
,
0101
0011
0000
1000
0100
0010
0001
0010
,
0100
0110
0000
1001
0000
0110
0000
1000
,
0001
0200
0000
0010
0000
0010
0000
0310
,
0000
0011
0000
0110
0000
1010
0000
0001
,
1000
0020
0000
0100
0000
0100
0000
0130
,
0000
1000
0010
0001
0010
1000
0000
1000
,
0000
0100
0020
0000
0000
0000
0000
0000
0000
0000
0130
0000
0000
0000
0000
0000
,
0000
0100
0010
0001
0010
0100
0000
0000
,
0000
1000
0000
0001
1000
0001
0000
0000
,
1000
0010
0000
0000
0010
1000
0000
0000
,
0000
0100
0010
0001
0010
0100
0000
0000
,
0000
2000
0000
0000
0000
0002
3000
0000
,
0000
1003
0000
0000
0010
1100
0000
0000
,
0010
1100
0000
1000
0000
1000
0100
0010
,
0001
0000
1001
0000
0000
0000
1001
0000
0000
1001
2002
0000
0000
0000
0000
0000
,
3003
0000
0000
0000
;
