#TITLE:Naissance 2;
#SUBTITLE:;
#ARTIST:Banya;
#TITLETRANSLIT:;
#SUBTITLETRANSLIT:;
#ARTISTTRANSLIT:;
#CREDIT:;
#BANNER:Naissance ban.png;
#BACKGROUND:BanYa - Naissance 2.jpg;
#LYRICSPATH:;
#CDTITLE:KOMBO.png;
#MUSIC:Naissance 2.mp3;
#OFFSET:-0.020;
#SAMPLESTART:29.800;
#SAMPLELENGTH:12.000;
#SELECTABLE:YES;
#BPMS:0.000=64.002,8.000=129.003;
#STOPS:;
#BGCHANGES:;
// cache tags:
#FIRSTBEAT:6.500;
#LASTBEAT:205.000;
#SONGFILENAME:Songs/Definitive Keyboard Megapack/Naissance 2 [KOMBO]/Naissance 2.sm;
#HASMUSIC:1;
#HASBANNER:1;
#MUSICLENGTH:103.554;
// end cache tags

//---------------dance-single - En blanco----------------
#NOTES:
     dance-single:
     En blanco:
     Hard:
     12:
     1.000,1.000,1.000,0.183,1.000,590.000,210.000,19.000,0.000,4.000:

0000
0000
0000
0000
,
0000
0000
0000
0000
0000
0000
0000
0000
0000
0000
0000
0000
0000
0000
0000
0000
0000
0000
0000
0000
0000
0000
0000
0000
0000
0000
0000
0000
0000
0000
0000
0000
0000
0000
0000
0000
0000
0000
0000
0000
0000
0000
0000
0000
0000
0000
0000
0000
0000
0000
0000
0000
0000
0000
0000
0000
0000
0000
0000
0000
0000
0000
0000
0000
0000
0000
0000
0000
0000
0000
0000
0000
0000
0000
0000
0000
0000
0000
0000
0000
0000
0000
0000
0000
0000
0000
0000
0000
0000
0000
0000
0000
0000
0000
0000
0000
0000
0000
0000
0000
0000
0000
0000
0000
0000
0000
0000
0000
0000
0000
0000
0000
0000
0000
0000
0000
0000
0000
0000
0000
0011
0000
0000
0000
0000
0000
0000
0000
0000
0000
0000
0000
1000
0000
0000
0000
0100
0000
0000
0000
0010
0000
0000
0000
0001
0000
0000
0000
0010
0000
0000
0000
0100
0000
0000
0000
1000
0000
0000
0000
0000
0000
0100
0000
0000
0000
0000
0000
1000
0000
0000
0000
0000
0000
0100
0000
0000
0000
0000
0000
0010
0000
0000
0000
0000
0000
0001
0000
0000
0010
0000
0000
,
1100
0000
0100
0000
0101
0000
1100
0000
0110
1000
0010
0000
1100
0001
0000
0000
,
0110
0000
0001
0000
1100
0000
0001
0000
0001
1000
0010
0000
1001
0000
0001
1000
,
0110
0000
0011
0011
1100
0000
0001
1000
0000
1000
0001
0000
0110
0000
0001
0000
,
1001
0000
0000
0000
0000
0000
1001
0000
0000
0000
0000
0000
1001
0000
0000
0000
0000
0000
0010
0000
0000
0000
0000
0000
0001
0000
0010
0000
0100
0000
1000
0000
0100
0000
0010
0000
0001
0000
0000
1000
0000
0000
0010
0000
0000
1000
0000
0000
,
0011
0000
0001
0010
1100
0000
0110
0001
1100
0000
1000
0000
1010
0000
0001
0000
,
0101
0000
1000
0000
0011
0000
0010
0000
0001
0010
0001
0000
1010
0000
0001
0010
,
1100
0000
1100
1100
0011
0000
0000
1001
0000
0001
0010
0000
1001
0000
0010
0000
,
1001
0000
1001
0000
1001
0000
0001
0000
0001
0100
0010
1000
0001
0010
0100
1000
,
0011
0000
1100
1100
0011
0000
1000
0000
0000
0011
0000
0000
1100
0000
0000
0000
,
1010
0000
0101
0101
1010
0000
0001
0000
0000
0110
0000
0000
1001
0000
0000
0000
,
0101
0000
1100
0011
1100
0000
0010
0000
0000
1100
0000
0000
0110
0000
0000
0000
,
0110
0000
0110
1001
0220
0000
0330
0000
2200
0000
3322
0000
0033
0000
2200
3322
,
1033
0100
0001
0100
0011
1000
0100
1000
0100
0011
0100
0001
0110
1000
0100
1000
,
0011
1000
0100
0010
1100
0010
0100
1000
0100
1010
0100
1000
0011
0100
0001
0010
,
1001
0100
0011
0011
0011
0100
0010
0100
0011
1000
0011
1000
0110
0001
0010
0100
,
0011
0110
1100
0110
0011
0110
2200
3300
,
0011
1000
0001
1000
0011
0100
0001
1000
0010
1000
0011
1000
0011
1000
0001
0100
,
1010
0100
0001
1000
0110
1000
0010
1000
0001
0100
1001
0100
0011
1000
0001
1000
,
0110
0001
1100
1100
1100
0010
0001
1000
0100
0010
1001
0010
1100
0010
0100
0010
,
0101
1000
0110
0110
0110
0001
0010
0001
0110
0000
0011
0000
1100
0000
0011
0000
,
1001
0010
1000
0001
1100
0010
1000
0001
0010
1100
1100
0001
0110
0001
0010
1000
,
0100
1000
0100
1000
0101
1000
0001
1000
0100
0011
0011
0100
1010
0100
0001
0100
,
1001
0010
0101
0101
0101
0010
1000
0100
1000
0011
0011
0100
1010
0100
1000
0100
,
1010
0100
1010
1010
1010
0100
0010
0001
0100
0000
1000
0000
0100
0000
0010
0000
,
0101
0000
0010
0010
1100
0000
0010
0000
1001
0000
0010
0000
0101
0000
0010
0000
,
0110
0000
1000
1000
0011
0000
1001
0000
1001
0000
0000
1001
0000
0000
1001
0000
,
0101
0000
0010
0010
1100
0000
0001
0000
1010
0000
0100
0000
1001
0000
0010
0000
,
0101
0000
0110
0000
1100
0000
0110
0000
0101
0000
1100
0000
2222
0000
0000
3333
,
0101
0010
0100
0010
1100
0010
0100
0010
0101
0010
0100
0010
2200
0000
3300
0000
,
0011
0000
0100
0000
1000
0000
0100
0000
0010
0000
0100
0000
1000
0100
0010
0100
1000
0000
0100
0000
0010
0000
0100
0000
0010
0000
0001
0000
0010
0000
0001
0000
,
1100
0000
0000
0000
0001
0000
0000
0000
0100
0010
0100
0000
0000
0000
1100
0000
,
0011
0000
0000
0000
0001
0000
0000
0000
0101
0000
0000
1001
0000
0000
0101
0000
,
1001
0000
0000
0000
1001
0000
0000
0000
1000
0001
1000
0000
0000
0000
1001
0000
,
1001
0000
0000
0000
0001
0000
1000
0000
0001
0000
1000
0000
0100
0010
0001
0010
0100
0000
1000
0000
0010
0000
1000
0000
0010
0000
0100
0000
0010
0000
0100
0000
,
0011
0000
0000
0000
1100
0000
0000
0000
0010
0100
0010
0000
0000
0000
0110
0000
,
1001
0000
0000
0000
0011
0000
0110
0000
1100
0000
0110
0000
0011
0000
1001
0110
,
1001
0000
0000
0000
1010
0000
0000
0000
0100
0010
0100
0000
0000
0000
1001
0000
,
0001
0000
1000
0000
0010
0000
1000
0000
0001
0000
0100
0000
0010
0100
1000
0100
0011
0000
1000
0000
0010
0000
0100
0000
0001
0000
1000
0000
0001
0000
0010
0000
,
0200
0000
0000
0000
0000
0000
0000
0300
0011
0100
0010
1000
0010
0100
1001
0000
,
1000
0010
1000
0000
1001
0000
0010
0000
1001
0000
0001
0000
1000
0000
0001
0000
,
0001
0100
0001
0100
0010
0000
0001
0000
1001
0000
0011
0011
0011
0100
1000
0100
,
0001
0100
0001
0000
1001
0000
0001
0000
0101
0000
0101
0000
1010
0000
1010
0000
,
0001
0100
0001
1000
0010
0100
0001
0010
1100
0010
0001
0010
0001
0100
0010
1000
,
0010
0100
0001
0000
0101
0000
1000
0000
0110
0000
0011
0011
0011
1000
0100
0010
,
0001
0010
0100
0010
1001
0000
0000
0000
1001
0000
1100
1100
1100
0001
0010
0100
,
1000
0100
0010
0100
1001
0000
0001
0000
0110
0000
0110
0000
0110
0000
0110
0000
,
0001
0000
0000
1000
0000
0000
0001
0000
0000
1000
0000
0000
0100
0000
0000
0010
0000
0000
0100
0000
0000
0010
0000
0000
0001
0000
0010
0000
0100
0000
1000
0000
0100
0000
0010
0000
0001
0000
0010
0000
0001
0000
0010
0000
0100
0000
0010
0000
,
0100
0010
0100
1000
0100
1000
0100
0010
0001
0010
0100
1000
0100
0010
0001
0010
0100
1000
0100
0001
0100
1000
0100
0001
,
0100
1000
0100
0010
0100
0010
0100
1000
0100
0010
0001
0010
1100
0000
0000
1010
0000
0000
0011
0000
0000
0110
0000
0000
,
1100
0110
1001
0000
0000
0000
0000
0000
;
