#TITLE:One Heart;
#SUBTITLE:;
#ARTIST:Imil;
#TITLETRANSLIT:;
#SUBTITLETRANSLIT:;
#ARTISTTRANSLIT:;
#CREDIT:Rynker;
#BANNER:one heart bn 2.png;
#BACKGROUND:one heart bg 2.png;
#LYRICSPATH:;
#CDTITLE:;
#MUSIC:02. Imil - One Heart (Anti-Subtiel Verkracht).ogg;
#OFFSET:-0.149;
#SAMPLESTART:12.154;
#SAMPLELENGTH:12.000;
#SELECTABLE:YES;
#BPMS:0.000=250.000;
#STOPS:;
#BGCHANGES:;
// cache tags:
#FIRSTBEAT:23.000;
#LASTBEAT:566.000;
#SONGFILENAME:Songs/SPEEEDCOOOORE 2/One Heart - [Rynker]/one love.sm;
#HASMUSIC:1;
#HASBANNER:1;
#MUSICLENGTH:140.008;
// end cache tags

//---------------dance-single - Rynker----------------
#NOTES:
     dance-single:
     Rynker:
     Challenge:
     15:
     1.000,1.000,0.621,1.000,0.482,777.000,87.000,156.000,0.000,0.000:

0000
0000
0000
0000
,
0000
0000
0000
0000
,
0000
0000
0000
0000
,
0000
0000
0000
0000
,
0000
0000
0000
0000
,
0000
0000
0000
1000
,
0100
0010
0001
1000
,
0001
0100
0010
0100
,
0001
1000
0100
0010
,
0100
1000
0001
0100
,
0010
0100
0001
1000
,
0100
0010
0001
2000
,
0000
0000
0000
3000
,
0000
0000
0000
0202
,
0000
0303
0000
0000
2020
0000
0000
0000
0000
3030
0000
0000
0022
0000
0000
0000
,
0033
0202
0000
0303
2020
3030
2002
0000
,
0000
3003
0000
0000
2200
0000
0000
0000
0000
3300
0000
0000
2020
0000
0000
0000
,
3030
0202
0000
0303
0022
0033
2200
0000
,
0000
3300
0000
0000
0022
0000
0000
0000
0000
0033
0000
0000
2002
0000
0000
0000
,
3003
0220
0000
0330
2002
3003
0202
0000
,
0000
0303
0000
0000
2020
0000
0000
0000
0000
0000
3030
0000
0022
0000
0000
0000
,
0033
2200
0000
3300
0100
0020
0002
0000
,
0030
0003
0000
0000
2200
0000
0000
0000
0000
3300
0000
0000
0022
0000
0000
0000
,
0033
0202
0000
0303
0022
0033
2020
0000
,
0000
3030
0000
0000
0202
0000
0000
0000
0000
0000
0303
0000
2200
0000
0000
0000
,
3300
2020
0000
3030
0220
0330
0202
0000
,
0000
0303
0000
0000
2020
0000
0000
0000
0000
3030
0000
0000
2200
0000
0000
0000
,
3300
0022
0000
0033
0202
0303
0220
0000
,
0000
0330
0000
0000
2002
0000
0000
0000
0000
3003
0000
0000
2200
0000
0000
0000
,
3300
0022
0000
0033
2020
3030
0022
0033
,
0000
1000
0000
0001
,
0000
0100
0000
0010
,
0000
0100
0000
0001
,
0000
1000
0000
0001
,
0100
0001
0010
0100
,
1000
0000
0010
0000
0100
0000
0001
0010
,
0100
1000
0001
0100
0010
1000
0001
0000
,
0000
0000
0000
0000
0000
0000
0000
0000
0000
0000
0000
0000
1002
0000
0000
0003
,
0100
0001
1000
0100
,
0010
0000
0001
0000
1000
0001
0100
0000
,
0001
0010
0100
1000
,
0010
0000
0100
0010
0100
0010
0100
0000
,
0001
0010
0100
1000
,
0010
0000
0100
0000
0001
0010
0100
0000
,
1000
0001
0100
0010
,
0010
0000
1001
0000
0110
0000
1000
0100
,
0010
0001
1000
0001
0100
0010
0100
0001
,
1000
0000
0001
0000
0010
0000
0100
0000
1000
0000
0100
1000
0100
0000
0010
0000
,
0001
0100
0010
1000
0001
0010
0100
1000
,
0001
1000
0010
0000
0110
0000
0100
0010
,
0100
0001
1000
0010
0100
0010
1000
0001
,
0010
0100
1000
0001
1000
0010
0220
0000
,
0330
0202
0303
2200
,
3300
0000
0000
0000
0022
0000
0033
0000
1000
0001
1000
0001
1000
0000
0010
0000
,
1000
0100
0010
0100
1000
0001
0100
0010
,
0100
0001
1000
0000
1001
0000
0001
0010
,
0100
1000
0001
0100
0001
0010
0100
1000
,
0001
0000
0100
0000
0001
0100
0001
0100
0001
0100
0040
0000
1030
0000
0001
0000
,
0010
0100
1000
0001
0100
0010
0100
0001
,
0010
0000
0100
0000
2000
0000
0000
0000
0000
0000
3000
0000
0001
1000
0001
0100
,
0010
0100
0001
1000
0001
0100
0001
1000
0010
1000
0001
0100
0001
0000
0000
0000
,
2002
3003
2002
3003
0000
0000
0202
0000
,
0000
0303
0000
0000
2020
0000
0000
0000
0000
3030
0000
0000
0022
0000
0000
0000
,
0033
0202
0000
0303
2020
3030
2002
0000
,
0000
3003
0000
0000
2200
0000
0000
0000
0000
3300
0000
0000
2020
0000
0000
0000
,
3030
0202
0000
0303
0022
0033
2200
0000
,
0000
3300
0000
0000
0022
0000
0000
0000
0000
0033
0000
0000
2002
0000
0000
0000
,
3003
0220
0000
0330
0022
0033
0202
0000
,
0000
0303
0000
0000
2020
0000
3030
0000
1000
0000
0001
0000
0022
0000
0000
0000
,
0033
0000
2200
0000
0000
0000
3300
0000
0220
0000
0330
0000
0022
0000
0000
0033
,
0000
0000
0000
0000
,
0000
0000
0000
0000
,
0000
0000
0000
0000
,
0000
0000
0000
1001
,
0000
0000
0000
0000
,
0000
0000
0000
0000
,
0000
0000
0000
0000
,
0000
0000
0000
0000
0000
0000
0001
0100
,
0010
1000
0001
0010
0100
0010
0001
1000
,
0001
0000
0100
0000
0010
0000
0100
0000
0001
0000
1000
0001
1000
0000
0001
0000
,
0100
0010
1000
0001
0010
0100
1000
0001
,
0100
0000
0010
0000
0100
0001
0100
0001
0100
0001
0100
0001
0100
0000
0001
0000
,
1000
0100
0010
0001
1000
0010
0100
0001
,
0010
0000
0100
0000
1000
0000
0000
0000
0100
1000
0100
1000
0100
0000
0000
0000
,
0000
0000
0000
0000
2200
0000
0000
3300
0000
0000
0022
0000
0000
0033
0000
0000
,
0202
0303
2002
3003
2020
3030
0010
0000
,
1000
0000
0001
0010
0001
0100
0010
0100
,
0001
0010
0100
1000
0001
0010
0100
1000
,
0001
0100
0010
0100
0001
1000
0100
0010
,
0001
0000
1000
0000
0001
1000
0001
1000
0001
1000
0004
0000
1003
0000
0010
0000
,
0100
0001
0010
0100
1000
0010
0100
0001
,
1000
0001
0010
0100
1000
0001
0200
0300
,
0200
0300
0200
0000
0300
0000
0010
0000
,
0000
1001
1000
0100
,
0010
0000
0001
0000
0100
0010
1000
0000
,
0001
0010
0001
1000
,
0100
0000
0010
0000
0100
0010
0001
0000
,
1000
0001
0010
0100
,
1000
0000
0001
0000
0100
0010
1000
0000
,
0001
0100
0001
0010
,
0100
1000
0001
0000
0100
0010
0000
1000
,
0001
0100
0001
0000
0010
0000
0100
0000
,
1000
0000
0010
0000
0100
0001
0000
0010
,
0001
0100
0010
0000
1000
0000
0001
0000
,
0100
0000
0001
0000
0010
0100
0000
1000
,
0001
0010
0100
0000
1000
0000
0001
0000
,
0100
0000
0010
0000
1000
0010
0000
0100
,
0001
0000
0000
0000
,
0000
0000
0000
0000
,
0000
0000
0000
0000
1000
0001
0010
0001
1000
0100
1000
0001
1000
0100
0010
0100
,
0010
0001
1000
0100
1000
0001
0010
0001
0010
0100
1000
0100
1000
0001
1000
0001
,
0010
0001
1000
0001
1000
0010
0100
0010
0100
0001
1000
0010
1000
0001
0100
0001
,
0100
0010
1000
0001
0100
0010
0100
0001
1000
0001
1000
0001
1000
0000
0000
0000
,
0001
0010
0001
1000
0100
0010
0001
1000
0001
0100
0010
0100
0010
1000
0001
0100
,
0010
1000
0010
1000
0001
0100
0001
0100
0010
1000
0001
1000
0001
0000
0000
0000
,
0001
0000
0000
0000
1000
0100
0010
0001
1000
0100
0010
0100
1000
0001
0010
0100
,
1000
0001
0010
0100
1000
0000
0000
0000
0001
0000
0000
0000
1000
0000
0000
0000
,
1000
0000
0000
0000
0001
0100
0010
1000
0001
0100
0010
1000
0001
0100
0010
0100
,
0001
1000
0001
0100
0010
0100
0001
1000
0001
1000
0100
0010
0001
0000
0000
0000
,
0000
0000
0000
0000
0010
0100
1000
0100
0010
0001
1000
0001
1000
0100
0010
0100
,
0010
0001
1000
0001
0100
0010
1000
0001
1000
0001
0100
0010
0100
0000
0000
0000
,
0000
0000
0000
0000
0001
0100
0001
0100
0010
1000
0001
1000
0010
0100
0010
1000
,
0001
1000
0010
0100
0001
1000
0010
0100
0001
1000
0001
0100
0010
0100
0001
1000
,
0001
0100
0010
1000
0002
0000
0000
0000
0000
0000
0000
0003
0200
0000
0000
0000
,
0000
0000
0300
0000
0020
0000
0000
0000
0000
0000
0000
0030
1000
0000
0000
0000
,
1000
0000
0001
0010
0001
1000
0100
1000
,
0001
0100
0010
0100
0001
1000
0001
0010
,
0100
0000
1000
0010
1000
0000
0001
0000
0100
0000
0001
0000
0010
0000
0100
0000
,
1000
0100
0010
0001
1000
0001
0100
0000
,
0001
0100
0001
0100
0001
0000
1000
0000
0010
0000
0100
0000
0001
0000
1000
0000
,
0100
0000
0010
0000
0001
0000
1000
0000
0001
0000
1000
0000
0001
1000
0001
1000
,
0001
1000
0001
0100
0010
0100
0001
1000
0010
0100
0001
0100
0010
1000
0001
1000
,
0100
0010
0001
1000
0001
0000
0000
0000
0010
0000
0000
0000
0100
0000
0000
0000
,
0010
0000
0100
1000
0001
0100
0010
0100
,
0001
0000
1000
0000
0001
0000
0100
0000
0001
0000
0010
0000
0100
1000
0100
1000
,
0100
1000
0100
1000
0001
0000
1000
0000
0010
0000
0100
0000
0001
0000
1000
0000
,
0100
0000
0010
0000
0100
0000
1000
0000
0010
0000
0100
0000
0001
0000
1000
0010
,
1000
0000
0001
1000
0001
0000
1000
0000
0100
0000
0010
0000
0001
0000
0100
0000
,
0010
0100
0001
1000
0100
1000
1002
0000
,
0003
0101
1001
1010
,
1001
0000
0011
0000
0010
0100
1000
0000
,
0000
2002
3003
0000
;
