#TITLE:Bubbleman Remix;
#SUBTITLE:;
#ARTIST:Capcom;
#TITLETRANSLIT:;
#SUBTITLETRANSLIT:;
#ARTISTTRANSLIT:;
#CREDIT:;
#BANNER:Bubbleman-bn.png;
#BACKGROUND:everybodymega-bg.JPG;
#LYRICSPATH:;
#CDTITLE:nateemboss.png;
#MUSIC:Mega Man 2 - Bubble Man (guitar).mp3;
#OFFSET:-1.327;
#SAMPLESTART:54.690;
#SAMPLELENGTH:15.300;
#SELECTABLE:YES;
#BPMS:0.000=90.000,13.000=180.000,296.750=90.000,299.000=180.000;
#STOPS:4.250=0.320
,11.750=0.320
,121.500=0.320
,122.500=0.340
,135.500=0.320
,136.500=0.340
,299.000=0.340
,309.000=0.100
,309.250=0.080
,309.500=0.080
,309.750=0.080
,310.000=0.080
,310.250=0.100
,310.500=0.080
,310.750=0.080
,311.000=0.080
,311.250=0.080
,311.500=0.080
,311.750=0.100
,312.000=0.080
,312.250=0.080
,312.500=0.080
,312.750=0.080
,313.000=0.080
,321.750=0.080
,322.000=0.080
,322.250=0.080
,322.500=0.080
,322.750=0.080
,323.000=0.100
,323.250=0.080
,323.500=0.080
,323.750=0.080
,324.000=0.080
,324.250=0.080
,324.500=0.100
,324.750=0.080
,325.000=0.080
,325.250=0.080
;
#BGCHANGES:;
// cache tags:
#FIRSTBEAT:2.000;
#LASTBEAT:325.250;
#SONGFILENAME:Songs/keyboard/Bubbleman remix/Bubbleman remix.sm.sm;
#HASMUSIC:1;
#HASBANNER:1;
#MUSICLENGTH:119.935;
// end cache tags

//---------------dance-single - ----------------
#NOTES:
     dance-single:
     :
     Hard:
     9:
     0.699,1.000,1.000,0.517,0.208,394.000,131.000,62.000,0.000,19.000:

0000
0000
0000
0000
0000
0000
0000
0000
0200
0000
0000
0000
0001
0010
0301
0000
,
1100
0110
1010
0110
0000
0000
0001
0000
0000
0010
0100
0000
0100
0010
0000
0000
,
0000
0000
0000
0000
0000
0000
0100
0000
0000
0000
0100
0010
0001
0000
0110
1100
,
0010
0001
0010
0001
0010
0001
0010
0001
0020
0000
0000
0000
0000
0000
0000
0000
0000
0000
0000
0000
0100
0000
0000
0000
1000
0000
0000
0000
0100
0000
0000
0000
,
0000
0230
0000
0000
0000
0000
0000
1000
,
0000
0001
0320
0000
0000
0000
0000
2030
,
0000
0100
3002
0000
0000
0000
0000
0100
,
1000
0000
2203
0000
0000
0000
0000
0002
,
3300
0010
0200
0000
0003
0000
0000
2300
,
0000
0100
3002
0000
0000
0000
0000
1000
,
0000
0010
0203
0000
0000
0000
0000
0000
,
0300
0000
0011
0000
0000
0000
1000
0010
,
0000
0001
0000
0100
0000
1000
0000
0100
,
0010
0000
0010
0100
0000
0100
0000
0010
,
0000
0010
0000
0000
0000
1010
0000
0000
,
0101
0000
2200
0000
0000
3300
2000
3200
,
0320
1031
0000
0011
0000
1001
0000
0002
,
0020
0233
0000
0000
0000
0300
0000
0200
,
0020
0332
0000
0000
0000
0000
0000
0000
,
0003
1001
1100
0011
,
0101
0110
0101
1010
,
1100
0000
1000
1100
0001
0110
0100
1100
,
0100
0011
1000
0101
0010
1010
0001
0011
,
0100
1010
1100
0000
0101
0000
0110
0000
,
1100
0101
0011
1010
,
0101
0000
0110
1000
0110
0001
0110
1000
,
0110
0001
0110
1000
0110
0001
0110
1000
,
0110
0000
1000
0000
1000
0100
0010
0000
,
1000
0002
0000
0000
0000
0000
0000
0000
,
0000
0003
2200
0000
0000
0000
0001
0010
,
3301
0000
1100
0110
0011
0110
1000
0000
,
0000
0010
0100
0000
0100
0020
0000
0000
,
0000
0000
0000
1030
,
0000
0000
1000
0100
0010
0000
1100
0110
,
1100
0110
0100
0000
0000
0100
0010
0100
,
0000
0200
0000
0000
0000
0000
0000
0302
,
0000
0100
0010
0000
0000
0000
0000
0203
,
0000
0001
0310
0000
0000
0000
0000
0012
,
0000
0000
2203
0000
0000
0000
0000
3301
,
0000
0100
0002
0000
0000
0000
0000
1003
,
0000
0100
0020
0000
0000
0000
0000
1030
,
0000
0001
0200
0000
0000
0302
0000
0023
,
0000
0030
0002
0000
0000
0000
2000
0203
,
0000
3002
0300
0200
0000
0023
0300
0230
,
0002
0300
0020
2003
0000
3230
0000
2000
,
0000
0302
0000
3003
0000
1100
0000
0000
,
1010
0000
1100
0000
0000
0000
0000
1000
,
0100
0010
0000
0010
0000
0010
0000
0002
,
0200
0023
0000
0000
0000
0000
0000
2330
,
0200
3020
0000
0000
0000
0000
0000
0000
,
0330
1100
1100
0110
,
0110
0011
0011
1001
,
1001
0000
1100
1100
1100
1100
0110
0110
,
0110
0110
0011
0011
0011
0011
1001
1001
,
1001
1001
1010
0000
0101
0000
0011
0000
,
1100
1010
0101
0011
,
1100
0000
1010
1010
0101
0101
0011
0011
,
1100
1100
1010
1010
0101
0101
0011
0011
,
1100
1100
0001
0100
0000
0100
1000
0000
,
1000
0100
0010
0000
0010
0100
0000
0100
,
0010
0000
1000
0100
0000
0100
0001
0000
,
0001
0010
0100
0000
1000
0100
0000
0100
,
0010
0000
0010
0100
0000
0100
0001
0000
,
0001
0010
1000
0000
1000
0100
0000
0001
,
0100
0000
1000
0100
0000
0010
0100
0000
,
0100
0010
0001
0000
0001
1000
0000
1000
,
0001
0000
1000
0000
0000
0000
0001
0100
,
0000
1000
0000
0100
0000
0010
0000
0001
,
0010
0000
0010
0010
0000
0100
0000
0100
,
0000
0100
0000
0000
0000
0100
0000
0000
,
1100
0000
0101
0000
0000
0000
0000
0100
,
0010
0100
0000
0100
0000
0100
0000
0100
,
0010
0022
0000
0000
0000
0033
0000
0010
,
0100
2200
0000
0000
0000
0000
0000
0000
,
0000
0000
3300
0001
0100
0010
0100
1000
0100
0010
0100
1100
1100
0000
0100
0010
,
0100
0001
0100
0010
0100
0001
0100
0000
0000
0000
0100
0000
0010
0000
0100
0000
,
0000
1000
0100
0000
0100
0010
0000
0000
,
0100
0000
0001
0000
1010
1010
0110
0110
1010
1010
0110
0110
0011
0011
0110
0110
,
0011
0011
0110
0110
1001
1000
0000
0000
0000
0010
0000
0100
0000
0010
0000
0000
,
0000
1000
0000
0100
0000
0000
0000
0001
0000
0100
0000
0000
0000
0000
0000
1000
,
0000
0100
0000
0010
0000
0001
0000
0010
1000
0010
1000
0010
0100
0010
0100
0010
,
1000
0010
1000
0010
0100
0010
0000
0000
0000
0000
0000
0000
0000
0000
0000
0000
;
