#TITLE:Colors;
#SUBTITLE:(radio edit);
#ARTIST:dj TAKA;
#TITLETRANSLIT:;
#SUBTITLETRANSLIT:;
#ARTISTTRANSLIT:;
#CREDIT:;
#BANNER:Colors (Radio Edit).png;
#BACKGROUND:Colors (Radio Edit)-bg.png;
#LYRICSPATH:;
#CDTITLE:!toph-cdtitle.png;
#MUSIC:dj TAKA - Colors (Radio Edit).mp3;
#OFFSET:0.037;
#SAMPLESTART:52.650;
#SAMPLELENGTH:12.900;
#SELECTABLE:YES;
#BPMS:0.000=150.000;
#STOPS:;
#BGCHANGES:;
// cache tags:
#FIRSTBEAT:4.000;
#LASTBEAT:292.000;
#SONGFILENAME:Songs/StepmaniaFreak's Favorites/Colors (Radio Edit)/Colors (Radio Edit).sm;
#HASMUSIC:1;
#HASBANNER:1;
#MUSICLENGTH:122.181;
// end cache tags

//---------------dance-single - ----------------
#NOTES:
     dance-single:
     :
     Easy:
     3:
     0.311,0.388,0.196,0.065,0.000,234.000,24.000,8.000,0.000,0.000:
0000
0000
0000
0000
,
1001
0100
0000
0100
,
0010
1000
0000
1000
,
0001
0010
0000
0010
,
0001
0100
0000
0100
,
1001
0010
0000
0100
,
1001
0010
0000
0100
,
1001
0010
1001
0010
,
2002
0000
0000
3003
,
1001
0100
0010
0100
,
1000
0010
0100
0010
,
1000
0001
0010
0001
,
0100
0000
0010
1000
,
0100
0000
0000
0100
0000
0000
0000
0000
,
0010
0001
0000
0000
,
1000
0010
0000
0100
,
0001
0010
0100
1000
,
1001
0001
0000
0100
0000
0010
0000
1000
,
0000
0100
0000
0100
0000
0100
0000
0100
,
0000
0010
0000
0001
0000
0010
0000
0100
,
0000
1000
0000
1000
0001
0000
1001
0000
,
0010
0101
0010
1100
,
0001
0110
1000
0101
,
1010
0001
0100
0010
,
2002
0000
0000
3003
,
1001
0100
0010
0001
,
1000
0001
0100
0010
,
1000
0100
1000
0010
,
0100
0001
0010
0100
,
1001
0010
0001
0100
,
0010
1000
0100
1000
,
0001
0100
0010
1000
,
0100
1000
0010
0100
,
0001
0010
0000
0100
,
0000
1000
1000
0000
,
0010
0100
0000
0001
,
1000
0100
0010
0001
,
1000
0010
0000
0100
,
0000
0001
0001
0000
,
1000
0000
1000
0100
,
0010
0001
0100
0100
,
1001
0000
0010
1000
,
0100
1000
0001
0001
,
0010
0000
0001
0000
,
0100
0000
0010
1000
,
0001
0000
0010
0001
,
0100
0001
1000
0100
,
1001
0100
0010
0001
,
0100
0010
2002
3003
,
0110
0000
1000
0000
,
0001
0000
0010
0000
,
0001
0000
0100
0000
,
0010
0000
1000
0000
,
0011
0000
0100
0000
,
1000
0000
0010
0000
,
0100
0000
0001
0000
,
1000
0000
0100
0010
,
0001
1000
0000
1000
0000
1000
0000
1000
,
0000
0010
0000
0010
0000
0010
0000
0010
,
0000
0100
0000
0100
0000
0001
0000
0001
,
0000
0010
0000
0010
0000
0100
0000
0100
,
0000
1000
0000
0001
0000
0100
0000
0010
,
0000
1000
0000
0100
0000
0010
0000
0001
,
0000
1000
0000
0010
0000
0100
0000
0002
,
2000
0000
0000
3003
,
0110
1000
0000
0001
,
0010
0100
0000
1000
,
0001
0100
0000
0010
,
1000
0100
0000
0010
,
0001
1000
0000
0010
,
0100
0001
0000
1000
,
0100
0010
0000
0001
,
1000
0010
0100
0001
,
1001
0000
0000
0000
;

//---------------dance-single - ----------------
#NOTES:
     dance-single:
     :
     Medium:
     6:
     0.551,0.538,0.180,0.262,0.164,417.000,22.000,32.000,0.000,0.000:
0000
0000
0000
0000
,
1000
0001
0100
0001
0000
0010
0100
0010
,
0000
0001
1000
0001
0000
0100
0010
0100
,
0000
0010
1000
0010
0000
1000
0100
1000
,
0000
0001
0010
0001
0000
0100
0010
0100
,
0001
1000
0010
1000
0000
0100
0010
0100
,
0010
0001
1000
0001
0000
0100
0010
0100
,
0001
1000
0100
1000
0001
1000
0010
1000
,
0001
0010
0001
0100
0010
1000
0100
0010
,
0002
0000
0003
0100
0010
1000
0001
0020
,
0000
0000
0030
0100
1000
0001
0100
0020
,
0000
0000
0000
0000
0030
0000
1000
0000
0100
0000
0000
0010
0000
0000
0002
0000
,
0000
1003
0200
0000
0020
0300
0031
2000
,
0000
3010
0000
0100
0002
0000
2003
0000
,
3100
0020
0000
0000
0030
0002
0000
0103
,
0020
0000
0000
0000
0030
0000
1000
0000
0002
0000
0003
0020
0000
0030
0200
0000
,
2300
0100
0010
3001
,
0011
0000
0000
0001
0000
0000
0001
0000
0100
0000
0000
0100
0000
0000
0100
0000
,
0001
0000
0000
0001
0000
0000
0001
0000
0010
0000
0000
0010
0000
0000
0010
0000
,
0100
0000
0000
0100
0000
0000
0100
0000
1000
0000
0000
1000
0000
0000
1000
0000
,
0100
0000
0000
0100
0000
0000
0100
0000
0010
0000
0001
0000
0010
0000
0100
0000
,
0000
1000
0001
0100
0000
0010
1000
0100
,
0000
0010
0001
0100
0000
0010
1000
0001
,
0010
0001
0100
0010
1000
0001
1000
0100
,
0010
0001
0100
0010
1000
0100
1000
0010
,
0100
0000
0001
0000
0000
1000
0000
0000
0100
0000
0000
0010
0000
0000
0001
0000
,
1000
0000
0010
0000
0000
1000
0000
0000
0100
0000
0000
0010
0000
0000
0001
0000
,
0100
0000
0010
0000
0000
1000
0000
0000
0100
0000
0000
0010
0000
0000
0001
0000
,
0100
0010
1000
0100
1000
0010
0100
0001
,
0010
0000
0100
0000
0000
1000
0000
0000
0001
0000
0000
0010
0000
0000
0001
0000
,
0100
0000
0010
0000
0000
1000
0000
0000
0100
0000
0000
1000
0000
0000
0010
0000
,
0100
0000
0001
0000
0000
0010
0000
0000
0100
0000
0000
1000
0000
0000
0001
0000
,
0010
0001
0100
1000
0100
0001
0010
0100
,
1000
0000
0101
0000
0010
1000
0100
0000
,
0010
1001
0100
1001
,
0011
0000
1100
0000
0001
0100
0010
1000
,
0000
0100
0010
0001
0000
2000
0000
3000
,
0010
0000
0101
0000
1000
0100
1000
0010
,
0000
0100
0001
0000
1000
0000
0101
0000
,
1010
0000
1000
0100
0010
0000
0001
2000
,
0000
3020
0000
0230
0000
0302
0000
0003
,
2001
0000
0000
3200
0000
0000
0320
0000
,
0031
0000
1010
0000
0001
0100
0001
0100
,
0010
0000
1100
0000
0001
0100
0001
0010
,
0200
0000
0000
2300
0000
0000
3200
0000
,
0320
0000
0000
0032
0000
0000
0203
0000
,
0310
0000
1001
0000
0100
0000
0010
1000
,
0100
0010
0001
0010
0001
0100
0010
1000
,
0100
1000
0010
0100
0001
0010
0100
1000
,
0001
0000
0000
0100
0000
0000
0010
0000
1000
0000
0000
0100
0000
0000
0010
0000
,
0001
0000
0000
1000
0000
0000
0010
0000
0100
0000
0000
0001
0000
0000
0010
0000
,
0001
0000
0000
0100
0000
0000
0010
0000
1000
0000
0000
0100
0000
0000
1000
0000
,
0010
0000
0000
0100
0000
0000
0001
0000
0010
0000
0000
0100
0000
0000
1000
0000
,
0001
0000
0000
0010
0000
0000
0001
0000
0100
0000
0000
0010
0000
0000
1000
0000
,
0100
0000
0000
1000
0000
0000
0001
0000
0010
0000
0000
0001
0000
0000
0100
0000
,
0010
0000
0000
1000
0000
0000
0100
0000
1000
0000
0000
0010
0000
0000
0100
0000
,
0001
0000
0000
0010
0000
0000
0100
0000
1000
0000
0000
0001
0000
0000
0100
0000
,
1001
0100
0000
0010
0000
0001
0000
0100
,
0000
0010
0000
1000
0000
0100
0000
0010
,
0001
0100
0000
0010
0000
1000
0000
0001
,
0000
0010
0000
0001
0000
0100
0000
0010
,
1000
0100
0010
0001
1000
0010
0100
0001
,
0010
0001
0100
0010
1000
0100
0010
0001
,
1000
0010
0100
0010
1000
0100
0010
0001
,
2002
0000
0000
0000
3003
0000
0001
0100
,
1001
0000
0000
0100
0010
1000
0100
0010
,
0000
0001
0100
0001
1000
0010
0100
0001
,
0000
0000
0010
0000
0001
0000
0100
0000
0010
0000
0000
1000
0000
0000
0001
0000
,
0000
0010
0001
0100
0010
0000
1100
0000
,
1001
0000
0110
0000
0001
1000
0000
1010
,
0000
0000
0001
0000
0100
0000
0000
0000
0010
0000
1000
0000
0000
0100
0000
0000
,
0100
0000
0000
0000
1000
0000
0001
0000
0010
0000
0000
0001
0000
0000
0100
0000
,
0010
0000
1001
0000
0001
0100
0010
1000
,
1001
0000
0000
0000
;

//---------------dance-single - ----------------
#NOTES:
     dance-single:
     :
     Hard:
     10:
     0.878,1.000,0.417,0.131,0.966,684.000,51.000,16.000,0.000,0.000:
0000
0000
0000
0000
,
1001
0100
0010
0100
0000
0001
1000
0001
,
0000
0010
0100
0010
0000
0001
0010
0001
,
0000
1000
0100
1000
0000
0010
0100
0010
,
0000
1000
0001
1000
0000
0100
0010
0010
,
0001
1000
0010
0000
1000
0001
0010
0000
0001
0100
0010
0000
1000
0100
0010
0000
,
0001
1000
0010
0000
1000
0100
0010
0000
0001
0100
0010
0000
0100
0001
1000
0000
,
0001
0100
0001
0100
0001
0100
0001
0100
0001
1000
0001
1000
0001
1000
0001
1000
,
0001
0010
0001
0010
0001
0010
0001
0010
0001
1000
0010
0100
0001
0010
0100
1000
,
0001
0000
1000
0000
0001
0010
0100
0010
,
0001
0100
0001
0010
0100
1000
0010
0100
,
1001
0100
0001
0100
0010
1000
0100
1000
,
0011
0100
1000
0100
0010
0000
1100
0000
,
0110
0000
0100
0011
0000
0001
0100
0000
,
0011
0100
0010
0000
0000
0000
0000
0000
,
1001
0100
0010
0001
0000
1000
0001
0100
,
1010
0100
1100
0000
0110
0000
0011
0000
,
1001
0000
0000
0001
0000
0000
0001
0000
0100
0000
0000
0100
0000
0000
0100
0000
,
0001
0000
0000
0001
0000
0000
0001
0000
0010
0000
0000
0010
0000
0000
0010
0000
,
0100
0000
0000
0100
0000
0000
0100
0000
1000
0000
0000
1000
0000
0000
1000
0000
,
0100
0000
0000
0100
0000
0000
0100
0000
0010
0001
0010
0100
1000
0000
0001
0100
,
0000
0010
0100
0010
0000
1000
0100
1000
,
0000
0000
0001
0000
0010
0000
0001
0000
0000
0100
0010
0000
1000
0000
0010
0000
,
1000
0100
1000
0100
1000
0100
1000
0100
1000
0010
1000
0010
1000
0010
1000
0010
,
1000
0001
1000
0001
1000
0001
1000
0001
0100
0010
1000
0100
0010
0001
1000
0010
,
0100
0001
1000
0000
0100
0010
0000
0001
0010
0000
0001
0100
0000
0010
1000
0000
,
0001
0010
0100
0000
1000
0001
0000
0100
0010
0000
1000
0100
0000
1000
0001
0000
,
0010
0001
0100
0000
0010
1000
0000
0100
1000
0000
0001
0100
0000
0001
0010
0000
,
0100
1000
0001
0100
0010
1000
0010
0100
0001
0010
0100
0010
0001
1000
0100
0010
,
0001
0100
0010
0000
1000
0001
0000
1000
0010
0000
1000
0100
0000
0010
0001
0000
,
0100
0010
1000
0000
0001
0100
0000
0001
0010
0000
0100
1000
0000
0010
0100
0000
,
0001
1000
0100
0000
0010
0001
0000
0100
0010
0000
1000
0100
0000
1000
0001
0000
,
0010
0001
0100
0010
1000
0010
0100
0001
0010
0100
1000
0100
0010
0001
0100
0010
,
1000
0000
0101
0000
0010
1000
1001
0001
,
0010
0100
1100
0000
0101
0000
0110
0000
,
1000
0001
0110
0000
0001
0100
1010
0001
,
1000
0001
1100
0010
0000
0010
1001
0001
,
1001
0000
0101
0000
0010
1000
1001
0010
,
0000
0010
1001
0000
0100
0000
1010
0100
,
1001
0000
0011
0100
1001
0000
0011
0100
,
0000
0000
0100
0000
0011
0000
1000
0000
0001
0000
0001
0000
0001
0100
0001
0100
,
1000
0000
0011
1000
0000
1000
0101
0010
,
1000
0010
0110
0000
1000
0100
1001
0100
,
0010
0000
0011
0000
1000
0001
0101
0100
,
0110
0000
0000
0000
1001
0000
0100
0000
0000
0000
0100
0000
0011
0000
1000
0100
,
1000
0000
0011
1000
0000
1000
0101
0010
,
1000
0100
0101
0000
1100
0000
0110
0001
,
1000
0100
1000
0100
1000
0100
1000
0100
1000
0010
1000
0010
1000
0010
1000
0010
,
1000
0001
1000
0001
1000
0001
1000
0001
0010
0001
0100
0010
0100
0001
0010
0100
,
2000
0000
0000
0100
0000
0000
0100
0000
0010
0000
0000
0010
0000
0000
3020
0000
,
0230
0000
0000
0001
0000
0000
0302
0000
0023
0000
0000
1000
0000
0000
2030
0000
,
3020
0000
0000
0100
0000
0000
0100
0000
0001
0000
0000
0001
0000
0000
0001
0000
,
0130
0000
0000
0100
0000
0000
0100
0000
0010
0000
0000
0010
0000
0000
0010
0000
,
1002
0000
0000
0100
0000
0000
0010
0000
1000
0000
0003
0100
0002
0000
0010
0000
,
2003
0000
0000
0100
0000
0000
3020
0000
0032
0000
0000
0010
0000
0000
2003
0000
,
3200
0000
0000
0010
0000
0000
0001
0000
1000
0000
0000
0010
0000
0000
0001
0000
,
1300
0000
0000
0001
0000
0000
0010
0000
0100
0000
0000
1000
0100
0000
0010
0000
,
0001
1000
0010
0000
1000
0001
0010
0000
0001
1000
0010
0000
1000
0001
0010
0000
,
0001
0100
0010
0000
1000
0100
0010
0000
0001
0100
0010
0000
1000
0100
0010
0000
,
0001
1000
0010
0000
1000
0100
0010
0000
0001
0100
0010
0000
1000
0001
0010
0000
,
0100
1000
0001
0000
0100
0001
0010
0000
0100
1000
0001
0000
0010
0001
0100
0000
,
0001
1000
0001
1000
0001
1000
0001
1000
0001
1000
0001
1000
0001
1000
0001
1000
,
0001
0100
0001
0100
0001
0100
0001
0100
0001
0100
0001
0100
0001
0100
0001
0100
,
0001
0010
0001
0010
0001
0010
0001
0010
0001
0100
0010
1000
0100
0010
0001
1000
,
2002
0000
0000
0000
3003
0110
0110
0001
,
0001
0100
0000
0010
0000
1000
0100
0010
0001
1000
0010
1000
0100
1000
0010
0100
,
0001
0010
0000
0100
0000
1000
0001
0100
0001
0010
0001
0100
0010
1000
0100
0010
,
0001
1000
0000
0010
0000
1000
0100
0010
0001
0100
0010
0100
0001
0010
0100
1000
,
0010
0100
0000
0001
0000
1000
0100
1000
0010
1000
0001
1000
0001
0010
0001
0100
,
0001
0010
0000
0100
0000
1000
0100
0010
0001
0100
0010
1000
0001
0010
0001
0100
,
0010
1000
0000
0001
0000
0010
0001
0100
0001
0010
0100
1000
0010
0100
0001
0100
,
0010
1000
0000
0001
0000
0010
0001
0100
0010
1000
0100
0010
0100
1000
0001
0010
,
0100
1000
0000
0100
0000
0010
0001
0100
0010
1000
0010
0100
0001
0010
0100
0010
,
1001
0000
0000
0000
;

//---------------dance-single - ----------------
#NOTES:
     dance-single:
     :
     Challenge:
     11:
     1.000,1.000,1.000,0.139,1.000,789.000,148.000,17.000,0.000,0.000:
0000
0000
0000
0000
,
1001
0100
1000
0001
1000
0100
1000
0001
0100
0010
0100
0001
0100
0010
0100
0001
,
0010
0100
0010
0001
0010
0100
0010
0001
1000
0100
1000
0001
1000
0100
1000
0001
,
0100
0010
1000
0001
0010
0100
1000
0001
0100
0010
1000
0100
1000
0010
0100
0001
,
0010
0001
1000
0010
1000
0100
0010
0001
1000
0100
1000
0010
0100
0010
1000
0100
,
0011
1000
0100
1000
0001
1000
0010
1000
0100
0010
0001
0100
0010
1000
0100
1000
,
0011
1000
0100
1000
0010
1000
0001
1000
0100
0010
0001
1000
0010
1000
0100
1000
,
0001
0000
1000
0000
0001
0000
1000
0000
0000
0010
0000
0000
0100
0000
0000
0001
0000
0000
0010
0000
0000
0100
0000
0000
1000
0000
0001
0000
1000
0000
0001
0000
0000
0100
0000
0000
0010
0000
0000
1000
0000
0000
0100
0000
0000
0010
0000
0000
,
0001
0000
1000
0000
0001
0000
1000
0000
0000
0010
0000
0000
0100
0000
0000
0001
0000
0000
0010
0000
0000
0100
0000
0000
1000
0000
0100
0000
0010
0000
0001
0000
0100
0000
0010
0000
1000
0000
0100
0000
0010
0000
0001
0000
0100
0000
0010
0000
,
1001
0000
1000
0000
0001
0010
0100
0010
,
1001
0000
0100
0000
0001
0000
0010
0000
0001
1000
0100
1000
0001
0100
0010
0100
,
0001
0000
1000
0100
0010
0001
1000
0001
0100
0001
0010
0000
0100
0000
1000
0000
,
0011
0100
1000
0100
0010
0000
1100
0000
,
0110
0000
0100
0011
0000
0001
0100
0000
,
0011
0100
0010
0000
0000
0000
0000
0000
,
1001
0100
0010
0001
0000
1000
0001
0100
,
1010
0100
1100
0000
0110
0000
0011
0000
,
1001
0100
0010
0000
1000
0100
0010
0000
1000
0001
0010
0000
1000
0001
0010
0000
,
0001
0100
0010
0000
0001
0100
0010
0000
0001
1000
0010
0000
0001
1000
0010
0000
,
0100
0001
0010
0000
0100
0001
0010
0000
0100
0001
1000
0000
0100
0001
1000
0000
,
0100
0000
0000
0010
0000
0000
0001
0000
0000
0000
0000
0000
0100
0000
0000
0010
0000
0000
0001
0000
0000
0000
0000
0000
1000
0000
0100
0000
0010
0000
0001
0000
0100
0000
0010
0000
1000
0000
0000
0000
0000
0000
0010
0000
0000
0100
0000
0000
,
0001
0000
0010
0001
1100
0000
0011
0000
0100
0000
0010
0100
1001
0000
0110
0000
,
0001
0000
0010
0001
1100
0000
0011
0000
0010
0001
0100
0010
1001
0000
0110
0000
,
0001
0100
0010
1000
0001
0100
0010
1000
0001
0010
0100
1000
0001
0010
0100
1000
,
0001
0000
1000
0000
0001
0000
1000
0000
0000
0010
0000
0000
0100
0000
0000
0001
0000
0000
0010
0000
0000
0100
0000
0000
1000
0000
0100
0000
0010
0000
0001
0000
0100
0000
0010
0000
1000
0000
0100
0000
0010
0000
0001
0000
0100
0000
0010
0000
,
1001
0100
0010
0000
1100
0010
0000
1000
0001
0000
0010
0100
1001
0100
0010
0000
,
0010
1000
0001
0000
0110
1000
0000
0001
0100
0000
0010
1000
0011
0100
1000
0000
,
0001
0100
0010
0000
1001
0100
0000
0010
1000
0000
0100
0010
1001
0010
0100
0000
,
0010
1000
0001
0010
1100
0001
0100
0010
1000
0100
0010
0100
1001
0100
0010
1000
,
0001
1000
0100
0000
1001
0100
0000
0010
0001
0000
0010
0100
1001
0100
0010
0000
,
0001
1000
0010
0000
0101
1000
0000
0100
0010
0000
1000
0001
0110
0001
1000
0000
,
0010
0100
0001
0000
1010
0001
0000
1000
0010
0000
1000
0100
0011
0100
1000
0000
,
0001
0100
0010
1000
0011
1000
0100
0010
0001
0100
0010
0100
1001
0010
0100
0010
,
1001
0000
1010
0000
1000
0100
1010
1001
,
0100
1001
0110
1000
0110
0001
0101
1000
,
1001
0000
0110
0000
0100
0101
1010
0011
,
1000
0101
1100
0011
0100
0011
1100
1000
,
1000
0000
0011
0000
0101
1010
0101
0011
,
1000
0011
1100
0000
0100
0000
0011
0000
,
1001
0000
0101
0010
1000
0110
0011
1100
,
1001
0000
0100
0000
1100
0000
0110
0000
1001
0000
0001
0000
1001
0100
1000
0100
,
0011
0000
0101
0010
1000
0011
1100
0101
,
0010
0101
1010
0000
1001
0010
1001
0010
,
1100
0000
1001
0000
0100
0011
0100
0110
,
0100
0000
0000
0000
1010
0000
0101
0000
0010
0000
0000
0000
1010
0000
1000
0100
,
1000
0000
0011
1000
0010
0101
1010
1100
,
0010
1100
0011
0000
1001
0000
1100
0010
,
0001
0100
0010
1000
0001
0100
0010
1000
0001
0010
0100
1000
0001
0010
0100
1000
,
0001
0000
1000
0000
0001
0000
1000
0000
0000
0010
0000
0000
0100
0000
0000
0001
0000
0000
0010
0000
0000
0100
0000
0000
1000
0000
0100
0000
0010
0000
0001
0000
0100
0000
0010
0000
1000
0000
0100
0000
0010
0000
0001
0000
0100
0000
0010
0000
,
1002
0000
0000
1000
0003
0000
1100
0000
1020
0000
0000
1000
0030
0000
1100
0000
,
0120
0000
0000
0100
0030
0000
1100
0000
0102
0000
2003
0100
0000
0000
3100
0000
,
1002
0000
0000
1000
0000
0000
1000
0000
0010
0000
0000
0010
0000
0000
0010
0000
,
0100
0000
0000
0100
0000
0000
0100
0000
1000
0000
0000
1000
0003
0000
1000
0000
,
0210
0000
0000
0010
0000
0000
0010
0000
0010
0000
0300
0010
0200
0000
0310
0000
,
0102
0000
0000
0100
0003
0000
0110
0000
1002
0000
0000
1000
0003
0000
1010
0000
,
2001
0000
0000
0001
0000
0000
0001
0000
0100
0000
0000
0100
0000
0000
0100
0000
,
0010
0000
0000
0010
0000
0000
0001
0000
0100
0000
0000
0100
3001
0000
0110
0000
,
2001
0000
0001
0100
3000
0000
0110
0000
1001
0000
0010
0100
0000
0000
0011
0000
,
1200
0000
0010
0001
0300
0000
1010
0000
0102
0000
0010
1000
0003
0000
1100
0000
,
1002
0000
0010
1000
0003
0000
0110
0000
1000
0000
0001
0010
0000
0000
1100
0000
,
0001
0000
1000
0010
0000
0000
0101
0000
0110
0000
1000
0001
0000
0000
0110
0000
,
1001
0100
0010
0001
1000
0100
0010
0001
1000
0010
0100
0001
1000
0010
1100
0001
,
0110
1000
0001
0100
0010
1000
0001
0100
0010
1000
0011
0100
1000
0001
1010
0100
,
0001
0000
1000
0000
0001
0000
1000
0000
0000
0100
0000
0000
0010
0000
0000
0001
0000
0000
0100
0000
0000
0010
0000
0000
1000
0000
0100
0000
0010
0000
0001
0000
0100
0000
0010
0000
1000
0000
0100
0000
0010
0000
0001
0000
0100
0000
0010
0000
,
2002
0000
0000
0000
3003
0100
1100
0010
,
1001
0100
0000
0110
0000
0010
0100
0001
0010
0100
1000
0100
0010
0001
0100
0010
,
1000
0100
0000
0110
0000
0010
0001
0010
0100
1000
0010
0100
0001
0010
0100
1000
,
0010
0100
0000
0101
0000
0001
0010
0001
1000
0100
1000
0010
0100
0001
0010
0100
,
1000
0001
0000
1001
0000
1000
0010
1000
0001
0010
0001
1000
0000
1000
0010
0100
,
0001
0010
0000
0110
0000
0100
1000
0100
0010
0001
0100
0010
1000
0001
0010
0001
,
0100
0010
0000
1010
0000
1000
0100
1000
0010
0100
0001
0010
0100
1000
0001
0100
,
0010
1000
0000
1010
0000
0010
0100
0010
1000
0100
0010
0001
0100
0010
1000
0100
,
0010
0001
0000
0101
0000
0100
0010
1000
0001
0010
0100
0010
1001
0100
0010
0001
,
1001
0000
0000
0000
;
