#TITLE:Sparring Match;
#SUBTITLE:TMNT Turtles In Time;
#ARTIST:Kazuhiko Uehara, Harumi Ueko;
#TITLETRANSLIT:;
#SUBTITLETRANSLIT:;
#ARTISTTRANSLIT:;
#CREDIT:;
#BANNER:Sparring Match.png;
#BACKGROUND:Sparring Match-bg.png;
#LYRICSPATH:;
#CDTITLE:!gloveTitle.png;
#MUSIC:Sparring Match.mp3;
#OFFSET:2.380;
#SAMPLESTART:57.079;
#SAMPLELENGTH:12.000;
#SELECTABLE:YES;
#BPMS:0.000=100.910;
#STOPS:;
#BGCHANGES:;
// cache tags:
#FIRSTBEAT:4.000;
#LASTBEAT:140.833;
#SONGFILENAME:Songs/VGMP 2/Sparring Match (GLoVE)/Sparring Match.sm;
#HASMUSIC:1;
#HASBANNER:1;
#MUSICLENGTH:91.980;
// end cache tags

//---------------dance-single - ----------------
#NOTES:
     dance-single:
     :
     Hard:
     11:
     1.000,1.000,0.685,0.913,1.000,577.000,63.000,84.000,0.000,4.000:
0000
0000
0000
0000
,
1001
0000
0100
0001
0000
0100
0001
0000
0100
1000
0000
1000
0011
0000
0100
0010
0000
0100
0010
0000
0100
0001
0000
0000
,
0110
0000
1000
0011
0000
1000
0110
0000
0100
1001
0000
0100
0012
0000
1000
0100
0000
1000
0100
0000
1000
0103
0100
0100
,
0021
0000
0000
0000
0000
0000
0000
0000
0000
0000
0030
0000
0002
0003
0000
0000
0200
0300
0002
0003
0000
0000
0100
0000
0010
0000
0100
0000
1000
0000
0001
0000
0100
0000
0010
0000
0001
0000
1000
0000
0010
0000
0100
0000
1000
0000
0010
0000
,
2001
3000
0000
0000
2010
3000
0100
0000
0000
0000
1000
0000
0201
0300
0010
0000
0100
0000
0021
0030
0000
0000
0002
0000
0000
0000
0000
0000
0000
0000
0200
0000
0000
0000
0300
0000
0020
0000
0000
0000
0230
0000
0000
0000
0300
0000
0003
0000
,
0020
0000
0000
0000
0000
0000
0000
0000
0000
0000
0030
0000
0002
0003
0000
0000
0200
0300
0002
0003
0000
0000
0100
0000
0010
0000
0100
0000
1000
0000
0010
0000
0100
0000
0010
0000
0001
0000
1000
0000
0010
0000
0100
0000
1000
0000
0010
0000
,
2001
3000
0000
0000
2010
3000
0100
0000
0000
0000
1000
0000
0201
0300
0010
0000
0100
0000
1020
0030
0000
0000
0002
0000
0000
0000
0000
0000
0000
0000
0200
0000
0000
0000
0300
0000
0020
0000
0000
0000
0230
0000
0000
0000
0300
0000
2003
3000
,
0120
0030
0000
0000
0002
0003
0200
0300
0000
0000
0020
0030
0102
0003
0100
0000
0100
0000
1020
0030
1000
0000
1000
0000
0102
0003
0010
0000
0000
0000
0020
0030
0000
0000
0000
0000
0200
0300
0000
0000
0000
0000
2000
3000
0000
0000
0000
0000
,
1020
0030
0000
0000
0000
0000
0200
0300
0000
0000
0000
0000
0002
0003
0000
0000
0000
0000
0020
0030
0000
0000
0000
0000
1000
0000
0001
0000
0010
0000
0100
0000
0000
0000
0010
0000
0001
0000
0000
0000
1000
0000
0100
0000
0000
0000
0001
0000
,
1010
0000
0100
0001
0000
0100
0001
0000
0100
1000
0000
1000
0011
0000
0100
0010
0000
0100
0010
0000
0100
0001
0000
0000
,
0110
0000
1000
0011
0000
1000
0110
0000
0100
1001
0000
0100
0012
0000
1000
0100
0000
1000
0100
0000
1000
0103
0100
0100
,
0001
0000
0000
0000
0000
0000
1000
0000
0000
0000
0000
0000
0001
0000
0000
0000
0000
0000
1000
0000
0000
0000
0000
0000
0001
0000
0000
0000
0000
0000
1000
0000
0000
0000
0000
0000
0001
0000
0000
0000
0000
0000
1000
0000
0000
0000
0000
0000
0001
0000
0000
0000
0000
0000
1000
0000
0000
0000
0000
0000
0001
0000
0000
0000
0000
0000
1000
0000
0000
0000
0000
0000
0001
0000
0000
0000
0000
0000
1000
0000
0000
0000
0000
0000
0001
0000
0000
0000
0000
0000
1000
0000
0000
0000
0000
0000
0001
0000
0000
0000
0000
0000
0000
0000
0000
0000
0000
0000
0000
0000
0000
0000
0100
0000
0000
0000
0000
0000
0000
0000
0010
0000
0000
0000
0000
0000
0000
0000
0000
0000
0000
0000
0000
0000
0000
0000
1000
0000
0000
0000
0000
0000
0000
0000
0010
0000
0000
0000
0000
0000
0000
0000
0000
0000
0000
0000
0000
0000
0000
0000
0001
0000
0000
0000
0000
0000
0000
0000
0010
0000
0000
0000
0000
0000
0000
0000
0000
0000
0000
0000
0000
0000
0000
0000
1000
0000
0000
0000
0000
0000
0000
0000
,
0010
0000
0000
0010
0000
0000
0010
0000
0001
0100
0000
1000
0001
0010
0100
1000
0000
0100
0010
0000
1000
0000
0000
0000
,
0001
0010
0100
0010
0100
1000
0001
0010
0100
0010
0100
1000
0001
0010
0100
0010
0100
1000
0001
0010
0100
0010
0100
1000
,
0001
0010
0100
0010
0000
1000
0001
0000
0100
0010
0000
1000
0001
0010
0100
0010
0000
1000
0010
0000
0100
0001
0000
0100
,
1000
0100
0010
1000
0100
0010
0001
0000
0000
0010
0100
1000
0001
0010
0100
0001
0000
0100
0001
0010
0100
0010
0000
0001
,
1000
0100
0010
1000
0100
0010
0001
0000
0000
0001
0010
0100
0001
0010
1000
0001
0010
0100
0001
0010
1000
0010
0100
1000
,
0011
0000
0100
0001
0000
0100
0001
0000
0100
1000
0000
1000
0011
0000
0100
0010
0000
0100
0010
0000
0100
0001
0000
0000
,
0110
0000
1000
0011
0000
1000
0110
0000
0100
1001
0000
0100
0012
0000
1000
0100
0000
1000
0100
0000
1000
0103
0100
0100
,
0021
0000
0000
0000
0000
0000
0000
0000
0000
0000
0030
0000
0002
0003
0000
0000
0200
0300
0002
0003
0000
0000
1000
0000
0010
0000
0100
0000
1000
0000
0010
0000
0100
0000
0010
0000
0001
0000
0100
0000
0010
0000
0100
0000
1000
0000
0100
0000
,
2010
3000
0000
0000
2001
3000
0010
0000
0000
0000
1000
0000
0201
0300
0010
0000
0100
0000
0021
0030
0000
0000
0002
0000
0000
0000
0000
0000
0000
0000
0200
0000
0000
0000
0300
0000
0020
0000
0000
0000
0230
0000
0000
0000
0300
0000
0003
0000
,
0020
0000
0000
0000
0000
0000
0000
0000
0000
0000
0030
0000
0002
0003
0000
0000
0200
0300
0002
0003
0000
0000
0100
0000
0010
0000
0100
0000
1000
0000
0010
0000
0100
0000
0010
0000
0001
0000
0100
0000
0010
0000
0100
0000
1000
0000
0100
0000
,
2010
3000
0000
0000
2001
3000
0010
0000
0000
0000
1000
0000
0201
0300
0010
0000
0100
0000
1020
0030
0000
0000
0002
0000
0000
0000
0000
0000
0000
0000
0200
0000
0000
0000
0300
0000
0020
0000
0000
0000
0230
0000
0000
0000
0300
0000
2003
3000
,
0120
0030
0000
0000
0002
0003
0200
0300
0000
0000
0020
0030
0102
0003
0100
0000
0100
0000
1020
0030
1000
0000
1000
0000
0102
0003
0010
0000
0000
0000
0020
0030
0000
0000
0000
0000
0200
0300
0000
0000
0000
0000
2000
3000
0000
0000
0000
0000
,
1020
0030
0000
0000
0000
0000
0200
0300
0000
0000
0000
0000
0002
0003
0000
0000
0000
0000
0020
0030
0000
0000
0000
0000
1000
0000
0001
0000
0010
0000
0100
0000
0000
0000
0010
0000
0001
0000
0000
0000
1000
0000
0100
0000
0000
0000
0001
0000
,
1010
0000
0100
0001
0000
0100
0001
0000
0100
1000
0000
1000
0011
0000
0100
0010
0000
0100
0010
0000
0100
0001
0000
0000
,
0110
0000
1000
0011
0000
1000
0110
0000
0100
1001
0000
0100
0012
0000
1000
0100
0000
1000
0100
0000
1000
0103
0100
0100
,
0001
0000
0000
0000
0000
0000
1000
0000
0000
0000
0000
0000
0001
0000
0000
0000
0000
0000
1000
0000
0000
0000
0000
0000
0001
0000
0000
0000
0000
0000
1000
0000
0000
0000
0000
0000
0001
0000
0000
0000
0000
0000
1000
0000
0000
0000
0000
0000
0001
0000
0000
0000
0000
0000
1000
0000
0000
0000
0000
0000
0001
0000
0000
0000
0000
0000
1000
0000
0000
0000
0000
0000
0001
0000
0000
0000
0000
0000
1000
0000
0000
0000
0000
0000
0001
0000
0000
0000
0000
0000
1000
0000
0000
0000
0000
0000
0001
0000
0000
0000
0000
0000
0000
0000
0000
0000
0000
0000
0000
0000
0000
0000
0100
0000
0000
0000
0000
0000
0000
0000
0010
0000
0000
0000
0000
0000
0000
0000
0000
0000
0000
0000
0000
0000
0000
0000
1000
0000
0000
0000
0000
0000
0000
0000
0010
0000
0000
0000
0000
0000
0000
0000
0000
0000
0000
0000
0000
0000
0000
0000
0001
0000
0000
0000
0000
0000
0000
0000
0100
0000
0000
0000
0000
0000
0000
0000
0000
0000
0000
0000
0000
0000
0000
0000
1000
0000
0000
0000
0000
0000
0000
0000
,
0001
0000
0000
0001
0000
0000
0001
0000
0010
0100
0000
1000
0001
0010
0100
1000
0000
0100
0010
0000
1000
0000
0000
0000
,
0001
0010
0100
0010
0100
1000
0001
0010
0100
0010
0100
1000
0001
0010
0100
0010
0100
1000
0001
0010
0100
0010
0100
1000
,
0001
0010
0100
0010
0000
1000
0010
0000
0100
0001
0000
1000
0001
0010
0100
0010
0000
0100
0010
0000
1000
0001
0000
0010
,
0100
0010
0001
1000
0100
0010
0001
0000
0000
0001
0010
0100
0010
0100
1000
0010
0000
0100
0001
0010
0100
0010
0000
0001
,
1000
0100
0010
1000
0100
0010
0001
0000
0000
0001
0010
0100
0001
0010
1000
0001
0010
0100
0001
0010
1000
0010
0100
1000
,
0011
0000
0100
0001
0000
0100
0001
0000
0100
1000
0000
1000
0011
0000
0100
0010
0000
0100
0010
0000
0100
0001
0000
0000
,
0110
0000
1000
0011
0000
1000
0110
0000
0100
1001
0000
0100
0012
0000
1000
0100
0000
1000
0100
0000
1000
0103
0100
0100
,
0020
0000
0000
0000
0000
0030
0000
0000
0000
0000
0000
0000
0000
0000
0000
0000
0000
0000
0000
0000
0000
0000
0000
0000
;

//---------------dance-single - Copied from----------------
#NOTES:
     dance-single:
     Copied from:
     Challenge:
     12:
     1.000,1.000,1.000,0.913,1.000,589.000,107.000,84.000,0.000,10.000:
0000
0000
0000
0000
,
1001
0000
0100
0001
0000
0100
0001
0000
0100
1000
0000
1000
0011
0000
0100
0010
0000
0100
0010
0000
0100
0001
0000
0000
,
0110
0000
1000
0011
0000
1000
0110
0000
0100
1001
0000
0100
0012
0000
1000
0100
0000
1000
0100
0000
1000
0103
0100
0100
,
0021
0000
0000
0000
0000
0000
0000
0000
0000
0000
0030
0000
0002
0003
0000
0000
0200
0300
0002
0003
0000
0000
0100
0000
0010
0000
0100
0000
1000
0000
0001
0000
0100
0000
0010
0000
0001
0000
1000
0000
0010
0000
0100
0000
1000
0000
0010
0000
,
2001
3000
0000
0000
2010
3000
0100
0000
0000
0000
1000
0000
0201
0300
0010
0000
0100
0000
0021
0030
0000
0000
0002
0000
0000
0000
0000
0000
0000
0000
0200
0000
0000
0000
0300
0000
0020
0000
0000
0000
0230
0000
0000
0000
0300
0000
0003
0000
,
0020
0000
0000
0000
0000
0000
0000
0000
0000
0000
0030
0000
0002
0003
0000
0000
0200
0300
0002
0003
0000
0000
0100
0000
0010
0000
0100
0000
1000
0000
0010
0000
0100
0000
0010
0000
0001
0000
1000
0000
0010
0000
0100
0000
1000
0000
0010
0000
,
2001
3000
0000
0000
2010
3000
0100
0000
0000
0000
1000
0000
0201
0300
0010
0000
0100
0000
1020
0030
0000
0000
0002
0000
0000
0000
0000
0000
0000
0000
0200
0000
0000
0000
0300
0000
0020
0000
0000
0000
0230
0000
0000
0000
0300
0000
2003
3000
,
0120
0030
0000
0000
0002
0003
0200
0300
0000
0000
0020
0030
0102
0003
0100
0000
0100
0000
1020
0030
1000
0000
1000
0000
0102
0003
0010
0000
0000
0000
0020
0030
0000
0000
0000
0000
0200
0300
0000
0000
0000
0000
2000
3000
0000
0000
0000
0000
,
1020
0030
0000
0000
0000
0000
0200
0300
0000
0000
0000
0000
0002
0003
0000
0000
0000
0000
0020
0030
0000
0000
0000
0000
1000
0000
0001
0000
0010
0000
0100
0000
0000
0000
0010
0000
0001
0000
0000
0000
1000
0000
0100
0000
0000
0000
0001
0000
,
1010
0000
0100
0001
0000
0100
0001
0000
0100
1000
0000
1000
0011
0000
0100
0010
0000
0100
0010
0000
0100
0001
0000
0000
,
0110
0000
1000
0011
0000
1000
0110
0000
0100
1001
0000
0100
0012
0000
1000
0100
0000
1000
0100
0000
1000
0103
0100
0100
,
0001
0000
0000
0000
0000
0000
1000
0000
0000
0000
0000
0000
0001
0000
0000
0000
0000
0000
1000
0000
0000
0000
0000
0000
0001
0000
0000
0000
0000
0000
1000
0000
0000
0000
0000
0000
0001
0000
0000
0000
0000
0000
1000
0000
0000
0000
0000
0000
0001
0000
0000
0000
0000
0000
1000
0000
0000
0000
0000
0000
0001
0000
0000
0000
0000
0000
1000
0000
0000
0000
0000
0000
0001
0000
0000
0000
0000
0000
1000
0000
0000
0000
0000
0000
0001
0000
0000
0000
0000
0000
1000
0000
0000
0000
0000
0000
0001
0000
0000
0000
0000
0000
0000
0000
0000
0000
0000
0000
0000
0000
0000
0000
0100
0000
0000
0000
0000
0000
0000
0000
0010
0000
0000
0000
0000
0000
0000
0000
0000
0000
0000
0000
0000
0000
0000
0000
1000
0000
0000
0000
0000
0000
0000
0000
0010
0000
0000
0000
0000
0000
0000
0000
0000
0000
0000
0000
0000
0000
0000
0000
0001
0000
0000
0000
0000
0000
0000
0000
0010
0000
0000
0000
0000
0000
0000
0000
0000
0000
0000
0000
0000
0000
0000
0000
1000
0000
0000
0000
0000
0000
0000
0000
,
0010
0000
0000
0010
0000
0000
0010
0000
0001
0100
0000
1000
0001
0010
0100
1000
0000
0100
0010
0000
1000
0000
0000
0000
,
0001
0010
0100
0010
0100
1000
0001
0010
0100
0010
0100
1000
0001
0010
0100
0010
0100
1000
0001
0010
0100
0010
0100
1000
,
0001
0010
0100
0010
0000
1000
0001
0000
0100
0010
0000
1000
0001
0010
0100
0010
0000
1000
0010
0000
0100
0001
0000
0100
,
1000
0100
0010
1000
0100
0010
0001
0000
0000
0010
0100
1000
0001
0010
0100
0001
0000
0100
0001
0010
0100
0010
0000
0001
,
1000
0100
0010
1000
0100
0010
0001
0000
0000
0001
0010
0100
0001
0010
1000
0001
0010
0100
0001
0010
1000
0010
0100
1000
,
0011
0000
0100
0001
0000
0100
0001
0000
0100
1000
0000
1000
0011
0000
0100
0010
0000
0100
0010
0000
0100
0001
0000
0000
,
0110
0000
1000
0011
0000
1000
0110
0000
0100
1001
0000
0100
0012
0000
1000
0100
0000
1000
0100
0000
1000
0103
0100
0100
,
0020
0000
0000
0000
0000
0000
0100
0000
0000
0000
0030
0000
0002
0003
0000
0000
0200
0300
0012
0003
0000
0000
0100
0000
0010
0000
0100
0000
1000
0000
0011
0000
0100
0000
0010
0000
0001
0000
1000
0000
0010
0000
0101
0000
1000
0000
0010
0000
,
2001
3000
0000
0000
2010
3000
0101
0000
0000
0000
1000
0000
0201
0300
0010
0000
0100
0000
1021
0030
0000
0000
0002
0000
0000
0000
0000
0000
0000
0000
1200
0000
0000
0000
0300
0000
0020
0000
0000
0000
0230
0000
1000
0000
0300
0000
0003
0000
,
0020
0000
0000
0000
0000
0000
0100
0000
0000
0000
0030
0000
0002
0003
0000
0000
0200
0300
0012
0003
0000
0000
0100
0000
0010
0000
0100
0000
1000
0000
0011
0000
0100
0000
0010
0000
0001
0000
1000
0000
0010
0000
0101
0000
1000
0000
0010
0000
,
2001
3000
0000
0000
2010
3000
0101
0000
0000
0000
1000
0000
0201
0300
0010
0000
0100
0000
1021
0030
0000
0000
0002
0000
0000
0000
0000
0000
0000
0000
1200
0000
0000
0000
0300
0000
0020
0000
0000
0000
0230
0000
1000
0000
0300
0000
2003
3000
,
0120
0030
0000
0000
0002
0003
1200
0300
0000
0000
0020
0030
0102
0003
0100
0000
0100
0000
1020
0030
1000
0000
1000
0000
0102
0003
0010
0000
0000
0000
1020
0030
0000
0000
0000
0000
0200
0300
0000
0000
0000
0000
2001
3000
0000
0000
0000
0000
,
1020
0030
0000
0000
0000
0000
0201
0300
0000
0000
0000
0000
0002
0003
0000
0000
0000
0000
0120
0030
0000
0000
0000
0000
1000
0000
0001
0010
0100
0000
1000
0000
0001
0000
0010
0000
0100
0000
1000
0000
0100
0000
1001
0000
0011
0000
0101
0000
,
1010
0000
0100
0001
0000
0100
0001
0000
0100
1000
0000
1000
0011
0000
0100
0010
0000
0100
0010
0000
0100
0001
0000
0000
,
0110
0000
1000
0011
0000
1000
0110
0000
0100
1001
0000
0100
0012
0000
1000
0100
0000
1000
0100
0000
1000
0103
0100
0100
,
0001
0000
0000
0000
0000
0000
1000
0000
0000
0000
0000
0000
0001
0000
0000
0000
0000
0000
1000
0000
0000
0000
0000
0000
0011
0000
0000
0000
0000
0000
1000
0000
0000
0000
0000
0000
0001
0000
0000
0000
0000
0000
1000
0000
0000
0000
0000
0000
0001
0000
0000
0000
0000
0000
1000
0000
0000
0000
0000
0000
0001
0000
0000
0000
0000
0000
1000
0000
0000
0000
0000
0000
0011
0000
0000
0000
0000
0000
1000
0000
0000
0000
0000
0000
0001
0000
0000
0000
0000
0000
1000
0000
0000
0000
0000
0000
0001
0000
0000
0000
0000
0000
0000
0000
0000
0000
0000
0000
0000
0000
0000
0000
0100
0000
0000
0000
0000
0000
0000
0000
0011
0000
0000
0000
0000
0000
0000
0000
0000
0000
0000
0000
0000
0000
0000
0000
1000
0000
0000
0000
0000
0000
0000
0000
0010
0000
0000
0000
0000
0000
0000
0000
0000
0000
0000
0000
0000
0000
0000
0000
0001
0000
0000
0000
0000
0000
0000
0000
0110
0000
0000
0000
0000
0000
0000
0000
0000
0000
0000
0000
0000
0000
0000
0000
1000
0000
0000
0000
0000
0000
0000
0000
,
0010
0000
0000
0110
0000
0000
0010
0000
0001
0110
0000
1000
0001
0010
0100
1001
0000
0100
0010
0000
1000
0001
0000
0000
,
0001
0010
0100
0011
0100
1000
0001
0010
0100
0011
0100
1000
0001
0010
0100
0011
0100
1000
0001
0010
0100
0011
0100
1000
,
0001
0010
0100
0011
0000
1000
0001
0000
0100
0011
0000
1000
0001
0010
0100
0011
0000
1000
0010
0000
0100
0011
0000
0100
,
1000
0100
0010
1001
0100
0010
0101
0100
0100
1001
1010
1100
0001
0010
0100
0011
0000
0100
0001
0010
0100
0011
0000
0001
,
1000
0000
0100
0000
0010
0000
1001
0000
0100
0000
0010
0000
0001
0000
0000
0000
0000
0000
1001
0000
0010
0000
0100
0000
0001
0000
0010
0100
1000
0000
0001
0000
0010
0000
0100
0000
0001
0000
0010
0000
1000
0000
0011
0000
0101
0000
1001
0000
,
0110
0000
0100
0001
0000
0100
0001
0000
0100
1000
0000
1000
0011
0000
0100
0010
0000
0100
0010
0000
0100
0001
0000
0000
,
0110
0000
1000
0011
0000
1000
0110
0000
0100
1001
0000
0100
0012
0000
1000
0100
0000
1000
0100
0000
1000
0103
0100
0100
,
0020
0000
0000
0000
0000
0030
0000
0000
0000
0000
0000
0000
0000
0000
0000
0000
0000
0000
0000
0000
0000
0000
0000
0000
;
