#TITLE:Wisdom;
#SUBTITLE:-avester side-;
#ARTIST:Onoken;
#TITLETRANSLIT:;
#SUBTITLETRANSLIT:;
#ARTISTTRANSLIT:;
#CREDIT:;
#BANNER:WisdomAvester-bn.png;
#BACKGROUND:WisdomAvester-bg.png;
#LYRICSPATH:;
#CDTITLE:!danceguyTitle.png;
#MUSIC:WISDOM -Avester side-.mp3;
#OFFSET:0.781;
#SAMPLESTART:35.294;
#SAMPLELENGTH:12.000;
#SELECTABLE:YES;
#BPMS:0.000=85.000,82.000=170.000,128.376=170.000,257.000=85.000,353.000=170.000;
#STOPS:82.000=3.120
,83.500=1.940
,86.000=1.765
,93.000=1.060
,98.000=1.060
,103.000=1.060
,127.750=2.055
;
#BGCHANGES:;
// cache tags:
#FIRSTBEAT:2.000;
#LASTBEAT:552.000;
#SONGFILENAME:Songs/Fresh Flock of Fantastic Files F4/(DAnceguy117) Wisdom -Avester side-/Wisdom -Avester side-.sm;
#HASMUSIC:1;
#HASBANNER:1;
#MUSICLENGTH:283.977;
// end cache tags

//---------------dance-single - heavy----------------
#NOTES:
     dance-single:
     heavy:
     Hard:
     11:
     0.858,1.000,0.599,0.236,0.921,1468.000,170.000,67.000,0.000,0.000:
0000
0000
0000
0000
0100
1000
0001
1000
,
0010
1000
0001
1000
0100
0001
1000
0001
,
0010
0001
1000
0001
1000
0100
0001
0100
,
0010
0100
0001
0100
1000
0010
0100
0010
,
0001
0010
0100
0010
1001
0100
1010
1100
,
0010
0100
1010
1100
0110
0001
1000
0001
,
0010
0001
1000
0001
0101
0001
1010
1100
,
0010
0100
0011
1100
0110
1000
0001
1000
,
0020
1030
0001
1000
1001
0000
0101
0000
,
1001
0010
0100
0000
0000
0000
0000
0000
1001
0000
0000
0000
0001
0000
0010
0000
1100
0000
0010
0000
0100
0000
0000
0000
1001
0000
0000
0000
0010
0000
0100
0000
,
0011
1000
0001
0000
0010
0000
0000
0000
1001
0000
0000
0000
1000
0000
0010
0000
0101
0000
0010
0000
0100
0000
0000
0000
1001
0000
0000
0000
0001
0000
1000
0000
,
1100
0001
0010
0000
0001
0000
0000
0000
1001
0000
0000
0000
0010
0000
1000
0000
0101
0000
0010
0000
0100
0000
0000
0000
1001
0000
0000
0000
0001
0000
0010
0000
,
1010
0001
1000
0000
0010
0000
0000
0000
0110
0000
0000
0110
0000
0000
0110
0000
1001
0000
0010
0000
0100
0000
0000
0000
0011
0000
0000
0000
1000
0000
0001
0000
,
0011
0100
1000
0000
0010
0000
0000
0000
1010
0000
0000
0000
0001
0000
1000
0000
0011
0000
1000
0000
0001
0000
0000
0000
0110
0000
0000
0000
0001
0000
1000
0000
,
1010
0100
0010
0000
1000
0000
0000
0000
0011
0000
0000
0000
0001
0000
1000
0000
0110
0000
1000
0000
0001
0000
0000
0000
1010
0000
0000
0000
0010
0000
0100
0000
,
0101
1000
0001
0000
0100
0000
0000
0000
0011
0000
0000
0000
0001
0000
0010
0000
1100
0000
0001
0000
1000
0000
0000
0000
1010
0000
0000
0000
0010
0000
0100
0000
,
1100
0010
0001
0000
1000
0000
0000
0000
0011
0000
0000
0011
0000
0000
0011
0000
1001
0000
0010
0000
1000
0000
0000
0000
1100
0000
0000
0000
0100
0000
0010
0000
,
0110
1000
0010
0000
0100
0000
0000
0000
1001
0000
0000
0000
0001
0000
1000
0000
1010
0000
0100
0000
0001
0000
0000
0000
1001
0000
0000
0000
0010
0000
0100
0000
,
1001
0010
0100
0000
0001
0000
0000
0000
1001
0000
0000
0000
1000
0000
0100
0000
0110
0000
0001
0000
0010
0000
0000
0000
1010
0000
0000
0000
0010
0000
0100
0000
,
0101
0010
0001
0000
1000
0000
0000
0000
0011
0000
0000
0000
0001
0000
1000
0000
1100
0000
0001
0000
0100
0000
0000
0000
1010
0000
0000
0000
0001
0000
1000
0000
,
1010
0100
0001
0000
1000
0000
0000
0000
1010
0000
0000
1010
0000
0000
1010
0000
1001
0000
0000
0000
0000
0000
0000
0000
0010
0000
0001
0000
0100
0000
0000
0000
,
0000
0000
0010
0001
0100
0000
0100
0001
0010
0000
0000
0000
0010
0001
0000
0010
,
0000
0001
0100
0000
0100
0000
0100
0001
0010
0000
0100
0000
0010
0001
0100
0000
,
0001
0010
0000
0001
0100
0000
0000
0000
0100
0001
0100
0000
0001
0100
0010
0000
,
0010
0100
0010
1000
0100
0010
0001
0010
0100
0000
0000
0000
1000
0001
0100
0001
,
0010
0000
0100
0000
0010
0001
0100
0000
0001
0010
0000
0001
0100
0000
0010
0000
,
0100
0010
1000
0001
0010
0100
0010
0000
0010
0100
1000
0001
0010
1000
0010
0001
,
1100
0000
0010
0110
0000
0010
0011
0000
,
2002
0000
0000
0000
,
0000
0000
0000
0000
0000
3003
0000
0000
,
1000
0001
0000
0100
0000
0010
0000
1000
0000
0001
0000
0010
0000
0100
0000
0000
,
0010
0001
0000
1000
0000
0010
0000
0100
0000
0001
0000
1000
0001
1000
0010
1000
,
0000
0000
1000
0100
0010
0001
1000
0010
,
0110
0100
0001
1001
0100
0010
1000
0001
,
0010
0100
1000
0001
0100
0010
1000
0001
,
0011
0010
0100
1100
1000
0001
0100
0001
,
1000
0100
0010
0001
1000
0010
1000
0100
,
0011
0001
1000
1010
0010
0100
0001
1000
,
0100
0010
0001
0100
1000
0100
0001
1000
,
1001
0000
0100
0000
0010
0000
0110
0000
0011
0000
0001
0000
0000
0101
0000
0000
,
1001
0000
0001
0100
0010
1000
0100
0010
,
0011
0001
2000
3002
0203
0302
2003
3200
,
2300
3020
0130
0001
1000
0100
0010
0001
,
0011
0001
2000
3002
0203
2300
3200
0302
,
2003
3020
1030
0001
0010
0100
1000
0001
,
0101
0100
0002
0203
0302
2003
3200
2300
,
3002
0023
0130
1000
0001
0100
0010
1000
,
1010
0000
0001
0000
0100
0000
1001
0000
1010
0000
0010
0000
0000
1100
0000
0000
,
1001
0000
0001
0100
0010
1000
0001
0010
,
0100
0000
1000
0100
0010
0001
1000
0010
0100
0001
0010
0100
1000
0001
0100
0010
,
1000
0000
0000
0100
0000
0000
0010
0000
0000
0001
0000
0000
1000
0000
0000
0000
0000
0000
0100
0000
0000
0000
1000
0000
0010
0000
0000
0000
0000
0000
1000
0000
0000
0000
0001
0000
0010
0000
0000
0000
0000
0000
0001
0000
0000
0000
0100
0000
,
0010
0000
0100
0010
0000
1000
0010
0000
1000
0001
0000
0100
0001
0000
1000
0001
0000
1000
0010
0000
0000
0100
0000
0000
,
0001
0000
0000
0010
0000
0100
1000
0000
0000
0001
0000
0100
0010
0000
0000
1000
0000
0100
1000
0000
0000
0001
0000
0000
,
1000
0000
0000
0000
0001
0000
1000
0000
0000
0000
0001
0000
0100
0000
0000
0000
0010
0000
0100
0000
0000
0000
0010
0000
1000
0000
0000
0100
0000
0000
1000
0000
0000
0001
0000
0000
0010
0000
0000
0000
0000
0000
0001
0000
0000
0000
0000
0000
,
0100
0000
0010
0000
1000
0000
0010
0000
0010
0000
1000
0100
1000
0100
0010
0000
,
0001
0000
0000
0000
0000
0000
1000
0000
0000
0000
0001
0000
1000
0000
0000
0100
0000
0000
0010
0000
0000
0001
0000
0000
1000
0000
0000
0010
0000
0000
0100
0000
0000
0001
0000
0000
0000
0000
0000
0001
0000
0000
1000
0000
0000
0100
0000
0000
,
0010
0001
1001
0000
0010
0000
0010
0000
,
1000
0000
0000
0001
0000
0100
0010
0000
1000
0100
0000
0010
0001
0000
0010
0100
0000
1000
0100
0000
0000
1000
0000
0000
,
0010
0000
0000
0100
0000
0001
0010
0000
0000
0001
0000
0100
0010
0000
0000
1000
0000
0001
0010
0000
0000
0001
0000
1000
,
0100
0000
1000
0001
0000
0100
0001
0000
0100
0010
0000
0010
1000
0000
0001
1000
0000
1000
0010
0000
0000
1000
0000
0000
,
0001
0000
0000
0100
0000
0000
0001
0000
0000
0100
0000
0100
0010
0000
0000
1000
0000
0100
0010
0000
0000
0001
0000
0000
,
1000
0000
0000
0000
0100
0000
1000
0000
0000
0000
0100
0000
0010
0000
0000
0000
0001
0000
1000
0000
0000
0010
0000
0000
1000
0000
0000
0001
0000
0000
0100
0000
0000
0001
0000
0000
0010
0000
0000
0000
0000
0000
0001
0000
0000
0000
0000
0000
,
1000
0000
0010
0000
0100
0000
0010
0000
0010
0000
1000
0100
1000
0100
0010
0001
,
1000
0000
0000
0000
0000
0000
0001
0000
0000
0100
0000
0000
0010
0000
0000
0000
0000
0000
1000
0000
0000
0000
0001
0000
0010
0000
0000
0001
0000
0000
0100
0000
0000
0010
0000
0000
0000
0000
0000
0010
0000
0000
1000
0000
0000
0001
0000
0000
,
0100
0000
0010
0000
1001
0100
1000
0001
0000
0100
1000
0001
0000
0010
0001
1000
,
0001
0000
0010
0001
1000
0000
0100
0000
0000
0000
1000
0000
1000
0000
0000
0000
1000
0000
0000
1000
0000
0000
1000
0000
0000
0000
0011
0000
0011
0000
0000
0000
,
0011
0000
0000
0011
0000
0000
0011
0000
0000
0000
0010
0000
0001
1000
0100
0000
0010
0000
0001
0100
0010
0100
0010
0000
0000
0000
0010
0000
1000
0000
0001
0000
,
0100
0000
0001
0010
0001
0000
1000
0000
0000
0000
0001
0000
0001
0000
0000
0000
0001
0000
0000
0001
0000
0000
0001
0000
0000
0000
1010
0000
1010
0000
0000
0000
,
1010
0000
0000
1010
0000
0000
1010
0000
1000
0000
0100
0000
0001
0000
0100
0000
1000
0000
0001
0000
0010
0000
0100
0000
1000
0000
0100
0000
0001
0000
0100
0000
,
1000
0000
0001
0000
1000
0001
0010
0001
0100
0000
0001
0000
1000
0000
0100
0000
1000
0000
0001
0000
0100
0000
0001
0000
1000
0000
0100
0000
0010
0000
0001
0000
,
1000
0001
1000
0010
0000
0002
0000
0000
0000
2003
0000
3001
1000
0010
0100
0010
,
0001
0000
0010
0000
0100
0000
0010
0000
0000
0000
1001
0000
1001
0000
0000
0000
1001
0000
0000
1001
0000
0000
1001
0000
0000
0000
0110
0000
0110
0000
0000
0000
,
0110
0000
0000
0110
0000
0000
0110
0000
1001
0000
0100
0000
1000
0000
0000
0000
0010
0000
0000
0000
0100
0000
0001
0000
0000
0000
0010
0000
0001
0000
1000
0000
,
0001
0000
0010
0001
1000
0000
0100
0000
0000
0000
0001
0000
0001
0000
0000
0000
0001
0000
0000
0001
0000
0000
0001
0000
0000
0000
1010
0000
1010
0000
0000
0000
,
1010
0000
0000
1010
0000
0000
1010
0000
0000
0000
0010
0000
1000
0001
0100
0000
0010
0000
1000
0100
0010
0100
0010
0000
0000
0000
0010
0000
0001
0000
0100
0000
,
1000
0000
0100
0001
1000
0000
0100
0000
0000
0000
1000
0000
1000
0000
0000
0000
1000
0000
0000
1000
0000
0000
1000
0000
0000
0000
0011
0000
0011
0000
0000
0000
,
0011
0000
0000
0011
0000
0000
0011
0000
1000
0000
0001
0000
1000
0000
0100
0000
1000
0000
0001
0000
0010
0000
0100
0000
1000
0000
0001
0000
1000
0000
0100
0000
,
1000
0000
0001
0000
0100
0001
0010
0001
1000
0000
0100
0000
1000
0000
0001
0000
0010
0000
0100
0000
0010
0000
0001
0000
1000
0000
0001
0000
1000
0000
0010
0000
,
0001
0010
1000
0001
0000
0020
0000
0000
0000
0032
0000
1003
0001
0010
0100
0010
,
1000
0000
0010
0000
0100
0000
0010
0000
0000
0000
1100
0000
1100
0000
0000
0000
1100
0000
0000
1100
0000
0000
1100
0000
0000
0000
0011
0000
0011
0000
0000
0000
,
0011
0000
0000
0011
0000
0000
0011
0000
2002
0000
0000
0000
3003
0000
0010
0000
1000
0001
0100
0010
1000
0100
0010
0001
1000
0010
0100
0001
1000
0001
0010
0100
,
0010
0001
0100
0010
1000
0100
0010
0001
1000
0010
0100
0001
0010
0100
1000
0010
0100
0001
1000
0100
0010
0001
1000
0100
1000
0001
0100
0010
1000
0010
0100
0001
,
0010
0100
1000
0010
0100
0001
1000
0100
1000
0010
0100
0010
0100
0001
0010
0100
1000
0001
0100
0010
1000
0100
0010
0001
1000
0001
0100
0010
1000
0100
0010
0001
,
1000
0010
1000
0100
0010
0001
1000
0001
0100
0010
1000
0010
1000
0001
0010
0100
1000
0001
0100
0010
1000
0100
0010
0001
0010
0100
1000
0001
0100
0010
1000
0100
,
0010
0100
1000
0010
0100
0001
0010
0001
0100
0000
0010
0000
1000
0000
0001
0000
0010
0000
0100
0000
1000
0000
0001
0000
0100
0000
0010
0000
1000
0000
0001
0000
,
0001
0000
1000
0000
0100
0000
0010
0001
0100
0000
0100
0001
0010
0000
0001
0000
1000
0000
0010
0000
0100
0000
0001
0000
1000
0000
0100
0000
0010
0000
0100
0000
,
0100
0000
0010
0000
0010
0001
0100
0000
0100
0000
0100
0001
0010
0000
0001
0000
1000
0000
0010
0000
0100
0000
0001
0000
1000
0000
0100
0000
0010
0000
0001
0000
,
1000
0000
0001
0000
0010
0001
0100
0000
0100
0000
0100
0001
0010
0000
0010
0001
0010
0001
0100
0000
0010
0000
1000
0010
0100
0000
0100
0000
0010
0000
0010
1000
,
0010
1000
0100
0000
0010
0000
0010
0001
1000
0000
0000
0000
0001
0000
0000
0000
0100
0000
0000
0000
0001
0000
0000
0000
0010
0000
0000
0000
0100
0000
0000
0000
,
1000
0000
0001
0100
0001
0000
0010
0000
0100
0000
1000
0000
0001
1000
0100
0000
,
0010
0000
0001
0000
1000
0000
0001
0000
0100
0000
0010
1000
0010
0100
0001
0000
,
0010
0000
0001
1000
0100
0000
0010
0000
0001
0000
1000
0000
0001
1000
0100
0000
,
0010
0000
0001
0000
1000
0000
0010
0000
0100
0000
0010
1000
0001
1000
0100
0000
,
0010
0000
0100
1000
0010
0000
0100
0000
0001
0000
1000
0000
0001
0010
0100
0010
,
0001
0000
1000
0010
0100
0000
0100
0001
0010
0000
0010
0001
1000
0010
0100
0000
,
0011
0000
0001
0000
1000
0000
0010
0000
0110
0000
0100
0000
0001
1010
0001
0000
,
1001
0000
0100
0000
0010
0000
1000
0000
0100
0000
0010
0000
0001
1000
0010
1000
,
0100
0000
0010
0001
1000
0000
0001
0000
0100
0000
0010
0000
1000
0001
1000
0000
,
0010
0000
0100
0000
0001
0000
1000
0000
0010
0000
1000
0100
0010
0001
0010
0000
,
0001
0000
1000
0010
0100
0000
0001
0000
1000
0000
0100
0000
0010
0001
1000
0000
,
0001
0000
0100
0000
1010
0000
1000
0000
0001
0000
0010
0001
1000
0001
0100
0000
,
0010
0000
1000
0010
0100
0000
0001
0000
1000
0000
0100
0000
0010
0100
1000
0001
,
0010
0000
0100
0000
0010
0000
0001
0000
1000
0000
0010
1000
0001
0100
0001
0000
,
0010
0000
0001
1000
0100
0000
1000
0000
1010
0000
0010
0000
0000
0110
0000
0000
,
1001
0000
0002
0000
1003
0000
0000
1000
,
1010
0000
0000
0000
0010
0000
0100
0001
,
1000
0000
1100
0000
0110
0000
0011
0000
0010
0000
0001
1000
0001
1000
0100
0000
,
0011
0000
0000
0000
0001
0000
0000
1000
,
0101
0000
0110
0000
1010
0000
0001
0000
1000
0000
0010
0100
0010
1000
0100
0000
,
0010
0000
0001
1000
0100
0000
1000
0000
0001
0000
1000
0100
0010
0001
0110
0000
,
1001
0000
0101
0000
0010
0000
0100
0000
1000
0000
0001
1000
0010
0100
0001
0000
,
1000
0000
0001
0010
0100
0000
1000
0000
1010
0000
0000
0000
0000
0110
0000
0000
,
0101
0000
1001
0001
0100
0010
1000
0001
,
0011
0100
2000
3200
2300
3002
0203
0302
,
2003
3020
0130
0001
1000
0001
0010
0001
,
1010
0100
2000
3002
0203
0320
2030
3200
,
2300
3020
0130
0001
1000
0100
0010
0001
,
0011
1000
0002
0203
2300
3200
0302
2003
,
3200
0320
0031
0100
0010
1000
0001
0010
,
0110
0000
0001
0000
1000
0000
1010
0000
0011
0000
0100
0000
0001
0110
0000
0000
,
1100
0000
1001
0000
0100
1000
0001
0000
,
1000
0000
0100
0000
0000
0000
0010
0000
0001
0000
1000
0000
0001
0000
0010
0001
,
1000
0000
0100
0000
0000
0000
1000
0000
1000
0000
0000
0000
1000
0000
0000
1000
,
0000
0000
1000
0000
0000
0000
0011
0000
0011
0000
0000
0000
0010
0001
0000
0010
,
0000
0001
0100
0000
0100
0000
0100
0001
0010
0000
0100
0000
0010
0001
0100
0000
,
0001
0010
0000
0001
0100
0000
0000
0000
0000
0000
0000
0000
0000
0000
0000
0000
,
0000
0000
0000
0000
0100
0001
0100
0000
0001
0100
0010
0000
0010
0100
0010
1000
,
0100
0010
0001
0010
0100
0000
0000
0000
0000
0000
0000
0000
0000
0000
0000
0000
,
0000
0000
0000
0000
1001
0000
0000
0000
0010
0000
0000
0000
0001
0010
0001
0000
,
1000
0010
0000
1000
0200
0000
2300
0000
3002
0000
0203
0000
0302
0000
2003
0000
,
3002
0000
0000
0023
0000
0000
0130
0000
0000
1000
0000
0000
0010
0000
0000
0100
0000
0001
0010
0000
0000
0001
0000
1000
,
0001
0000
0100
0001
0000
1000
0001
0000
1000
0100
0000
0100
1000
0000
0001
1000
0000
0001
0010
0000
0000
0001
0000
0000
,
0100
0000
0000
0010
0000
1000
0001
0000
0000
0100
0000
0001
0010
0000
0000
0100
0000
1000
0010
0000
0000
1000
0000
0000
,
0001
0000
0000
0000
1000
0000
0001
0000
0000
0000
0001
0000
0100
0000
0000
0000
0001
0000
0010
0000
0000
0100
0000
0000
1000
0000
0000
0100
0000
0000
0010
0000
0000
0001
0000
0000
0010
0000
0000
0000
0000
0000
0001
0000
0000
0000
0000
0000
,
1000
0000
0001
0000
0100
0000
0010
0000
0010
0000
1000
0100
1000
0100
0010
0000
,
0001
0000
0000
0000
0000
0000
1000
0000
0000
0001
0000
0000
0100
0000
0000
0000
0000
0000
0001
0000
0000
0000
0100
0000
0010
0000
0000
1000
0000
0000
0100
0000
0000
0010
0000
0000
0000
0000
0000
0010
0000
0000
0001
0000
0000
1000
0000
0000
,
0100
0010
2001
0000
0001
0000
0001
0000
,
0001
0001
0001
0001
,
3001
0000
0000
0000
;
