#TITLE:Pretty Green Onions;
#SUBTITLE:;
#ARTIST:DJ Sharpnel;
#TITLETRANSLIT:;
#SUBTITLETRANSLIT:;
#ARTISTTRANSLIT:;
#CREDIT:B. Abear;
#BANNER:pretty green bn.png;
#BACKGROUND:pretty green bg.png;
#LYRICSPATH:;
#CDTITLE:;
#MUSIC:Pretty Green Onions.ogg;
#OFFSET:-0.448;
#SAMPLESTART:124.488;
#SAMPLELENGTH:19.844;
#SELECTABLE:YES;
#DISPLAYBPM:194.000;
#BPMS:0.000=193.500;
#STOPS:;
#BGCHANGES:;
// cache tags:
#FIRSTBEAT:12.000;
#LASTBEAT:912.000;
#SONGFILENAME:Songs/SHARPNELSTREAMZ v2/Pretty Green Onions/Pretty Green Onions.sm;
#HASMUSIC:1;
#HASBANNER:1;
#MUSICLENGTH:286.066;
// end cache tags

//---------------dance-single - 16- (TyPope)----------------
#NOTES:
     dance-single:
     16- (TyPope):
     Challenge:
     16:
     1.000,1.000,0.224,0.080,1.000,2710.000,64.000,23.000,0.000,0.000:
0000
0000
0000
0000
,
0000
0000
0000
0000
,
0000
0000
0000
0000
,
1000
0000
0000
0000
0000
0000
1000
0000
0000
0000
0000
0000
0001
0000
0000
0010
0000
0000
0100
0000
0000
0000
0000
0000
1000
0000
0001
0000
1000
0000
0001
0000
0000
0000
0000
0000
0200
0000
0000
0000
0000
0000
0300
0000
0000
0000
0000
0000
,
1001
0000
0001
1000
0100
0000
0010
0000
0100
0000
1000
0001
0100
0001
1000
0010
,
0100
0000
0001
1000
0010
0000
0100
0000
0010
0000
1000
0001
0010
0001
1000
0100
,
0010
0000
0001
1000
0001
0000
0010
0000
0100
0000
1000
0001
0010
0001
0010
0100
,
1000
0000
0001
1000
0010
0000
0100
0000
0001
0000
1000
0001
0100
0010
1000
0001
,
0100
0000
0001
1000
0100
0000
0010
0000
0100
0000
1000
0001
0010
0001
1000
0100
,
0010
0000
0001
1000
0001
0000
0100
0000
0001
0000
1000
0100
0010
0100
1000
0001
,
0010
0000
0100
1000
0001
0000
0100
0000
0001
0000
1000
0100
0010
0001
1000
0001
,
0010
0000
0000
0000
0000
0000
0010
0000
0000
0000
0000
0000
0001
0000
0000
1000
0000
0000
0010
0000
0000
0000
0000
0000
1000
0000
0001
0000
1000
0000
0001
0000
0000
0000
0000
0000
0020
0000
0000
0000
0000
0000
0030
0000
0000
0000
0000
0000
,
1001
0000
0001
1000
0100
0000
0010
0000
0001
0000
1000
0001
0010
0001
1000
0010
,
0100
0000
0001
1000
0100
0000
0010
0000
0100
0000
1000
0001
0100
0001
1000
0100
,
0010
0000
0001
1000
0010
0000
0100
0000
0001
0000
1000
0100
0010
0100
1000
0001
,
0100
0000
0010
1000
0001
0000
0010
0000
0001
0000
1000
0010
0100
0001
1000
0100
,
0010
0000
0001
1000
0010
0000
0100
0000
0010
0000
1000
0001
0010
0001
1000
0010
,
0100
0000
0001
1000
0100
0000
0010
0000
0100
0000
1000
0001
0100
0001
1000
0100
,
0010
0000
0001
1000
0010
0000
0100
0000
0010
0000
1000
0001
0010
0100
1000
0001
,
0100
0000
0000
0000
0000
0000
0100
0000
0000
0000
0000
0000
0010
0000
0000
1000
0000
0000
0001
0000
0000
0000
0000
0000
1000
0000
0001
0000
1000
0000
0001
0000
0000
0000
0000
0000
0020
0000
0000
0000
0000
0000
0030
0000
0000
0000
0000
0000
,
0001
1000
0100
1000
0001
0010
0100
0010
0001
1000
0010
1000
0001
0010
0100
0010
,
0001
1000
0100
1000
0001
0010
0100
0010
0001
1000
0010
1000
0001
0010
0100
0010
,
0001
1000
0010
1000
0001
0100
0010
0100
0001
1000
0100
1000
0001
0100
0010
0100
,
0001
1000
0010
1000
0001
0100
0010
0100
0001
1000
0100
1000
0001
0100
0010
0100
,
0001
1000
0100
1000
0001
0010
0100
0010
0001
1000
0010
1000
0001
0010
0100
0010
,
0001
1000
0100
1000
0001
0010
0100
0010
0001
1000
0010
1000
0001
0010
0100
0010
,
0001
1000
0010
1000
0001
0100
0010
0100
0001
1000
0100
1000
0001
0100
0010
0100
,
0001
0000
0000
0000
0000
0000
0001
0000
0000
0000
0000
0000
0010
0000
0000
0100
0000
0000
1000
0000
0000
0000
0000
0000
0001
0000
1000
0000
0001
0000
1000
0000
0000
0000
0000
0000
0020
0000
0000
0000
0000
0000
0030
0000
0000
0000
0000
0000
,
1000
0001
0010
0001
1000
0100
0010
0100
1000
0001
0100
0001
1000
0100
0010
0001
,
0100
0010
1000
0001
1000
0100
0010
0100
1000
0001
0100
0001
1000
0100
0010
0001
,
0100
0010
1000
0001
1000
0010
0100
0010
1000
0001
0010
0001
1000
0010
0100
0001
,
0010
0100
1000
0001
1000
0010
0100
0010
1000
0001
0010
0001
1000
0010
0100
0001
,
0010
0100
1000
0001
1000
0100
0010
0100
1000
0001
0100
0001
1000
0100
0010
0100
,
1000
0001
0010
0001
1000
0100
0010
0100
1000
0001
0100
0001
1000
0100
0010
0100
,
1000
0010
0100
0001
0010
0001
0100
0010
1000
0100
0010
0001
0100
0010
0100
0001
,
1000
0000
0000
0000
0000
0000
0000
0000
0000
0000
0000
0000
0001
1000
0001
1000
0000
0000
0020
0000
0000
0030
0000
0000
,
1000
0100
1000
0001
0100
0001
1000
0100
0010
0001
0010
0001
1000
0010
0100
0001
,
1000
0100
1000
0001
0100
0001
1000
0100
0010
0100
0010
0100
1000
0001
0100
0001
,
1000
0010
1000
0001
0010
0001
1000
0010
0100
0010
0100
0010
1000
0001
0010
0001
,
0100
0010
0100
0001
1000
0100
1000
0001
0100
0010
0100
0010
1000
0100
0010
0001
,
1000
0010
1000
0001
0010
0001
1000
0010
0100
0001
0100
0001
1000
0100
0010
0001
,
1000
0010
1000
0001
0010
0001
1000
0010
0100
0010
0100
0010
1000
0001
0010
0001
,
1000
0100
1000
0001
0100
0001
1000
0100
0010
0100
0010
0100
1000
0001
0100
0001
,
0010
0100
0010
0001
1000
0010
1000
0001
0010
0100
0010
0100
1000
0010
0100
0001
,
1000
0100
1000
0001
0100
0001
1000
0100
0010
0001
0010
0001
1000
0010
0100
0001
,
1000
0100
1000
0001
0100
0001
1000
0100
0010
0100
0010
0100
1000
0001
0100
0001
,
1000
0010
1000
0001
0010
0001
1000
0010
0100
0010
0100
0010
1000
0001
0010
0001
,
0100
0010
0100
0001
1000
0100
1000
0001
0100
0010
0100
0010
1000
0100
0010
0001
,
1000
0010
1000
0001
0010
0001
1000
0010
0100
0001
0100
0001
1000
0100
0010
0001
,
1000
0010
1000
0001
0010
0001
1000
0010
0100
0010
0100
0010
1000
0001
0010
0001
,
1000
0100
1000
0001
0100
0001
1000
0100
0010
0100
0010
0100
1000
0001
0100
0010
,
1000
0000
0000
0001
0000
0000
0010
0000
0000
0100
0000
0000
1000
0001
1000
0001
0000
0000
0200
0000
0000
0300
0000
0000
,
0001
0010
0001
1000
0010
1000
0001
0010
0100
1000
0100
1000
0001
0100
0010
1000
,
0001
0010
0001
1000
0010
1000
0001
0010
0100
0010
0100
0010
0001
1000
0010
1000
,
0001
0100
0001
1000
0100
1000
0001
0100
0010
0100
0010
0100
0001
1000
0100
1000
,
0010
0100
0010
1000
0001
0010
0001
1000
0010
0100
0010
0100
0001
0010
0100
1000
,
0001
0100
0001
1000
0100
1000
0001
0100
0010
1000
0010
1000
0001
0010
0100
1000
,
0001
0100
0001
1000
0100
1000
0001
0100
0010
0100
0010
0100
0001
1000
0100
1000
,
0001
0010
0001
1000
0010
1000
0001
0010
0100
0010
0100
0010
0001
1000
0010
1000
,
0100
0010
0100
1000
0001
0100
0001
1000
0100
0010
0100
0010
0001
0100
0010
1000
,
0001
0010
0001
1000
0010
1000
0001
0010
0100
1000
0100
1000
0001
0100
0010
1000
,
0001
0010
0001
1000
0010
1000
0001
0010
0100
0010
0100
0010
0001
1000
0010
1000
,
0001
0100
0001
1000
0100
1000
0001
0100
0010
0100
0010
0100
0001
1000
0100
1000
,
0010
0100
0010
1000
0001
0010
0001
1000
0010
0100
0010
0100
0001
0010
0100
1000
,
0001
0100
0001
1000
0100
1000
0001
0100
0010
1000
0010
1000
0001
0010
0100
1000
,
0001
0100
0010
1000
0001
1000
0010
0100
0001
0010
0001
0010
0100
1000
0001
0100
,
0010
1000
0100
1000
0010
0100
0001
0010
0100
1000
0010
1000
0100
0010
0001
0100
,
0010
0000
0000
0010
0000
0000
0010
0000
0000
0010
0000
0000
1000
0001
1000
0001
0000
0000
0020
0000
0000
0030
0000
0000
,
1001
0000
0001
0000
0010
0000
0100
0100
,
1000
0000
0010
0100
0001
0000
1000
0000
,
0001
0000
1000
0001
0010
0000
0100
0000
,
1000
0001
0001
0200
,
0310
1000
0010
1000
0002
0000
0023
0000
,
0130
0000
1000
0100
1000
0001
0100
0000
,
0010
0100
0001
0000
1000
0000
0001
0010
,
0100
0010
0001
0000
1000
0000
1001
0000
,
1001
0000
0001
0000
0100
0000
0010
0010
,
0100
0000
0001
1000
0100
0000
0010
0000
,
0001
0000
1000
0001
0020
0000
0130
0000
,
1000
0001
1000
0020
,
0130
0001
0100
0001
2000
0000
3200
0000
,
0310
0000
0001
0100
0010
0100
0001
0000
,
1000
0100
0010
0000
0100
0000
1000
0001
,
0100
0000
0010
0000
0100
0000
0000
0000
0001
1000
0001
0000
1001
0000
1000
0000
,
1001
0000
0001
0000
0010
0000
0100
1000
,
0001
0000
0001
0000
0010
0000
0100
1000
,
0001
0000
0001
0000
0010
0000
0100
1000
,
0001
0000
0000
0000
0001
0000
0000
0000
0001
0000
0001
1000
0001
0000
0001
0000
,
1000
0001
1000
0001
,
1000
0001
1000
0001
,
1000
0001
1000
0001
,
1000
1000
0001
0001
0001
0000
1001
0000
,
1001
1000
1000
1000
,
1000
1000
1000
0001
,
1000
1000
1000
1000
1000
1000
1000
1000
,
1000
1000
1000
1000
1000
1000
0001
0001
,
1000
0001
1000
0001
1000
0001
1000
0001
1000
0001
1000
0001
1000
0001
1000
0001
,
1000
0001
1000
0001
1000
0001
1000
0001
1000
0001
1000
0001
1000
0001
1000
0001
,
4000
0000
0000
0000
0000
0000
0000
0000
0000
0000
0000
0000
0000
0000
0000
0000
0000
0000
0000
0000
0000
0000
0000
0000
0000
0000
0000
0000
0000
0000
0000
0000
0000
0000
0000
0000
0000
0000
0000
0000
0000
0000
0000
0000
0000
0000
0000
0000
0000
0000
0000
0000
0000
0000
0000
0000
0000
0000
0000
0000
0000
0000
0000
3000
,
1001
0000
0000
0000
0001
0000
0000
0000
0001
0000
0001
1000
0001
0000
0001
0000
,
1000
0100
0010
0001
1000
0010
1000
0001
0010
0100
1000
0001
0100
0010
0100
0001
,
1000
0100
1000
0001
0010
0100
1000
0001
0100
0001
0100
0010
1000
0001
1000
0100
,
0010
0001
1000
0010
0100
0010
1000
0001
0100
0001
1000
0100
1000
0001
0010
0100
,
1000
0001
0010
0001
1000
0010
0100
0001
1000
0100
1000
0001
0010
0100
1000
0001
,
0010
0001
1000
0010
0100
0001
0100
0010
1000
0001
0010
0100
1000
0010
0100
0010
,
0100
0001
1000
0100
0010
0001
1000
0100
1000
0001
0010
0001
0100
0010
1000
0001
,
0100
0010
1000
0001
1000
0100
1000
0001
0010
0100
1000
0001
0100
0001
0010
0100
,
1000
0001
0100
0001
1000
0100
1000
0010
0100
0001
1000
0001
0100
0010
0100
0001
,
2000
3001
0010
0001
1000
0010
1000
0001
0010
0100
1000
0001
0100
0010
1000
0001
,
0010
0001
1000
0100
1000
0001
0010
0100
1000
0100
0010
0001
1000
0010
1000
0001
,
0100
0001
1000
0100
0010
0001
1000
0010
1000
0100
0010
0001
1000
0010
0100
0010
,
1000
0001
0010
0001
1000
0100
1000
0100
0010
0001
1000
0010
0100
0001
1000
0001
,
0100
0010
1000
0001
0010
0001
1000
0100
0010
0001
1000
0100
1000
0001
0100
0010
,
1000
0010
1000
0001
0010
0001
1000
0100
1000
0001
0010
0100
1000
0001
0010
0100
,
0010
0001
1000
0100
1000
0001
0100
0010
1000
0010
0100
0001
1000
0100
1000
0001
,
0010
0001
0010
0100
1000
0001
0100
0001
1000
0100
0010
0001
2000
3001
0100
0001
,
2000
3001
0100
0001
1000
0010
1000
0001
0010
0100
1000
0001
0100
0010
0100
0001
,
1000
0100
1000
0001
0010
0100
1000
0001
0100
0001
0100
0010
1000
0001
1000
0100
,
0010
0001
1000
0010
0100
0010
1000
0001
0100
0001
1000
0100
1000
0001
0010
0100
,
1000
0001
0010
0001
1000
0010
0100
0001
1000
0100
1000
0001
0010
0100
1000
0001
,
0010
0001
1000
0010
0100
0001
0100
0010
1000
0001
0010
0100
1000
0010
0100
0010
,
0100
0001
1000
0100
0010
0001
1000
0100
1000
0001
0010
0001
0100
0010
1000
0001
,
0100
0010
1000
0001
1000
0100
1000
0001
0010
0100
1000
0001
0100
0001
0010
0100
,
1000
0001
0100
0001
1000
0100
1000
0010
0100
0001
1000
0001
0100
0010
0100
0001
,
2000
3001
0100
0001
1000
0010
1000
0001
0010
0100
1000
0001
0100
0010
1000
0001
,
0010
0001
1000
0100
1000
0001
0010
0100
1000
0100
0010
0001
1000
0010
1000
0001
,
0100
0001
1000
0100
0010
0001
1000
0010
1000
0100
0010
0001
1000
0010
0100
0010
,
1000
0001
0010
0001
1000
0100
1000
0100
0010
0001
1000
0010
0100
0001
1000
0001
,
0100
0010
1000
0001
0010
0001
1000
0100
0010
0001
1000
0100
1000
0001
0100
0010
,
1000
0100
0010
0001
0100
0001
0010
0100
1000
0001
0100
0010
1000
0010
0100
0001
,
0010
0100
0010
0001
0100
0010
1000
0100
0010
0100
1000
0010
0100
0001
0010
0100
,
1000
0000
0000
0000
0000
0000
1001
0001
,
0011
0000
0010
0000
0100
0000
1000
0000
0001
0000
0100
0000
0010
0100
0001
0000
,
1000
0001
0010
0100
1000
0001
0010
0010
,
0010
0000
0001
0000
1000
0000
0010
0000
0100
0001
1000
0000
0100
0000
0010
0000
,
0001
0000
1000
0000
0100
0000
1000
0000
0001
0000
0001
0000
1000
0000
1000
0001
,
0010
0100
1000
0001
0010
0100
0010
0001
,
1000
0000
0010
0000
0100
0000
0010
0000
1000
0100
0010
0000
0001
0000
0001
0000
,
0001
0000
1000
0000
0010
0000
1000
0000
0100
1000
0001
0000
0100
0000
0001
0000
,
1000
0100
0000
0010
0001
0000
0001
0000
1000
0000
1000
0010
1000
0000
0001
1000
,
0100
0000
0010
0000
0001
0000
1000
0000
0001
0000
0100
0000
0010
0100
0001
0000
,
0100
0001
0010
0001
1000
0100
1000
1000
,
1000
0000
0001
0000
0100
0000
0010
0000
0100
0001
1000
0000
0100
0000
0010
0000
,
0001
0000
1000
0000
0010
0000
1000
0000
0001
0000
0001
0000
1000
0000
1000
0001
,
0010
0100
1000
0001
0010
0100
0010
0001
,
1000
0000
0010
0000
0100
0000
0010
0000
1000
0100
0010
0000
0001
0000
0001
0000
,
0001
0000
1000
0000
0010
0000
1000
0000
0100
1000
0001
0000
0100
0000
0001
0000
,
1000
0100
0000
0010
0001
0000
0001
0000
1000
0000
1000
0010
1000
0000
0001
1000
,
0010
0000
1000
0000
0100
0000
1000
0000
0001
0000
0100
0000
0010
0100
0001
0000
,
1000
0001
0010
0100
1000
0001
0010
0010
,
0010
0000
0001
0000
1000
0000
0010
0000
0100
0001
1000
0000
0100
0000
0010
0000
,
0001
0000
1000
0000
0100
0000
1000
0000
0001
0000
0001
0000
1000
0000
1000
0001
,
0010
0000
0100
0000
1000
0000
0001
0000
0010
0100
1000
0000
0010
0000
1000
0000
,
0001
0000
0100
0000
0010
0000
0100
0000
0001
0010
0100
0000
1000
0000
1000
0000
,
1000
0000
0001
0000
0100
0000
0001
0000
0010
0001
1000
0000
0010
0000
1000
0000
,
0001
0010
0000
0100
1000
0000
1000
0000
0001
0000
0001
0100
0001
0000
1000
0001
,
0010
0000
0100
0000
1000
0000
0001
0000
1000
0000
0010
0000
0100
0010
1000
0000
,
0010
1000
0100
1000
0001
0010
0001
0001
,
0001
0000
1000
0000
0010
0000
0100
0000
0010
1000
0001
0000
0010
0000
0100
0000
,
1000
0000
0001
0000
0100
0000
0001
0000
1000
0000
1000
0000
0001
0000
0001
1000
,
0100
0010
0001
1000
0100
0010
0100
1000
,
0001
0000
0100
0000
0010
0000
0100
0000
0001
0010
0100
0000
1000
0000
1000
0000
,
1000
0000
0001
0000
0100
0000
0001
0000
0010
0001
1000
0000
0010
0000
1000
0000
,
1001
0000
0000
0000
0000
0000
0000
0000
0000
0000
0000
0000
0001
1000
0001
1000
0000
0000
0001
0000
0000
0000
0000
0000
,
1001
0000
1000
0010
0000
0010
0100
0000
0001
0000
1000
0100
0000
0100
0010
0000
,
0001
0000
1000
0010
0000
0010
0100
0000
0010
0000
1000
0100
0000
0100
0010
0000
,
0100
0000
1000
0001
0000
0001
0010
0000
0100
0000
0010
0001
0000
0001
0100
0000
,
0010
0000
1000
0010
0000
0010
0100
0000
0001
0000
0001
0000
1000
0000
1000
0001
,
0010
0000
0100
1000
0000
1000
0001
0000
0100
0000
0010
1000
0000
1000
0001
0000
,
0010
0000
0100
1000
0000
1000
0001
0000
0010
0000
0100
0010
0000
0010
0001
0000
,
1000
0000
0001
0100
0000
0100
0010
0000
0100
0000
0001
1000
0000
1000
0100
0000
,
0010
0001
0000
1000
0010
0000
0010
0000
0100
0000
0100
0001
1000
0000
0001
1000
,
0100
0000
1000
0010
0000
0010
0100
0000
0001
0000
1000
0100
0000
0100
0010
0000
,
0001
0000
1000
0010
0000
0010
0100
0000
0010
0000
1000
0100
0000
0100
0010
0000
,
0100
0000
1000
0001
0000
0001
0010
0000
0100
0000
0010
0001
0000
0001
0100
0000
,
0010
0000
1000
0010
0000
0010
0100
0000
0001
0000
0001
0000
1000
0000
1000
0001
,
0010
0000
0100
1000
0000
1000
0001
0000
0100
0000
0010
1000
0000
1000
0001
0000
,
0010
0000
0100
1000
0000
1000
0001
0000
0010
0000
0100
0010
0000
0010
0001
0000
,
1000
0000
0001
0100
0000
0100
0010
0000
0100
0000
0001
1000
0000
1000
0100
0000
,
0010
0001
1000
0000
0010
0000
0010
0000
0100
0000
0100
0001
1000
0000
0001
0010
,
0100
1000
1001
0001
0101
0100
0110
0010
,
1010
1000
1001
0001
0011
0010
0110
0110
,
1100
1000
1001
0001
0011
0010
0110
0100
,
1100
0000
1000
0000
1001
0000
0001
0000
0101
0000
0101
0000
1001
0000
1000
0001
,
0010
0100
1100
1000
1001
0001
0101
0100
,
0110
0010
1010
1000
1001
0001
0011
0011
,
0110
0010
0011
0001
1001
1000
1010
0010
,
0100
0001
0000
1000
0010
0000
0010
0000
0110
0000
0100
0001
1000
0000
0001
0010
,
0100
1000
1100
0100
0110
0010
0011
0001
,
1001
1000
1010
0010
0110
0100
0101
0101
,
1001
1000
1001
0001
0011
0010
0110
0100
,
1100
0000
1000
0000
1001
0000
0001
0000
0101
0000
0101
0000
1001
0000
1000
0001
,
0010
0100
1100
1000
1001
0001
0101
0100
,
0010
1000
0100
0010
0001
1000
0001
0100
0010
1000
0010
0100
0001
0010
0100
1000
,
0001
0100
0010
1000
0100
1000
0010
0100
0001
0010
0001
0100
0010
1000
0100
0010
,
0001
0000
0000
0000
0000
0000
0000
0000
0000
0000
0000
0000
1000
0001
1000
0001
0000
0000
0020
0000
0000
0030
0000
0000
,
0001
0010
0100
1000
0001
1000
0001
0100
0010
1000
0010
0100
0001
1000
0100
1000
,
0001
0010
0100
1000
0001
0010
0001
1000
0010
0100
0010
1000
0001
1000
0001
0010
,
0100
1000
0001
0100
0001
1000
0100
1000
0001
0100
0010
1000
0010
0100
0001
1000
,
0001
0100
0001
1000
0100
0010
0001
1000
0100
1000
0001
0010
0100
1000
0010
0100
,
0010
0100
0001
1000
0001
1000
0100
0010
0001
0010
0100
1000
0001
0100
0001
1000
,
0010
0100
0001
0100
0010
1000
0001
1000
0100
0010
0001
0010
0001
1000
0010
0100
,
0001
1000
0100
1000
0001
0010
0100
1000
0001
0100
0010
0100
0001
1000
0100
1000
,
0001
0010
0100
1000
0001
0100
0001
1000
0100
1000
0001
0010
0100
0010
0001
1000
,
0002
1003
0100
0010
0100
1000
0010
0100
0010
1000
0001
0010
0001
1000
0100
0010
,
0001
0100
0010
0100
0001
1000
0001
0010
0100
1000
0100
1000
0001
1000
0001
1000
,
0010
0100
0001
1000
0010
0100
0001
1000
0010
0100
0010
1000
0001
0010
0001
1000
,
0100
0010
0001
1000
0010
0100
0010
1000
0001
0010
0100
1000
0001
0100
0001
0010
,
0100
1000
0001
0100
0010
1000
0010
0100
0001
1000
0100
1000
0001
0010
0100
1000
,
0001
0100
0001
1000
0100
0010
0001
1000
0010
0100
0010
1000
0001
0010
0001
0010
,
0100
1000
0001
0100
0001
1000
0010
0100
0001
1000
0100
0010
0001
1000
0001
0100
,
0010
0000
0000
0000
0000
0000
0000
0000
0000
0000
0000
0000
1000
0001
1000
0001
0000
0000
0200
0000
0000
0300
0000
0000
,
0001
1000
0100
0010
0001
1000
0001
0100
0010
1000
0010
0100
0001
1000
0100
1000
,
0001
0010
0100
1000
0001
0010
0001
1000
0010
0100
0010
1000
0001
1000
0001
0010
,
0100
1000
0001
0100
0001
1000
0100
1000
0001
0100
0010
1000
0010
0100
0001
1000
,
0001
0100
0001
1000
0100
0010
0001
1000
0100
1000
0001
0010
0100
1000
0010
0100
,
0010
0100
0001
1000
0001
1000
0100
0010
0001
0010
0100
1000
0001
0100
0001
1000
,
0010
0100
0001
0100
0010
1000
0001
1000
0100
0010
0001
0010
0001
1000
0010
0100
,
0001
1000
0100
1000
0001
0010
0100
1000
0001
0100
0010
0100
0001
1000
0100
1000
,
0001
0010
0100
1000
0001
0100
0001
1000
0100
1000
0001
0010
0100
0010
0001
1000
,
0002
1003
0100
0010
0100
1000
0010
0100
0010
1000
0001
0010
0001
1000
0100
0010
,
0001
0100
0010
0100
0001
1000
0001
0010
0100
1000
0100
1000
0001
1000
0001
1000
,
0010
0100
0001
1000
0010
0100
0001
1000
0010
0100
0010
1000
0001
0010
0001
1000
,
0100
0010
0001
1000
0010
0100
0010
1000
0001
0010
0100
1000
0001
0100
0001
0010
,
0100
1000
0001
0100
0010
1000
0010
0100
0001
1000
0100
1000
0001
0010
0100
1000
,
0001
0100
0010
1000
0001
1000
0010
0100
0001
1000
0100
0010
0001
0010
0100
1000
,
0010
0100
0001
0010
0100
0010
0001
0100
0010
1000
0100
0010
0100
1000
0010
0100
,
0001
0000
0000
0000
0000
0000
0000
0000
0000
0000
0000
0000
1000
0001
1000
0001
0000
0000
0020
0000
0000
0000
0000
0000
,
0030
0000
0000
0000
;

//---------------dance-single - 15- (Pope)----------------
#NOTES:
     dance-single:
     15- (Pope):
     Hard:
     15:
     1.000,1.000,0.339,0.056,1.000,2313.000,97.000,16.000,20.000,0.000:
0000
0000
0000
0000
,
0000
0000
0000
0000
,
0000
0000
0000
0000
,
0001
0000
0000
0000
0000
0000
1000
0000
0000
0000
0000
0000
0001
0000
0000
1000
0000
0000
0100
0000
0000
0000
0000
0000
1000
0000
0001
0000
1000
0000
0001
0000
0000
0000
0000
0000
0200
0000
0000
0300
0000
0000
0M00
0000
0000
0000
0000
0000
,
1001
0000
0000
0000
1100
0000
0110
0000
0000
0010
0100
0000
0000
1000
0001
1000
,
0010
0000
0000
0000
0110
0000
0101
0000
0000
0001
1000
0000
0000
0001
1000
0100
,
0010
0000
0000
0000
0011
0000
1001
0000
0000
1000
0010
0000
0000
0100
0001
1000
,
0100
0000
0000
0000
1100
0000
1001
0000
0000
0001
0100
0000
0000
0010
1000
0001
,
1000
0000
0000
0000
1010
0000
1001
0000
0000
1000
0100
0000
0000
1000
0001
0010
,
0100
0000
0000
0000
0110
0000
1100
0000
0000
0100
1000
0000
0000
0001
1000
0010
,
0100
0000
0000
0000
0110
0000
0101
0000
0000
0100
0001
0000
0000
0100
0010
1000
,
0001
0000
0000
0000
0000
0000
1000
0000
0000
0000
0000
0000
0001
0000
0000
1000
0000
0000
0100
0000
0000
0000
0000
0000
1000
0000
0001
0000
1000
0000
0001
0000
0000
0000
0000
0000
0200
0000
0000
0300
0000
0000
0M00
0000
0000
0000
0000
0000
,
1001
0000
0001
0000
1000
0000
0100
0000
0000
1000
0001
0000
0000
1000
0001
0010
,
0100
0000
1000
0000
0001
0000
0100
0000
0000
0010
0100
0000
0000
0001
1000
0100
,
0010
0000
0100
0000
1000
0000
0001
0000
0000
1000
0001
0000
0000
0100
0010
0100
,
0001
0000
0010
0000
0100
0000
1000
0000
0000
0001
0010
0000
0000
0001
0100
0010
,
1000
0000
0010
0000
0100
0000
0001
0000
0000
1000
0100
0000
0000
1000
0001
0010
,
0100
0000
1000
0000
0001
0000
0100
0000
0000
0010
0100
0000
0000
0001
1000
0100
,
0010
0000
0001
0000
1000
0000
0010
0000
0000
0100
0010
0000
0000
1000
0001
0010
,
0001
0000
0000
0000
0000
0000
1000
0000
0000
0000
0000
0000
0001
0000
0000
1000
0000
0000
0100
0000
0000
0000
0000
0000
1000
0000
0001
0000
1000
0000
0001
0000
0000
0000
0000
0000
0200
0000
0000
0300
0000
0000
0M00
0000
0000
0000
0000
0000
,
1001
0000
0001
0000
1000
0100
1000
0000
0001
0100
0001
0000
1000
0010
0100
0001
,
1000
0000
0100
0000
1000
0001
1000
0000
0001
0100
0001
0000
0100
0010
1000
0001
,
0010
0000
0001
0000
1000
0100
1000
0000
0001
0010
0001
0000
1000
0010
0100
0001
,
0100
0000
0010
0000
1000
0001
1000
0000
0100
0010
0100
0000
0010
0001
1000
0001
,
1000
0000
0100
0000
1000
0001
1000
0000
0010
1000
0010
0000
0100
0001
1000
0100
,
0010
0000
0100
0000
1000
0100
1000
0000
0100
0010
0100
0000
0010
0100
1000
0001
,
0100
0000
0010
0000
1000
0010
1000
0000
0001
0100
0001
0000
1000
0010
0100
0001
,
1000
0000
0000
0000
0000
0000
0001
0000
0000
0000
0000
0000
1000
0000
0000
0001
0000
0000
0100
0000
0000
0000
0000
0000
0001
0000
1000
0000
0001
0000
1000
0000
0000
0000
0000
0000
0200
0000
0000
0300
0000
0000
0M00
0000
0000
0000
0000
0000
,
1001
0000
1000
0000
0001
0010
0001
0000
1000
0010
1000
0000
0001
0100
0010
1000
,
0001
0000
0010
0000
0001
1000
0001
0000
1000
0010
1000
0000
0010
0100
0001
1000
,
0100
0000
1000
0000
0001
0010
0001
0000
1000
0100
1000
0000
0001
0100
0010
1000
,
0010
0000
0100
0000
0001
1000
0001
0000
0010
0100
0010
0000
0100
1000
0010
1000
,
0001
0001
0100
0100
0010
0010
1000
1000
,
0001
0010
0100
1000
0001
0100
0010
0100
0001
1000
0100
0010
0001
1000
0100
1000
,
0004
4000
0000
0000
0000
0000
0000
0000
0000
0000
0000
0000
0000
0000
0000
0000
0000
0000
0000
0000
0000
0000
0000
3003
,
0110
0000
0000
0000
0000
0000
0000
0000
0000
0000
0000
0000
0000
0000
0000
0000
0000
0000
0000
0000
0000
0000
0000
0000
0000
0000
0000
0000
0000
0000
0000
0000
0000
0000
0000
0000
0000
0000
0000
0000
0000
0000
0000
0000
0000
0000
0000
0000
0000
0000
0000
0000
0000
0000
0000
0000
0000
0000
0000
0000
0000
0000
0000
0000
0000
0000
0000
0000
0000
0000
0000
0000
0000
0000
0000
0000
0000
0000
0000
0000
0000
0000
0000
0000
0000
0000
0000
0000
0000
0000
0000
0000
0000
0000
0000
0000
0010
0000
0000
0000
0000
0000
0000
0000
0100
0000
0000
0000
0000
0000
0000
0000
0010
0000
0000
0000
0000
0000
0000
0000
0100
0000
0000
0000
0000
0000
0000
0000
0000
0000
0000
0000
0000
0000
0000
0000
0000
0000
0000
0000
0000
0000
0000
0000
0002
0000
0000
0000
0000
0000
0000
0000
0000
0000
0000
0000
0000
0000
0000
0000
0000
0000
0000
0000
0000
0000
0000
0000
0000
0000
0000
0000
0000
0000
0000
0000
0000
0000
0000
0000
0000
0000
0000
0000
0000
0000
0000
0000
0000
0003
0000
0000
,
1001
0000
1000
0100
0000
0100
0010
0000
0001
0000
0100
0000
0010
0000
1000
0000
,
0001
0000
1000
0010
0000
0010
0100
0000
0001
0000
0001
0000
0010
0000
0100
0000
,
1000
0000
0001
0100
0000
0100
0010
0000
1000
0000
1000
0000
0010
0000
0100
0000
,
0001
0000
1000
0100
0000
0100
0010
0000
0001
0000
0010
0000
0100
0000
1000
0000
,
0001
0000
1000
0010
0000
0010
0100
0000
0001
0000
0100
0000
0010
0000
1000
0000
,
0001
0000
1000
0100
0000
0100
0010
0000
0001
0000
0001
0000
0010
0000
0100
0000
,
1000
0000
0001
0010
0000
0010
0100
0000
1000
0000
1000
0000
0010
0000
0100
0000
,
0001
0000
1000
0010
0000
0010
0100
0000
0001
0000
0010
0000
0100
0000
1000
0000
,
1001
0000
0001
0010
0000
0010
0100
0000
1000
0000
0010
0000
0100
0000
0001
0000
,
1000
0000
0001
0100
0000
0100
0010
0000
1000
0000
1000
0000
0100
0000
0010
0000
,
0001
0000
1000
0010
0000
0010
0100
0000
0001
0000
0001
0000
0100
0000
0010
0000
,
1000
0000
0001
0010
0000
0010
0100
0000
1000
0000
0100
0000
0010
0000
0001
0000
,
1000
0000
0001
0100
0000
0100
0010
0000
1000
0000
0010
0000
0100
0000
0001
0000
,
1000
0000
0001
0010
0000
0010
0100
0000
1000
0000
1000
0000
0100
0000
0010
0000
,
0001
0000
1000
0100
0000
0100
0010
0000
0001
0000
0001
0000
0100
0000
0001
0000
,
1001
0000
0000
0000
0000
0000
1000
0000
0000
0001
0000
0000
0100
0000
0000
0000
0000
0000
0001
0000
0000
0000
0000
0000
1000
0000
0001
0000
1000
0000
0001
0000
0000
0000
0000
0000
0020
0000
0000
0030
0000
0000
00M0
0000
0000
0000
0000
0000
,
1001
0000
0001
0010
0000
0010
0100
0000
1000
0000
0010
0000
0100
0000
0001
0000
,
1000
0000
0001
0100
0000
0100
0010
0000
1000
0000
1000
0000
0100
0000
0010
0000
,
0001
0000
1000
0010
0000
0010
0100
0000
0001
0000
0001
0000
0100
0000
0010
0000
,
1000
0000
0001
0010
0000
0010
0100
0000
1000
0000
0100
0000
0010
0000
0001
0000
,
1000
0000
0001
0100
0000
0100
0010
0000
1000
0000
0010
0000
0100
0000
0001
0000
,
1000
0000
0001
0010
0000
0010
0100
0000
1000
0000
1000
0000
0100
0000
0010
0000
,
0001
0000
1000
0100
0000
0100
0010
0000
0001
0000
0001
0000
0100
0000
0010
0000
,
1000
0000
0001
0100
0000
0100
0010
0000
1000
0000
0100
0000
0010
0000
0001
0000
,
1001
0000
1000
0100
0000
0100
0010
0000
0001
0000
0100
0000
0010
0000
1000
0000
,
0001
0000
1000
0010
0000
0010
0100
0000
0001
0000
0001
0000
0010
0000
0100
0000
,
1000
0000
0001
0100
0000
0100
0010
0000
1000
0000
1000
0000
0010
0000
0100
0000
,
0001
0000
1000
0100
0000
0100
0010
0000
0001
0000
0010
0000
0100
0000
1000
0000
,
0001
0000
1000
0010
0000
0010
0100
0000
0001
0000
0100
0000
0010
0000
1000
0000
,
0001
0010
0100
1000
0010
0100
0010
1000
0001
0010
0100
1000
0001
0100
0001
1000
,
0004
4000
0000
0000
0000
0000
0000
0000
0000
0000
0000
0000
0000
0000
0000
0000
0000
0000
0000
0000
0000
0000
0000
3003
,
0110
0000
0000
0000
0000
0000
0000
0000
0000
0000
0000
0000
0000
0000
0000
0000
0000
0000
0000
0000
0000
0000
0000
0000
0000
0000
0000
0000
0000
0000
0000
0000
0000
0000
0000
0000
0000
0000
0000
0000
0000
0000
0000
0000
0000
0000
0000
0000
0000
0000
0000
0000
0000
0000
0000
0000
0000
0000
0000
0000
0000
0000
0000
0000
0000
0000
0000
0000
0000
0000
0000
0000
0000
0000
0000
0000
0000
0000
0000
0000
0000
0000
0000
0000
0000
0000
0000
0000
0000
0000
0000
0000
0000
0000
0000
0000
0100
0000
0000
0000
0000
0000
0000
0000
0010
0000
0000
0000
0000
0000
0000
0000
0100
0000
0000
0000
0000
0000
0000
0000
0010
0000
0000
0000
0000
0000
0000
0000
0000
0000
0000
0000
0000
0000
0000
0000
0000
0000
0000
0000
0000
0000
0000
0000
2000
0000
0000
0000
0000
0000
0000
0000
0000
0000
0000
0000
0000
0000
0000
0000
0000
0000
0000
0000
0000
0000
0000
0000
0000
0000
0000
0000
0000
0000
0000
0000
0000
0000
0000
0000
0000
0000
0000
0000
0000
0000
0000
0000
0000
3000
0000
0000
,
1001
0000
0001
0000
0010
0000
0100
0100
,
1000
0000
0010
0100
0001
0000
1000
0000
,
0001
0000
1000
0001
0010
0000
0100
0000
,
1000
0001
0001
0200
,
0310
1000
0010
1000
0002
0000
0023
0000
,
0130
0000
1000
0100
1000
0001
0100
0000
,
0010
0100
0001
0000
1000
0000
0001
0010
,
0100
0010
0001
0000
1000
0000
1001
0000
,
1001
0000
0001
0000
0100
0000
0010
0010
,
0100
0000
0001
1000
0100
0000
0010
0000
,
0001
0000
1000
0001
0020
0000
0130
0000
,
1000
0001
1000
0020
,
0130
0001
0100
0001
2000
0000
3200
0000
,
0310
0000
0001
0100
0010
0100
0001
0000
,
1000
0100
0010
0000
0100
0000
1000
0001
,
0100
0000
0010
0000
0100
0000
0000
0000
0001
1000
0001
0000
1001
0000
1000
0000
,
1001
0000
0001
0000
0010
0000
0100
1000
,
0001
0000
0001
0000
0010
0000
0100
1000
,
0001
0000
0001
0000
0010
0000
0100
1000
,
0001
0000
0000
0000
0001
0000
0000
0000
0001
0000
0001
1000
0001
0000
0001
0000
,
1000
0001
1000
0001
,
1000
0001
1000
0001
,
1000
0001
1000
0001
,
1000
1000
0001
0001
0001
0000
1001
0000
,
1001
1000
1000
1000
,
1000
1000
1000
0001
,
1000
1000
1000
1000
1000
1000
1000
1000
,
1000
1000
1000
1000
1000
1000
0001
0001
,
1000
0001
1000
0001
1000
0001
1000
0001
1000
0001
1000
0001
1000
0001
1000
0001
,
1000
0001
1000
0001
1000
0001
1000
0001
1000
0001
1000
0001
1000
0001
1000
0001
,
4000
0000
0000
0000
0000
0000
0000
0000
0000
0000
0000
0000
0000
0000
0000
0000
0000
0000
0000
0000
0000
0000
0000
0000
0000
0000
0000
0000
0000
0000
0000
0000
0000
0000
0000
0000
0000
0000
0000
0000
0000
0000
0000
0000
0000
0000
0000
0000
0000
0000
0000
0000
0000
0000
0000
0000
0000
0000
0000
0000
0000
0000
0000
3000
,
1001
0000
0000
0000
0001
0000
0000
0000
0001
0000
0001
1000
0001
0000
0001
0000
,
1000
0100
0010
0001
1000
0010
1000
0001
0010
0100
1000
0001
0100
0010
0100
0001
,
1000
0100
1000
0001
0010
0100
1000
0001
0100
0001
0100
0010
1000
0001
1000
0100
,
0010
0001
1000
0010
0100
0010
1000
0001
0100
0001
1000
0100
1000
0001
0010
0100
,
1000
0001
0010
0001
1000
0010
0100
0001
1000
0100
1000
0001
0010
0100
1000
0001
,
0010
0001
1000
0010
0100
0001
0100
0010
1000
0001
0010
0100
1000
0010
0100
0010
,
0100
0001
1000
0100
0010
0001
1000
0100
1000
0001
0010
0001
0100
0010
1000
0001
,
0100
0010
1000
0001
1000
0100
1000
0001
0010
0100
1000
0001
0100
0001
0010
0100
,
1000
0001
0100
0001
1000
0100
1000
0010
0100
0001
1000
0001
0100
0010
0100
0001
,
1MM0
0001
0010
0001
1000
0010
1000
0001
0010
0100
1000
0001
0100
0010
1000
0001
,
0010
0001
1000
0100
1000
0001
0010
0100
1000
0100
0010
0001
1000
0010
1000
0001
,
0100
0001
1000
0100
0010
0001
1000
0010
1000
0100
0010
0001
1000
0010
0100
0010
,
1000
0001
0010
0001
1000
0100
1000
0100
0010
0001
1000
0010
0100
0001
1000
0001
,
0100
0010
1000
0001
0010
0001
1000
0100
0010
0001
1000
0100
1000
0001
0100
0010
,
1000
0010
1000
0001
0010
0001
1000
0100
1000
0001
0010
0100
1000
0001
0010
0100
,
0010
0001
1000
0100
1000
0001
0100
0010
1000
0010
0100
0001
1000
0100
1000
0001
,
0010
0001
0010
0100
1000
0001
0100
0001
1000
0100
0010
0001
1MM0
0001
1000
0001
,
1MM0
0001
0100
0001
1000
0010
1000
0001
0010
0100
1000
0001
0100
0010
0100
0001
,
1000
0100
1000
0001
0010
0100
1000
0001
0100
0001
0100
0010
1000
0001
1000
0100
,
0010
0001
1000
0010
0100
0010
1000
0001
0100
0001
1000
0100
1000
0001
0010
0100
,
1000
0001
0010
0001
1000
0010
0100
0001
1000
0100
1000
0001
0010
0100
1000
0001
,
0010
0001
1000
0010
0100
0001
0100
0010
1000
0001
0010
0100
1000
0010
0100
0010
,
0100
0001
1000
0100
0010
0001
1000
0100
1000
0001
0010
0001
0100
0010
1000
0001
,
0100
0010
1000
0001
1000
0100
1000
0001
0010
0100
1000
0001
0100
0001
0010
0100
,
1000
0001
0100
0001
1000
0100
1000
0010
0100
0001
1000
0001
0100
0010
0100
0001
,
1MM0
0001
0100
0001
1000
0010
1000
0001
0010
0100
1000
0001
0100
0010
1000
0001
,
0010
0001
1000
0100
1000
0001
0010
0100
1000
0100
0010
0001
1000
0010
1000
0001
,
0100
0001
1000
0100
0010
0001
1000
0010
1000
0100
0010
0001
1000
0010
0100
0010
,
1000
0001
0010
0001
1000
0100
1000
0100
0010
0001
1000
0010
0100
0001
1000
0001
,
0100
0010
1000
0001
0010
0001
1000
0100
0010
0001
1000
0100
1000
0001
0100
0010
,
4000
0004
0000
0000
0000
0000
0000
0000
0000
0000
0000
0000
0000
0000
0000
0000
0000
0000
0000
0000
0000
0000
0000
3003
,
0440
0000
0000
0000
0000
0000
0000
0000
0000
0000
0000
0000
0000
0000
0000
0000
0000
0000
0000
0000
0000
0000
0000
0330
,
1001
0000
0000
0000
0000
0000
1001
1000
,
1100
0000
0100
0000
0010
0000
0001
0000
1000
0000
0010
0000
0100
0010
1000
0000
,
0001
1000
0100
0010
0001
1000
0100
0100
,
0100
0000
1000
0000
0001
0000
0100
0000
0010
1000
0001
0000
0010
0000
0100
0000
,
1000
0000
0001
0000
0010
0000
0001
0000
1000
0000
1000
0000
0001
0000
0001
1000
,
0100
0010
0001
1000
0100
0010
0100
1000
,
0001
0000
0100
0000
0010
0000
0100
0000
0001
0010
0100
0000
1000
0000
1000
0000
,
1000
0000
0001
0000
0100
0000
0001
0000
0010
0001
1000
0000
0010
0000
1000
0000
,
0001
0010
0000
0100
1000
0000
1000
0000
0001
0000
0001
0100
0001
0000
1000
0001
,
0010
0000
0100
0000
1000
0000
0001
0000
1000
0000
0010
0000
0100
0010
1000
0000
,
0010
1000
0100
1000
0001
0010
0001
0001
,
0001
0000
1000
0000
0010
0000
0100
0000
0010
1000
0001
0000
0010
0000
0100
0000
,
1000
0000
0001
0000
0100
0000
0001
0000
1000
0000
1000
0000
0001
0000
0001
1000
,
0100
0010
0001
1000
0100
0010
0100
1000
,
0001
0000
0100
0000
0010
0000
0100
0000
0001
0010
0100
0000
1000
0000
1000
0000
,
1000
0000
0001
0000
0100
0000
0001
0000
0010
0001
1000
0000
0010
0000
1000
0000
,
0001
0010
0000
0100
1000
0000
1000
0000
0001
0000
0001
0100
0001
0000
1000
0001
,
0100
0000
0001
0000
0010
0000
0001
0000
1000
0000
0010
0000
0100
0010
1000
0000
,
0001
1000
0100
0010
0001
1000
0100
0100
,
0100
0000
1000
0000
0001
0000
0100
0000
0010
1000
0001
0000
0010
0000
0100
0000
,
1000
0000
0001
0000
0010
0000
0001
0000
1000
0000
1000
0000
0001
0000
0001
1000
,
0100
0000
0010
0000
0001
0000
1000
0000
0100
0010
0001
0000
0100
0000
0001
0000
,
1000
0000
0010
0000
0100
0000
0010
0000
1000
0100
0010
0000
0001
0000
0001
0000
,
0001
0000
1000
0000
0010
0000
1000
0000
0100
1000
0001
0000
0100
0000
0001
0000
,
1000
0100
0000
0010
0001
0000
0001
0000
1000
0000
1000
0010
1000
0000
0001
1000
,
0100
0000
0010
0000
0001
0000
1000
0000
0001
0000
0100
0000
0010
0100
0001
0000
,
0100
0001
0010
0001
1000
0100
1000
1000
,
1000
0000
0001
0000
0100
0000
0010
0000
0100
0001
1000
0000
0100
0000
0010
0000
,
0001
0000
1000
0000
0010
0000
1000
0000
0001
0000
0001
0000
1000
0000
1000
0001
,
0010
0100
1000
0001
0010
0100
0010
0001
,
1000
0000
0010
0000
0100
0000
0010
0000
1000
0100
0010
0000
0001
0000
0001
0000
,
0001
0000
1000
0000
0010
0000
1000
0000
0100
1000
0001
0000
0100
0000
0001
0000
,
1001
0000
0000
0000
0000
0000
0000
0000
0000
0000
0000
0000
1000
0001
1000
0001
0000
0000
1000
0000
0000
0000
0000
0000
,
1001
0000
0001
0100
0000
0100
0010
0000
1000
0000
0001
0010
0000
0010
0100
0000
,
1000
0000
0001
0100
0000
0100
0010
0000
0100
0000
0001
0010
0000
0010
0100
0000
,
0010
0000
0001
1000
0000
1000
0100
0000
0010
0000
0100
1000
0000
1000
0010
0000
,
0100
0000
0001
0100
0000
0100
0010
0000
1000
0000
1000
0000
0001
0000
0001
1000
,
0100
0000
0010
0001
0000
0001
1000
0000
0010
0000
0100
0001
0000
0001
1000
0000
,
0100
0000
0010
0001
0000
0001
1000
0000
0100
0000
0010
0100
0000
0100
1000
0000
,
0001
0000
1000
0010
0000
0010
0100
0000
0010
0000
1000
0001
0000
0001
0010
0000
,
0100
1000
0000
0001
0100
0000
0100
0000
0010
0000
0010
1000
0001
0000
1000
0001
,
0010
0000
0001
0100
0000
0100
0010
0000
1000
0000
0001
0010
0000
0010
0100
0000
,
1000
0000
0001
0100
0000
0100
0010
0000
0100
0000
0001
0010
0000
0010
0100
0000
,
0010
0000
0001
1000
0000
1000
0100
0000
0010
0000
0100
1000
0000
1000
0010
0000
,
0100
0000
0001
0100
0000
0100
0010
0000
1000
0000
1000
0000
0001
0000
0001
1000
,
0100
0000
0010
0001
0000
0001
1000
0000
0010
0000
0100
0001
0000
0001
1000
0000
,
0100
0000
0010
0001
0000
0001
1000
0000
0100
0000
0010
0100
0000
0100
1000
0000
,
0001
0000
1000
0010
0000
0010
0100
0000
0010
0000
1000
0001
0000
0001
0010
0000
,
0100
1000
0001
0000
0100
0000
0100
0000
0010
0000
0010
1000
0001
0000
1000
0100
,
0010
0001
1001
1000
1010
0010
0110
0100
,
0101
0001
1001
1000
1100
0100
0110
0110
,
0011
0001
1001
1000
1100
0100
0110
0010
,
0011
0000
0001
0000
1001
0000
1000
0000
1010
0000
1010
0000
1001
0000
0001
1000
,
0100
0010
0011
0001
1001
1000
1010
0010
,
0110
0100
0101
0001
1001
1000
1100
1100
,
0110
0100
1100
1000
1001
0001
0101
0100
,
0010
1000
0000
0001
0100
0000
0100
0000
0110
0000
0010
1000
0001
0000
1000
0100
,
0010
0001
0011
0010
0110
0100
1100
1000
,
1001
0001
0101
0100
0110
0010
1010
1010
,
1001
0001
1001
1000
1100
0100
0110
0010
,
0011
0000
0001
0000
1001
0000
1000
0000
1010
0000
1010
0000
1001
0000
0001
1000
,
0100
0010
0011
0001
1001
1000
1010
0010
,
0100
0001
0010
0100
1000
0001
1000
0010
0100
0001
0100
0010
1000
0100
0010
0001
,
4000
0004
0000
0000
0000
0000
0000
0000
0000
0000
0000
0000
0000
0000
0000
0000
0000
0000
0000
0000
0000
0000
0000
3003
,
0110
0000
0000
0000
0000
0000
0000
0000
0000
0000
0000
0000
0000
0000
0000
0000
0000
0000
0000
0000
0000
0000
0000
0000
0000
0000
0000
0000
0000
0000
0000
0000
0000
0000
0000
0000
0000
0000
0000
0000
0000
0000
0000
0000
0000
0000
0000
0000
0000
0000
0000
0000
0000
0000
0000
0000
0000
0000
0000
0000
0000
0000
0000
0000
0000
0000
0000
0000
0000
0000
0000
0000
0000
0000
0000
0000
0000
0000
0000
0000
0000
0000
0000
0000
0000
0000
0000
0000
0000
0000
0000
0000
0000
0000
0000
0000
0100
0000
0000
0000
0000
0000
0000
0000
0010
0000
0000
0000
0000
0000
0000
0000
0100
0000
0000
0000
0000
0000
0000
0000
0010
0000
0000
0000
0000
0000
0000
0000
0000
0000
0000
0000
0000
0000
0000
0000
0000
0000
0000
0000
0000
0000
0000
0000
4000
0000
0000
0000
0000
0000
0000
0000
0000
0000
0000
0000
0000
0000
0000
0000
0000
0000
0000
0000
0000
0000
0000
0000
0000
0000
0000
0000
0000
0000
0000
0000
0000
0000
0000
0000
0000
0000
0000
0000
0000
0000
0000
0000
0000
3000
0000
0000
,
0001
0010
0100
1000
0001
1000
0001
0100
0010
1000
0010
0100
0001
1000
0100
1000
,
0001
0010
0100
1000
0001
0010
0001
1000
0010
0100
0010
1000
0001
1000
0001
0010
,
0100
1000
0001
0100
0001
1000
0100
1000
0001
0100
0010
1000
0010
0100
0001
1000
,
0001
0100
0001
1000
0100
0010
0001
1000
0100
1000
0001
0010
0100
1000
0010
0100
,
0010
0100
0001
1000
0001
1000
0100
0010
0001
0010
0100
1000
0001
0100
0001
1000
,
0010
0100
0001
0100
0010
1000
0001
1000
0100
0010
0001
0010
0001
1000
0010
0100
,
0001
1000
0100
1000
0001
0010
0100
1000
0001
0100
0010
0100
0001
1000
0100
1000
,
0001
0010
0100
1000
0001
0100
0001
1000
0100
1000
0001
0010
0100
0010
0001
1000
,
0MM1
1000
0001
0010
0100
1000
0010
0100
0010
1000
0001
0010
0001
1000
0100
0010
,
0001
0100
0010
0100
0001
1000
0001
0010
0100
1000
0100
1000
0001
1000
0001
1000
,
0010
0100
0001
1000
0010
0100
0001
1000
0010
0100
0010
1000
0001
0010
0001
1000
,
0100
0010
0001
1000
0010
0100
0010
1000
0001
0010
0100
1000
0001
0100
0001
0010
,
0100
1000
0001
0100
0010
1000
0010
0100
0001
1000
0100
1000
0001
0010
0100
1000
,
0001
0100
0001
1000
0100
0010
0001
1000
0010
0100
0010
1000
0001
0010
0001
0010
,
0100
1000
0001
0100
0001
1000
0010
0100
0001
1000
0100
0010
0001
1000
0001
0000
,
1MM1
0000
0000
0000
0000
0000
0000
0000
0000
0000
0000
0000
0000
0000
0000
0000
0000
0000
0000
0000
0000
0000
0000
0000
1000
0000
0001
0000
1000
0000
0001
0000
0000
0000
0000
0000
0200
0000
0000
0300
0000
0000
0M00
0000
0000
0000
0000
0000
,
0001
1000
0100
0010
0001
1000
0001
0100
0010
1000
0010
0100
0001
1000
0100
1000
,
0001
0010
0100
1000
0001
0010
0001
1000
0010
0100
0010
1000
0001
1000
0001
0010
,
0100
1000
0001
0100
0001
1000
0100
1000
0001
0100
0010
1000
0010
0100
0001
1000
,
0001
0100
0001
1000
0100
0010
0001
1000
0100
1000
0001
0010
0100
1000
0010
0100
,
0010
0100
0001
1000
0001
1000
0100
0010
0001
0010
0100
1000
0001
0100
0001
1000
,
0010
0100
0001
0100
0010
1000
0001
1000
0100
0010
0001
0010
0001
1000
0010
0100
,
0001
1000
0100
1000
0001
0010
0100
1000
0001
0100
0010
0100
0001
1000
0100
1000
,
0001
0010
0100
1000
0001
0100
0001
1000
0100
1000
0001
0010
0100
0010
0001
1000
,
0MM1
1000
0001
0010
0100
1000
0010
0100
0010
1000
0001
0010
0001
1000
0100
0010
,
0001
0100
0010
0100
0001
1000
0001
0010
0100
1000
0100
1000
0001
1000
0001
1000
,
0010
0100
0001
1000
0010
0100
0001
1000
0010
0100
0010
1000
0001
0010
0001
1000
,
0100
0010
0001
1000
0010
0100
0010
1000
0001
0010
0100
1000
0001
0100
0001
0010
,
0100
1000
0001
0100
0010
1000
0010
0100
0001
1000
0100
1000
0001
0010
0100
1000
,
0001
0100
0001
0100
0001
0100
0001
0100
0001
0100
0001
0100
0001
0100
0001
0100
,
0004
4000
0000
0000
0000
0000
0000
0000
0000
0000
0000
0000
0000
0000
0000
0000
0000
0000
0000
0000
0000
0000
0000
3003
,
0110
0000
0000
0000
0000
0000
0000
0000
0000
0000
0000
0000
0010
0100
0010
0100
0000
0000
0002
0000
0000
0000
0000
0000
,
0003
0000
0000
0000
;
