#TITLE:Ripple Star;
#SUBTITLE:;
#ARTIST:Jun Ishikawa, Hirokazu Ando;
#TITLETRANSLIT:;
#SUBTITLETRANSLIT:;
#ARTISTTRANSLIT:;
#CREDIT:;
#BANNER:Ripple Star - Banner.png;
#BACKGROUND:Ripple Star - Background.png;
#LYRICSPATH:;
#CDTITLE:!kilgacdtitle.png;
#MUSIC:Kirby 64 - Ripple Star.mp3;
#OFFSET:-3.880;
#SAMPLESTART:43.847;
#SAMPLELENGTH:13.480;
#SELECTABLE:YES;
#BPMS:0.000=143.940;
#STOPS:;
#BGCHANGES:;
// cache tags:
#FIRSTBEAT:0.000;
#LASTBEAT:232.000;
#SONGFILENAME:Songs/Keys of Flames/Ripple Star (Kilgamayan)/Ripple Star.sm;
#HASMUSIC:1;
#HASBANNER:1;
#MUSICLENGTH:107.290;
// end cache tags

//---------------dance-single - Heavy----------------
#NOTES:
     dance-single:
     Heavy:
     Hard:
     12:
     1.000,1.000,1.000,0.270,1.000,857.000,122.000,29.000,0.000,0.000:
1000
0000
0000
0101
0000
0000
0010
0000
1000
0001
0000
1000
0001
0000
0000
1010
0000
0000
0100
0000
0001
1100
0000
0001
,
1010
0000
0000
1001
0000
0000
0001
0000
0010
0101
0000
0010
1001
0000
0000
1100
0000
0000
0110
0000
0001
1100
0000
0100
,
0012
0000
0000
1000
0000
0000
0100
0000
1000
0000
0000
1000
0000
0000
0000
1000
0000
0000
0010
0000
1000
0100
0000
0100
,
1000
0000
0000
0000
0000
0000
1000
0000
0000
0000
0000
0000
0010
0000
0000
0000
0100
0000
0000
0000
0000
0000
0100
0000
0000
0000
0000
0000
0000
0000
0100
0000
0000
0003
0000
0000
1020
0000
0000
0000
0100
0000
1000
0000
0000
0030
1000
0000
,
0102
0000
0000
0010
0000
0000
1000
0000
0010
0000
0000
0010
0000
0000
0000
0100
0000
0000
0100
0000
1000
0010
0000
0010
,
1000
0000
0000
0000
0000
0000
1000
0000
0000
0000
0000
0000
0010
0000
0000
0000
0100
0000
0000
0000
0000
0000
0100
0000
0000
0000
0000
0000
0000
0000
0010
0000
0000
0003
0000
0000
1010
0000
0000
0000
0100
0000
0010
0000
0000
0000
0100
0000
,
1001
0000
1001
0000
0000
0000
0100
0000
0000
0110
0000
1001
0000
0000
0000
0001
0000
0000
0010
0000
0100
0001
0000
0001
,
1100
0000
0000
1001
0000
0000
0100
0000
0010
0000
0000
0010
0000
0000
0000
1010
0000
0000
0100
0000
1000
0010
0000
0010
,
2000
0000
0000
0001
0000
0000
0010
0000
0010
0000
0000
0010
0000
0000
0000
0001
0000
0000
0010
0000
0100
0001
0000
0001
,
0100
0000
0000
0000
0000
0000
0100
0000
0000
0000
0000
0000
0001
0000
0000
0000
0010
0000
0000
0000
0000
0000
0010
0000
0000
0000
0000
0000
0000
0000
0100
0000
0000
3000
0000
0000
0201
0000
0000
0000
0010
0000
0001
0000
0000
0300
0001
0000
,
2010
0000
0000
0010
0000
0000
0001
0000
0100
0000
0000
0010
0000
0000
0000
0001
0000
0000
0100
0000
0001
0010
0000
0010
,
0001
0000
0000
0000
0000
0000
0100
0000
0000
0000
0000
0000
0010
0000
0000
0000
0010
0000
0000
0000
0000
0000
0100
0000
0000
0000
0000
0000
0000
0000
0001
0000
0000
3000
0000
0000
0100
0000
0000
0000
0001
0000
1000
0000
0000
0000
1000
0000
,
0011
0000
0011
0000
0000
0000
0100
0000
0000
1100
0000
0011
0000
0000
0000
0010
0000
0000
0100
0000
1000
0001
0000
1000
,
0001
0000
0000
0010
0000
0000
1100
0000
0010
0000
0000
0010
0000
0000
0000
0110
0000
0000
0100
0000
0010
0001
0010
0100
,
2000
0000
0000
0000
0000
0000
0000
0000
0000
0000
0000
0000
3200
0000
0000
0010
0000
0000
0301
0000
0010
0001
0010
0100
,
1001
0100
0010
0001
0010
0100
1000
0100
0010
0001
0010
0100
1000
0100
0010
0001
0010
0100
1000
0100
0010
0001
0010
1100
,
0000
0000
0000
1100
0010
0001
0010
0100
1000
0100
0010
0001
0010
0100
1000
0100
0010
0001
0010
0100
1000
0101
0000
0101
,
0000
0001
0010
0100
0010
0100
1000
0100
0001
0100
1000
0010
0100
0001
1000
0100
0010
0001
0010
0001
1100
0000
0000
0000
,
1001
0000
0000
0001
0010
0100
1000
0000
0000
1001
0000
0000
0001
0010
0100
1000
0000
0000
1001
0000
0000
0001
0010
0100
,
1000
0000
0000
0011
0000
1000
0100
1000
0000
0011
0000
0000
0010
0000
0000
0001
0010
0100
1000
0000
0000
1100
0000
0000
,
0010
0000
0000
0001
0010
0100
1000
0000
0000
0001
1000
0010
0100
0001
1000
0100
0010
0001
0010
0100
1000
0101
0000
0101
,
0000
0000
1000
0001
0100
0010
0100
0001
0010
0100
1000
0100
0010
0000
0000
0001
0010
0100
1000
0000
0000
0110
0000
0110
,
1001
0000
0000
0010
0100
1000
0001
1000
0100
0010
0001
0010
1001
0010
0100
1000
0001
0010
0100
1000
0100
0011
0100
1000
,
0002
0000
0000
0000
0000
0000
0000
0000
0000
0000
0000
0000
0000
0000
0000
0000
0000
0000
0000
0000
0000
0003
0000
0000
0020
0000
0000
0000
0000
0000
1000
0000
0000
0000
0000
0000
1000
0000
0000
0030
0100
0000
1000
0000
0100
0000
0010
0000
,
0001
0000
1000
0010
0000
0100
0010
0000
0001
0100
0000
0001
1000
0000
1000
0001
0000
0100
1010
0000
0010
0001
0000
0001
,
1000
0000
0010
0000
0000
1000
0010
0000
0001
0010
0000
1000
0001
0000
0001
0010
0000
1000
0011
0000
0100
1000
0000
0010
,
0100
0000
0010
1000
0000
0001
0010
0000
1000
0100
0000
1000
0010
0000
0100
0001
0000
0001
1100
0000
0010
0001
0000
0001
,
0010
0000
0100
1000
0000
0010
0001
0000
0010
0100
0000
0001
1000
0000
0001
0100
0000
0010
1001
0000
1000
0100
0000
0100
,
0010
0000
0001
0000
0000
0001
0000
0000
0010
0002
0000
0000
1000
0003
0010
0001
0000
0000
1100
0000
0001
0100
0000
0100
,
0010
0000
0100
1000
0000
0001
0000
0000
0010
0100
0000
1000
0001
0000
0100
0001
0000
0010
0101
0000
1000
0100
0000
0010
,
0001
0000
1000
0100
0000
1000
0001
0000
0010
0100
0000
0001
0100
0000
1000
0100
0000
0010
1001
0010
0100
0010
0100
1000
,
0001
0000
1000
0001
0000
0001
1000
0000
0010
0100
0000
0010
0001
0000
0010
0100
0000
1000
0101
0010
0100
1000
0001
0010
,
0100
1000
0100
0010
0001
0010
0100
1000
0100
0010
0001
0010
0100
1000
0100
0010
0001
0010
0100
1000
0100
0010
0001
0010
,
0100
1000
0001
0010
0100
1000
0001
0010
0100
1000
0001
0010
0100
1000
0001
0010
0100
1000
0001
1000
0010
1000
0100
0010
,
1001
0000
0011
1001
1100
0101
0110
1010
0011
1001
1100
0110
,
1100
0101
1100
0011
0110
1001
0011
0101
0110
1010
1100
0110
,
1001
0000
0100
0000
0000
0100
0100
0000
0000
0100
0000
0100
0001
0000
0100
0101
0000
0000
0100
0100
0100
0101
0000
0100
,
0100
0000
0000
0001
0010
0100
0001
0010
0100
0001
0010
0100
0001
0010
0100
0001
0010
0100
1000
0001
0010
0100
1000
0100
,
1001
0000
0000
0001
0010
0100
1000
0000
0000
1001
0000
0000
1000
0100
0010
0001
0000
0000
0010
0010
0010
1001
0000
0000
,
0001
0010
0100
1000
0000
0000
1001
0000
0000
1000
0100
0010
0001
0000
0000
1001
0000
0000
1001
0000
1001
0000
1001
0000
,
2001
0000
0000
3010
0000
0010
0101
0000
0000
0001
0010
0100
1001
0000
0000
0100
0010
0001
0100
0010
0001
1100
0000
0000
,
0010
0000
0000
0102
0000
0000
1003
0100
0010
0001
0000
0001
1010
0000
0000
0100
0000
1010
0001
0000
0001
1010
0000
0000
,
2001
0000
0000
3001
0010
0100
1000
0000
0000
1002
0000
0000
1003
0100
0010
0001
0000
0000
0010
0010
0010
2100
0000
0010
,
3001
0000
0001
2100
0000
0000
3001
0010
0100
0001
0010
0100
0001
0001
0001
1010
0010
0010
1100
0000
1001
0010
0100
1000
,
0102
0000
0003
0110
0000
0000
0110
0000
0000
1000
1000
1000
0110
0000
0000
0001
0010
0100
0001
0010
0100
2010
0000
0000
,
3100
0000
0000
0102
0000
1000
0103
1001
0000
2010
0000
3000
0101
0000
0000
0010
0000
0101
1020
0000
0130
1001
0000
0000
,
0120
0000
0000
0000
0000
0000
1030
0000
0100
0000
0010
0000
0001
0000
0000
0000
0000
0000
1001
0000
0000
0000
0000
0000
0001
0000
0000
0001
0000
0000
0010
0000
0000
0010
0000
0000
0100
0000
0000
0100
0000
0000
1000
0000
0000
1000
0000
0000
,
0120
0000
0000
0000
0000
0000
0000
0000
0000
0000
0000
0000
0000
0000
0000
0000
0000
0000
0000
0000
0000
0030
0000
0000
1002
0000
0000
0000
0000
0000
0010
0000
0000
0000
0000
0000
0103
0000
0000
0000
1000
0000
0100
0000
0010
0000
0001
0000
,
1000
0000
0001
1000
0000
0010
1000
0000
0100
0010
0000
0100
0001
0000
0010
0100
0000
1000
0001
0000
0001
0100
0000
0010
,
0100
0000
0010
0001
0000
0010
1000
0000
0100
1000
0000
1000
0010
0000
0100
0001
0000
0100
0010
0000
0010
0001
0000
0001
,
0100
0000
0010
0100
0000
1000
0100
0000
1000
0001
0000
0010
0100
0000
0010
1000
0000
0100
0010
0000
0001
0010
0000
1000
,
0010
0000
0001
0100
0000
0010
1000
0000
1000
0001
0000
0001
1000
0000
0100
0010
0000
0100
1000
0000
0010
0100
0000
1000
,
0001
0010
0100
1000
0100
0010
0001
1000
0001
1000
0001
0100
0001
0100
0010
1000
0010
1000
0100
1000
0010
0100
0010
1000
,
0100
0010
0001
1000
0100
0010
0100
1000
0001
0100
0010
0100
0001
0100
1000
0100
0001
0010
0100
1000
0001
0010
0100
1000
,
0100
0010
0001
1000
0010
0100
0001
1000
0100
0010
0001
0010
0100
1000
0001
1000
0001
0010
0100
0010
0100
1000
0001
0100
,
0001
0010
0100
1000
0100
0010
0001
0010
0100
1000
0100
0010
0001
0010
0100
1000
0001
0010
0100
1000
0001
0010
0100
1000
,
0002
0000
0000
0000
0000
0000
0000
0000
0000
0000
0000
0000
0010
0000
0000
0000
0100
0000
0000
0000
1000
0000
0000
0000
0100
0000
0000
0000
0000
0000
0000
0000
0000
0000
0000
0000
0010
0000
0000
0000
0100
0000
0000
0000
1000
0003
0000
0000
,
0200
0000
0000
0000
0000
0000
0000
0000
0000
0000
0000
0000
0302
0000
0000
0000
0000
0000
0000
0000
0000
0003
0000
0000
2000
0000
0000
0000
0000
0000
0100
0000
0000
3000
0000
0000
0010
0000
0000
0000
0000
0000
0001
0000
0010
0000
0100
0000
,
1001
0000
0000
0000
;
