#TITLE:Christmas in Tokyo;
#SUBTITLE:;
#ARTIST:SUPER EUROBEAT PRESENTS;
#TITLETRANSLIT:;
#SUBTITLETRANSLIT:;
#ARTISTTRANSLIT:;
#CREDIT:;
#BANNER:Christmas in Tokyo.png;
#BACKGROUND:Christmas in Tokyo-BG.png;
#LYRICSPATH:;
#CDTITLE:nifta-cdtitle.png;
#MUSIC:Christmas in Tokyo.mp3;
#OFFSET:-1.057;
#SAMPLESTART:64.840;
#SAMPLELENGTH:12.000;
#SELECTABLE:YES;
#BPMS:0.000=158.000;
#STOPS:;
#BGCHANGES:;
// cache tags:
#FIRSTBEAT:8.000;
#LASTBEAT:272.000;
#SONGFILENAME:Songs/DDRExtreme.co.uk presents ChristmasMix/Christmas in Tokyo/Christmas in Tokyo.sm;
#HASMUSIC:1;
#HASBANNER:1;
#MUSICLENGTH:108.538;
// end cache tags

//---------------dance-single - ----------------
#NOTES:
     dance-single:
     :
     Hard:
     8:
     0.542,0.531,0.470,0.064,0.000,354.000,51.000,7.000,0.000,0.000:  // measure 1
0000
0000
0000
0000
,  // measure 2
0000
0000
0000
0000
,  // measure 3
1000
0100
0010
0001
0000
0100
0000
0001
,  // measure 4
0010
0100
1000
0001
0010
0100
1000
0100
,  // measure 5
1001
0000
1000
0100
0000
1000
0100
0010
,  // measure 6
1001
0000
0000
0001
0010
0001
0100
0010
,  // measure 7
0100
0000
0000
0001
0000
0100
1000
0000
,  // measure 8
0110
0000
0000
0100
0000
0001
0010
1000
,  // measure 9
0110
0000
0000
1001
0000
0000
0011
0000
,  // measure 10
1100
0000
0000
1001
0000
0000
0010
0000
,  // measure 11
0001
0100
0001
1000
,  // measure 12
0010
0000
1000
0000
0100
0000
0001
0100
,  // measure 13
0110
0000
0000
1001
0000
0000
1100
0000
,  // measure 14
0011
0000
0000
0110
0000
0000
1000
0000
,  // measure 15
0100
0010
1000
0010
0001
0100
0010
1000
,  // measure 16
0000
0001
0000
0010
0000
1000
0000
0100
,  // measure 17
2002
0000
0000
3003
,  // measure 18
0110
1100
0011
1001
,  // measure 19
0010
0001
1000
0001
0000
0100
0010
0000
,  // measure 20
1000
0010
0100
0001
0000
1000
0010
0000
,  // measure 21
1000
0100
0010
0001
0000
0100
0001
0000
,  // measure 22
1000
0010
1000
0100
0000
0001
0100
0000
,  // measure 23
0010
0001
1000
0010
0000
0100
1000
0000
,  // measure 24
0100
0001
0010
0100
0000
0010
0001
0000
,  // measure 25
1000
0100
0010
1000
0000
0010
0001
0000
,  // measure 26
1100
0000
0000
0110
0000
0000
0011
0000
,  // measure 27
2000
0000
0010
0000
0100
0000
3010
0100
,  // measure 28
0001
0010
0001
0100
0000
1000
0000
0010
,  // measure 29
0000
0001
0000
1000
0100
0000
0010
0000
,  // measure 30
0000
0001
0100
0001
1000
0010
0100
0001
,  // measure 31
1002
0000
0100
0000
0000
1000
0000
0013
,  // measure 32
0000
0100
0000
1000
0000
0010
0000
0100
,  // measure 33
0000
1000
0100
0010
0001
1000
0100
0010
,  // measure 34
0000
0000
0001
0000
0010
1000
0001
0100
,  // measure 35
0010
0100
0001
1000
0010
0100
0000
0001
,  // measure 36
0000
0010
0000
1000
0100
0000
0100
0000
,  // measure 37
0001
1000
0010
1000
0100
0010
0000
1000
,  // measure 38
1001
0000
0000
1001
0000
0100
0010
0001
,  // measure 39
1001
0000
0100
0010
0000
1000
0100
0010
,  // measure 40
1000
0010
0100
1000
0001
0000
1000
0000
,  // measure 41
0010
0001
1000
0010
0000
0100
0000
1000
,  // measure 42
1010
0000
0000
0110
0000
0000
0101
0000
,  // measure 43
0010
0001
1000
0010
0000
0100
1000
0010
,  // measure 44
0100
0001
0010
0100
0000
0000
0010
0000
,  // measure 45
1000
0100
1000
0100
0010
0001
0100
0010
,  // measure 46
0100
0001
1000
0100
0000
0010
0010
0000
,  // measure 47
1001
0000
0000
1100
0000
0000
0110
0000
,  // measure 48
1001
0000
0000
0011
0000
0000
1001
0000
,  // measure 49
0010
1000
0100
0001
0000
0100
1000
0010
,  // measure 50
0100
0001
1000
0020
0000
0100
0130
0000
,  // measure 51
0001
0100
0001
1000
0000
0010
0001
0010
,  // measure 52
1000
0001
0010
0100
0000
0000
1000
0000
,  // measure 53
0010
0001
1000
0010
0100
0001
0100
0010
,  // measure 54
1000
0001
0010
0100
0000
0010
0010
0000
,  // measure 55
1001
0000
0000
0101
0000
0000
1010
0000
,  // measure 56
1100
0000
0000
0011
0000
0000
1001
0000
,  // measure 57
0100
0010
0001
0100
0000
0010
1000
0001
,  // measure 58
0000
1001
0000
0110
0000
1010
0000
0101
,  // measure 59
2200
0000
0000
3300
,  // measure 60
0000
1001
0110
1001
,  // measure 61
0001
1000
0001
0100
0010
0100
0001
0010
,  // measure 62
1000
0010
0100
1000
0010
0100
0001
1000
,  // measure 63
0100
1000
0001
0100
0010
1000
0100
0001
,  // measure 64
0100
1000
0010
1000
0100
1000
0001
0010
,  // measure 65
1000
0010
0001
0100
0001
1000
0100
1000
,  // measure 66
0010
0100
0001
0010
0100
1000
0001
0100
,  // measure 67
0010
1000
0010
0001
0010
0100
1000
0000
,  // measure 68
1001
0000
0000
0101
0000
0000
1100
0000
;

//---------------dance-single - ----------------
#NOTES:
     dance-single:
     :
     Medium:
     5:
     0.336,0.406,0.203,0.203,0.000,211.000,22.000,22.000,0.000,0.000:  // measure 1
0000
0000
0000
0000
,  // measure 2
0000
0000
0000
0000
,  // measure 3
0000
0000
0000
0000
,  // measure 4
0000
0000
0000
0000
,  // measure 5
2000
0000
0000
3100
0000
0000
0000
0000
,  // measure 6
0002
0000
0000
0103
0000
0000
0000
0000
,  // measure 7
1001
0000
0000
1000
0000
1000
0100
0000
,  // measure 8
1000
0000
0000
0010
0000
0100
0010
0000
,  // measure 9
1000
0010
1000
0010
,  // measure 10
1001
0100
1001
0100
,  // measure 11
0010
0001
0010
0001
,  // measure 12
0010
0001
0100
0010
,  // measure 13
0002
0000
0000
0103
0000
0000
0010
0000
,  // measure 14
2000
0000
0000
3100
0000
0000
0010
0000
,  // measure 15
0001
0100
0000
0010
0000
0001
0000
0010
,  // measure 16
0000
1000
0000
0100
0000
0010
0000
0000
,  // measure 17
2002
0000
3003
0000
,  // measure 18
0000
0011
1001
1100
,  // measure 19
0001
0000
0000
0100
0000
0000
0001
0000
,  // measure 20
0010
0000
0000
1000
0000
0000
0100
0000
,  // measure 21
0010
0000
0000
0001
0000
0000
0100
0000
,  // measure 22
1000
0000
0000
0010
0000
0000
0100
0000
,  // measure 23
0001
0000
0000
0010
0000
0000
1000
0000
,  // measure 24
0100
0000
0000
0010
0000
0000
1000
0000
,  // measure 25
0100
0000
0000
0010
0000
0000
0001
0000
,  // measure 26
1010
0000
0000
0101
0000
0000
0110
0000
,  // measure 27
2002
0000
0000
0000
3003
0000
1000
0100
,  // measure 28
0000
0010
0000
0001
0000
0100
0000
0010
,  // measure 29
0000
1000
0000
0000
0100
0000
0000
0000
,  // measure 30
0000
0010
0001
0100
0000
0000
0000
0000
,  // measure 31
2002
0000
3003
0000
0000
0010
0000
0100
,  // measure 32
0000
1000
0000
0001
0000
0100
0000
0001
,  // measure 33
0000
1000
0010
0100
,  // measure 34
0001
0000
0000
0000
0010
1000
0010
0000
,  // measure 35
1000
0001
0000
0100
0000
0010
0000
1000
,  // measure 36
0000
0100
0000
0001
0000
0000
0000
0000
,  // measure 37
0100
1000
0000
0010
0000
0100
0000
0001
,  // measure 38
2000
0000
0000
3200
0000
0310
0001
0010
,  // measure 39
0001
0000
1000
0100
0000
1000
0000
0010
,  // measure 40
0000
0001
0000
0100
0000
0000
0000
0000
,  // measure 41
1000
0100
0000
0010
0000
0001
0000
0000
,  // measure 42
1100
0000
0000
0011
0000
0000
1001
0000
,  // measure 43
0002
0000
0000
0013
0000
0000
2000
0000
,  // measure 44
0010
0000
0000
3010
0000
0000
0000
0000
,  // measure 45
0001
0100
0000
0010
0000
1000
0000
0001
,  // measure 46
0000
0010
0000
0100
0000
1000
0010
0000
,  // measure 47
2000
0000
0000
3100
0000
0000
0002
0000
,  // measure 48
0100
0000
0000
0103
0000
0000
1000
0000
,  // measure 49
0010
0100
0000
1000
0000
0100
0000
0001
,  // measure 50
0000
0010
0000
1000
0000
0010
0000
0000
,  // measure 51
2000
0000
0000
3100
0000
0000
0002
0000
,  // measure 52
0010
0000
0000
1003
0000
0000
0000
0000
,  // measure 53
0100
0001
0000
1000
0000
0010
0000
0001
,  // measure 54
0000
0010
0000
1000
0000
0001
0010
0000
,  // measure 55
2000
0000
0000
3010
0000
0000
0200
0000
,  // measure 56
0010
0000
0000
0301
0000
0000
1000
0000
,  // measure 57
0001
0100
0000
0010
0000
0001
0000
0010
,  // measure 58
0000
1000
0000
0100
0000
0010
0000
0000
,  // measure 59
2002
0000
3003
0000
,  // measure 60
0000
1010
1001
0101
,  // measure 61
0010
0000
0000
0100
0000
0000
0001
0000
,  // measure 62
1000
0000
0000
0010
0000
0000
0001
0000
,  // measure 63
0100
0000
0000
1000
0000
0000
0100
0000
,  // measure 64
0010
0000
0000
0001
0000
0000
0100
0000
,  // measure 65
1000
0000
0000
0100
0000
0000
0001
0000
,  // measure 66
0010
0000
0000
1000
0000
0000
0010
0000
,  // measure 67
0100
0000
0000
0001
0000
0000
0010
0000
,  // measure 68
1100
0000
0000
0110
0000
0000
0011
0000
;

//---------------dance-single - ----------------
#NOTES:
     dance-single:
     :
     Easy:
     3:
     0.263,0.345,0.138,0.129,0.000,171.000,15.000,14.000,0.000,0.000:  // measure 1
0000
0000
0000
0000
,  // measure 2
0000
0000
0000
0000
,  // measure 3
0000
0000
0000
0000
,  // measure 4
0000
0000
0000
0000
,  // measure 5
2000
0000
3000
0000
,  // measure 6
0002
0000
0003
0000
,  // measure 7
0010
0000
0001
0100
,  // measure 8
0001
0000
1000
0000
,  // measure 9
0100
0100
0000
0010
,  // measure 10
0010
0000
0001
0000
,  // measure 11
0100
0000
0001
0000
,  // measure 12
0100
0000
1000
0000
,  // measure 13
1001
0000
0010
0000
,  // measure 14
1001
0000
0100
0000
,  // measure 15
0001
0000
1000
0100
,  // measure 16
1000
0100
0010
0001
,  // measure 17
0220
0000
0330
0000
,  // measure 18
0000
1001
1001
1001
,  // measure 19
0010
0000
0010
0001
,  // measure 20
0100
0000
0010
1000
,  // measure 21
0100
0000
1000
0010
,  // measure 22
0100
0000
0001
0010
,  // measure 23
0100
0000
0010
0001
,  // measure 24
1000
0000
0010
1000
,  // measure 25
0001
0000
0100
0001
,  // measure 26
2002
0000
3003
0000
,  // measure 27
0020
0030
0000
0001
,  // measure 28
0100
0001
0100
0010
,  // measure 29
1000
0100
0000
1000
,  // measure 30
0000
0001
0000
0000
,  // measure 31
0110
0000
0000
0100
,  // measure 32
1000
0100
1000
0010
,  // measure 33
0200
0000
0300
0000
,  // measure 34
0000
0000
0001
0100
,  // measure 35
0010
0100
0010
1000
,  // measure 36
0100
1000
0100
0000
,  // measure 37
0010
0001
0100
0001
,  // measure 38
2000
0000
3002
0003
,  // measure 39
0100
0010
0100
0000
,  // measure 40
0001
1000
0001
0000
,  // measure 41
1000
0100
0010
0000
,  // measure 42
2002
0000
3003
0000
,  // measure 43
0110
0001
0000
1000
,  // measure 44
0100
1000
0000
0000
,  // measure 45
0010
0100
0010
0000
,  // measure 46
1000
0010
1000
0000
,  // measure 47
0001
0010
0001
0000
,  // measure 48
0100
0010
0100
0000
,  // measure 49
0001
0100
0010
0000
,  // measure 50
1000
0100
0010
0001
,  // measure 51
1001
1000
0000
0010
,  // measure 52
1000
0100
0000
0000
,  // measure 53
0010
0001
0100
0000
,  // measure 54
0001
1000
0100
0000
,  // measure 55
1000
0010
0100
0000
,  // measure 56
0001
0010
0100
0000
,  // measure 57
1000
0001
0010
0000
,  // measure 58
0001
1000
0010
0000
,  // measure 59
2002
0000
0000
3003
,  // measure 60
0000
0110
0110
0110
,  // measure 61
1000
0000
0100
1000
,  // measure 62
0100
0000
1000
0010
,  // measure 63
1000
0000
0001
0100
,  // measure 64
0001
0000
0010
0001
,  // measure 65
0010
0000
0010
1000
,  // measure 66
0010
0000
0001
0100
,  // measure 67
0001
0000
1000
0100
,  // measure 68
1000
0000
0001
0100
,  // measure 69
0001
0000
0000
0000
;
