#TITLE:Starlight;
#SUBTITLE:;
#ARTIST:YMCK;
#TITLETRANSLIT:;
#SUBTITLETRANSLIT:;
#ARTISTTRANSLIT:;
#CREDIT:;
#BANNER:../bn.png;
#BACKGROUND:../veyron.png;
#LYRICSPATH:;
#CDTITLE:;
#MUSIC:04._20Starlight.ogg;
#OFFSET:-1.000;
#SAMPLESTART:63.300;
#SAMPLELENGTH:25.300;
#SELECTABLE:YES;
#DISPLAYBPM:153.000;
#BPMS:0.000=153.020,81.750=153.040,126.000=152.840,153.000=153.040,295.000=150.800,300.000=152.880,304.000=153.260,336.000=153.100,372.000=152.000,388.000=153.000,492.000=153.840,501.000=152.480,516.000=152.920;
#STOPS:;
#BGCHANGES:;
// cache tags:
#FIRSTBEAT:32.000;
#LASTBEAT:540.000;
#SONGFILENAME:Songs/Cirque du Veyron/Zaia - Starlight/04._20Starlight.sm;
#HASMUSIC:1;
#HASBANNER:1;
#MUSICLENGTH:221.544;
// end cache tags

//---------------dance-single - Zaia----------------
#NOTES:
     dance-single:
     Zaia:
     Challenge:
     14:
     1.000,1.000,0.005,0.158,1.000,1650.000,1.000,35.000,0.000,0.000:
0000
0000
0000
0000
,
0000
0000
0000
0000
,
0000
0000
0000
0000
,
0000
0000
0000
0000
,
0000
0000
0000
0000
,
0000
0000
0000
0000
,
0000
0000
0000
0000
,
0000
0000
0000
0000
,
0001
0000
0000
0000
0000
0000
0001
0000
0000
1000
0000
0000
0000
0000
0000
0001
0100
0001
0100
0010
1000
0001
0000
0000
,
1000
0000
0000
0001
0010
0100
1000
0001
1000
0010
0000
0000
0100
0000
0000
0001
0000
0000
0100
0000
0000
0010
0000
0000
,
1000
0000
0000
0000
0000
0000
0000
0000
0000
0000
0000
0000
1000
0000
0000
0000
0000
0000
0100
0000
0000
0000
0000
0000
0010
0000
0000
0000
0000
0000
0100
0000
1000
0000
0001
0000
1000
0000
0000
0010
0000
0000
1000
0000
0000
0000
0000
0000
,
0001
0000
0100
0000
0001
0100
0001
0100
0010
0000
0000
1000
0000
0000
0001
1000
,
0100
0000
0000
0010
0000
0000
0100
0000
0000
0010
0000
0000
0100
0000
0000
1000
0000
0000
0001
0000
0000
0000
0000
0000
0100
0000
0000
0000
0000
0000
0010
0000
1000
0000
0010
0000
0100
0000
0000
0001
0000
0000
1000
0000
0000
0000
0000
0000
,
0100
0000
0000
1000
0000
0000
0001
0100
0001
1000
0000
0000
0100
0000
0000
1000
0000
0000
0010
0000
0000
0100
0000
0000
,
0001
0000
0000
0000
0000
0000
0000
0000
0000
0000
0000
0000
0001
0000
0000
0000
0000
0000
1000
0000
0000
0000
0000
0000
0100
0000
0000
0000
0000
0000
1000
0000
0001
0000
0010
0000
0100
0000
0000
1000
0000
0000
0001
0000
0000
0000
0000
0000
,
0100
0000
0010
0000
1000
0100
0010
0100
1000
0000
0000
0000
0001
0000
1000
0010
,
0100
0001
0100
0010
1000
0001
0010
0000
0000
0000
0000
0000
0000
0000
0000
0200
0000
0000
0000
0000
0000
2300
0000
0000
,
0000
3002
0000
0203
0000
0320
0000
0230
,
0000
0302
0000
0023
0000
0230
0000
2300
,
0000
3002
0000
0203
0000
0302
0000
2003
,
0000
3200
0000
0300
0000
0000
0000
0000
,
0000
0020
0000
0230
0000
2300
0000
3002
,
0000
0203
0302
2003
3200
0320
0000
0032
,
0000
2003
0000
3020
0000
0230
0000
0302
,
0000
2003
0000
3000
0000
0000
0000
0000
,
0000
0000
0001
0100
0001
0100
0010
1000
0010
1000
0001
1000
0001
1000
0100
1000
,
0100
1000
0001
1000
0010
0100
0001
0010
0100
1000
0001
1000
0001
0100
0001
0100
,
0001
1000
0010
1000
0010
0100
0001
0100
0001
1000
0100
1000
0100
0010
0100
0010
,
0001
0000
0000
0000
0000
0000
0000
0000
0000
0000
1000
0001
0010
0001
0100
0001
,
0100
0001
0100
0010
0100
0010
1000
0010
1000
0010
1000
0001
1000
0001
0010
0001
,
0010
0001
0010
0100
0010
0100
1000
0100
1000
0100
0010
0001
0010
0001
1000
0100
,
1000
0000
0000
0100
0000
0000
1000
0000
0000
0001
0000
0000
1000
0000
0010
0000
0100
0000
0001
0000
0100
0000
0010
0000
1000
0000
0000
0000
0000
0000
0001
0000
1000
0000
0010
0000
0100
0000
0000
0001
0000
0000
1000
0000
0000
0001
0000
0000
,
0010
0000
0000
0000
0000
0000
0000
0000
0000
0000
0000
0000
0010
0000
0000
0000
0000
0000
0100
0000
0000
0000
0000
0000
0000
0000
0000
0000
0000
0000
1000
0000
0100
0000
1000
0000
0001
0000
0000
0010
0000
0000
0001
0000
0000
0000
0000
0000
,
0000
0000
0000
1000
0010
0100
0001
0010
0001
1000
0000
0000
0001
0000
0000
0100
0000
0000
0010
0000
0000
1000
0000
0000
,
0001
0000
0000
0000
0000
0000
0010
0000
0000
0100
0000
0000
0000
0000
0000
1000
0001
0100
0002
0000
0000
0013
0000
0000
,
0100
0000
1000
0000
0100
0000
1000
0000
0000
0001
0000
0000
0100
0000
0000
0001
0000
0000
1000
0000
0000
0001
0000
0000
1000
0000
0100
0000
0010
0000
0001
0000
1000
0000
0001
0000
1000
0000
0100
0000
0010
0000
0001
0000
0010
0000
0100
0000
,
1000
0000
0000
0000
0000
0000
0000
0000
0000
0000
0000
0000
0001
0000
0000
0000
0000
0000
0100
0000
0000
0000
0000
0000
0000
0000
0000
0000
0000
0000
0010
0000
0100
0000
0010
0000
1000
0000
0000
0001
0000
0000
1000
0000
0000
0000
0000
0000
,
0100
0000
0000
0000
0000
0000
0010
0000
0000
0100
0000
0000
1000
0000
0000
0010
0000
0000
1000
0000
0001
0000
0100
0000
0010
0000
0000
0000
0000
0000
1000
0000
0000
0000
0000
0000
0100
0000
0000
0000
0000
0000
0010
0000
0000
0000
0000
0000
,
0001
0000
0001
0100
0000
0020
0000
2030
,
0000
0000
3001
0100
,
0001
0100
0010
1000
0001
0010
0001
1000
0001
0100
0010
1000
0001
0010
0100
1000
,
0010
1000
0001
1000
0100
0010
0100
1000
0001
0100
0001
1000
0001
0010
0100
1000
,
0100
0010
0001
1000
0001
0010
0100
0010
0001
1000
0100
1000
0001
0010
0001
1000
,
0010
0100
0001
1000
0001
0100
0010
1000
0001
0010
0100
0010
0001
0100
0010
1000
,
0001
0010
0001
0100
0001
1000
0010
1000
0001
0010
0100
0010
0001
1000
0010
0100
,
0001
1000
0001
0100
0010
1000
0100
0010
0100
1000
0001
0010
0001
1000
0001
0100
,
0010
0100
0001
1000
0010
1000
0001
1000
0100
0010
0001
1000
0001
0100
0010
0100
,
0001
0010
0100
1000
0010
0100
0001
0100
0010
1000
0001
1000
0100
0010
0100
1000
,
0010
0100
0010
1000
0001
0010
0001
1000
0001
0100
0010
1000
0001
0010
0100
1000
,
0010
1000
0001
1000
0100
0010
0100
1000
0001
0100
0001
1000
0001
0010
0100
1000
,
0100
0010
0001
1000
0001
0010
0100
0010
0001
1000
0100
1000
0001
0010
0001
1000
,
0010
0100
0001
1000
0001
0100
0010
1000
0001
0010
0100
0010
0001
0100
0010
1000
,
0001
0100
0001
0010
0001
1000
0100
1000
0001
0100
0010
0100
0001
1000
0100
0010
,
0001
1000
0001
0010
0100
1000
0010
0100
0010
1000
0001
0100
0001
1000
0001
0010
,
0100
0010
0001
1000
0100
1000
0001
1000
0010
0100
0001
1000
0001
0010
0100
0010
,
0001
0100
0010
1000
0100
1000
0001
0010
0100
1000
0001
1000
0010
0100
0010
1000
,
0100
0010
0001
0010
0100
1000
0001
1000
0100
1000
0001
1000
0010
0100
0001
0100
,
0010
1000
0001
0010
0001
1000
0100
0010
0100
1000
0001
0100
0001
1000
0010
0100
,
0001
0100
0010
1000
0100
1000
0010
0100
0001
1000
0100
1000
0001
1000
0100
1000
,
0001
1000
0010
0100
0001
0010
0100
1000
0010
0100
0001
1000
0001
0100
0010
0000
,
1000
0100
1000
0001
1000
0100
0010
0100
1000
0001
0100
0010
1000
0010
0100
0001
,
1000
0010
0100
0001
0010
0001
0100
0010
1000
0001
1000
0100
1000
0010
1000
0001
,
0100
0010
0100
0001
0010
0100
1000
0001
1000
0100
0010
0100
1000
0001
0100
0001
,
1000
0000
0000
0010
0000
0000
1000
0000
0000
0001
0000
0000
0100
0000
0000
0010
0000
0000
1000
0000
0000
0010
0000
0000
0100
0000
0001
0000
1000
0000
0010
0000
0100
0000
0001
0000
1000
0000
0001
0000
1000
0000
0010
0000
0100
0000
0001
0000
,
1000
0100
0010
0100
1000
0001
0100
0001
1000
0010
0100
0001
1000
0100
0010
0100
1000
0001
0010
0100
0010
0100
1000
0001
,
0100
0010
1000
0010
0100
0001
1000
0010
0100
0001
1000
0100
1000
0001
0010
0100
0010
0001
1000
0001
0100
0010
1000
0001
,
0010
0001
1000
0001
1000
0100
0010
0001
0010
0100
1000
0001
1000
0010
0100
0001
1000
0001
0100
0010
1000
0001
1000
0001
,
0100
0010
0100
0001
1000
0010
0100
0001
1000
0001
0100
0010
1000
0001
0010
0100
1000
0001
1000
0100
0010
0100
1000
0001
,
0010
0100
1000
0100
0010
0001
0100
0001
1000
0100
1000
0001
0100
0010
0100
0001
,
0010
0100
1000
0100
0010
0001
1000
0001
0010
0100
1000
0001
0100
0010
1000
0010
,
0100
0001
0100
0010
1000
0001
1000
0010
0100
0001
1000
0100
1000
0010
0100
0001
,
0010
0100
1000
0001
1000
0100
0010
0100
1000
0001
0100
0010
0100
0001
1000
0001
,
0010
0100
1000
0001
0010
0001
1000
0010
1000
0001
0100
0010
1000
0001
1000
0001
0010
0100
1000
0001
0100
0010
0100
0001
,
1000
0000
0010
0000
1000
0000
0001
0000
1000
0000
0010
0000
0100
0000
0000
0001
0000
0000
1000
0000
0000
0001
0000
0000
0100
0000
0000
0000
0010
0000
0000
0000
1000
0000
0000
0000
0001
0000
0000
0000
0000
0000
0010
0000
0000
0000
0000
0000
,
0100
1000
0001
0010
0001
0100
0010
1000
0010
0100
0001
0010
,
0100
0000
1000
0000
0100
0000
0010
0000
0001
0000
0010
0000
0100
1000
0010
0100
0001
0100
0010
1000
0001
1000
0010
0100
,
0001
0010
0001
0100
,
0010
0000
1000
0000
0001
0000
1000
0000
0100
0000
0000
0010
0000
0000
0001
0000
,
1000
0000
0000
0100
0000
0010
0100
1000
,
0000
0000
0000
0010
0000
0000
0100
0000
0000
0000
0000
0000
0001
0000
0000
1000
0100
0010
0001
1000
0001
1000
0100
0010
,
0001
1000
0010
0100
,
0001
0000
1000
0000
0100
0000
0010
0000
0100
0000
0000
1000
0000
0000
0001
0000
,
0200
0000
0000
0000
0000
0000
0310
2000
,
0000
0000
3000
0000
,
1001
0000
0000
0010
1000
0000
0001
0000
0100
0001
0100
0000
0010
0000
1000
0001
,
0100
0000
0000
0000
0000
0000
0010
0000
0000
0000
0000
0000
1000
0000
0001
0000
0010
0000
0001
0000
0000
0000
0000
0000
1000
0000
0000
0000
0000
0000
0100
0000
0000
0010
0000
0000
0100
0000
0000
0000
0000
0000
1000
0000
0100
0000
1000
0000
,
0001
0000
0010
0000
0100
0000
1000
0001
1000
0000
0001
0000
0100
0000
0010
0000
,
1000
0000
0001
1000
0001
0100
0010
0100
0001
0000
1000
0000
0100
0000
0010
0000
,
0001
1000
0010
0100
0001
1000
0100
0010
,
0100
0000
0000
0000
0000
0000
1000
0000
0000
0000
0000
0000
0010
0000
1000
0000
0001
0000
1000
0000
0000
0001
0000
0000
0100
0000
0000
0000
0000
0000
0010
0000
0000
1000
0000
0000
0001
0000
0000
0100
0000
0000
0010
0000
0000
0100
0000
0000
,
0001
1000
0001
1000
0100
0010
0100
1000
0001
1000
0001
0100
0010
0100
0001
1000
,
0010
0100
0001
1000
0001
0100
0010
1000
0001
0010
0100
1000
0001
1000
0100
0010
,
0100
1000
0001
0100
0001
1000
0100
1000
0010
0100
0001
1000
0010
0100
0001
0010
,
0100
1000
0010
0100
0001
0010
0001
0100
0010
1000
0100
1000
0001
0010
0100
1000
,
0001
0000
0000
1000
0000
0000
0001
0000
0000
1000
0000
0000
0001
0000
1000
0000
0001
0000
1000
0000
0001
0000
1000
0000
0010
0000
0100
0000
0001
0000
1000
0000
0001
0000
0100
0000
0010
0000
0000
0000
0000
0000
0000
0000
0000
0000
0000
0000
,
1000
0010
0100
0001
1000
0100
1000
0001
1000
0010
0100
0001
1000
0100
0010
0001
,
0100
0001
1000
0001
0010
0100
0010
0001
1000
0010
1000
0001
1000
0100
0010
0001
,
0010
0100
1000
0001
1000
0100
0010
0100
1000
0001
0010
0001
1000
0100
1000
0001
,
0100
0010
1000
0001
1000
0010
0100
0001
1000
0100
0010
0100
1000
0010
0100
0001
,
1000
0100
1000
0010
1000
0001
0100
0001
1000
0100
0010
0100
1000
0001
0100
0010
,
1000
0001
1000
0010
0100
0001
0010
0100
0010
0001
1000
0100
1000
0001
1000
0010
,
0100
0010
1000
0001
0100
0001
1000
0001
0010
0100
1000
0001
1000
0010
0100
0010
,
1000
0100
0010
0001
0100
0010
1000
0010
0100
0001
1000
0001
0010
0100
0010
0001
,
0100
0010
0100
0001
1000
0100
1000
0001
1000
0010
0100
0001
1000
0100
0010
0001
,
0100
0001
1000
0001
0010
0100
0010
0001
1000
0010
1000
0001
1000
0100
0010
0001
,
0010
0100
1000
0001
1000
0100
0010
0100
1000
0001
0010
0001
1000
0100
1000
0001
,
0100
0010
1000
0001
1000
0010
0100
0001
1000
0100
0010
0100
1000
0010
0100
0001
,
1000
0010
1000
0100
1000
0001
0010
0001
1000
0010
0100
0010
1000
0001
0010
0100
,
1000
0001
1000
0100
0010
0001
0100
0010
0100
0001
1000
0010
1000
0001
1000
0100
,
0010
0100
1000
0001
0010
0001
1000
0001
0100
0010
1000
0001
1000
0100
0010
0001
,
0100
0000
0010
0000
1000
0000
0001
0000
0000
0100
0000
0000
0010
0000
0000
0100
0000
0000
0001
0000
0000
1000
0000
0000
0010
0000
0000
0100
0000
0000
0001
0000
0000
1000
0000
0000
0001
0000
1000
0000
0001
0000
1000
0000
0100
0000
0010
0000
,
0001
0000
0000
0000
0001
0000
1000
0000
0000
0010
0100
0001
1000
0100
0010
0100
,
1000
0001
0100
0001
1000
0010
0100
0001
1000
0100
1000
0010
0100
0001
1000
0100
,
1000
0010
0100
0001
1000
0100
1000
0010
0100
0001
0100
0010
1000
0001
1000
0100
,
1000
0001
0010
0100
1000
0010
0100
0001
0100
0010
1000
0001
0010
0100
0010
0001
,
0100
0010
1000
0100
0010
0001
1000
0010
0100
0001
1000
0010
1000
0001
0010
0001
,
1000
0010
1000
0001
0010
0001
0100
0001
1000
0001
0010
0100
1000
0100
0010
0100
,
0010
0001
1000
0001
0100
0001
1000
0010
0100
0010
1000
0001
0100
0001
1000
0001
,
1000
0100
0010
0001
1000
0100
0010
0001
1000
0010
0100
0001
0100
0010
1000
0100
,
1000
0000
0000
0000
0000
0000
0000
0000
0000
0000
0000
0000
0010
0000
0000
0000
0000
0000
0100
0000
0000
0000
0000
0000
0000
0000
0000
0000
0000
0000
0001
0000
0100
0000
0001
0000
1000
0000
0000
0001
0000
0000
0010
0000
0000
0000
0000
0000
,
0000
0000
0000
0100
1000
0100
0010
0001
1000
0001
0000
0000
1000
0000
0000
0010
0000
0000
0100
0000
0000
0001
0000
0000
,
0010
0000
0000
0000
0000
0000
0000
0000
0000
0000
0000
0000
0100
0000
0000
0000
0000
0000
1000
0000
0000
0000
0000
0000
0000
0000
0000
0000
0000
0000
0001
0000
0100
0000
0010
0000
0100
0000
0000
0001
0000
0000
1000
0000
0000
0000
0000
0000
,
0010
0000
0100
0000
0001
0000
1000
0000
0000
0010
0000
0000
0100
0000
0001
0000
1000
0000
0010
0000
1000
0000
0001
0000
1000
0000
0001
0000
1000
0000
0100
0000
0010
0000
0001
0000
1000
0000
0001
0000
1000
0000
0010
0000
0100
0000
0001
0000
,
1000
0000
0000
0000
0000
0000
0000
0000
0000
0000
0000
0000
0001
0000
0000
0000
0000
0000
0100
0000
0000
0000
0000
0000
0000
0000
0000
0000
0000
0000
0010
0000
1000
0000
0001
0000
0010
0000
0000
0100
0000
0000
1000
0000
0000
0000
0000
0000
,
0001
0000
0000
0000
0000
0000
1000
0000
0000
0100
0000
0000
0010
0000
0000
0001
0000
0000
1000
0000
0010
0000
0100
0000
0001
0000
1000
0000
0100
0000
0010
0000
0000
0000
0000
0000
0100
0000
0000
0000
0000
0000
1000
0000
0000
0000
0000
0000
,
0010
0000
0000
0000
0000
0000
0100
0000
0000
0001
0000
0000
0000
0000
0000
1000
0100
1000
0001
0000
0000
0100
0000
0000
,
0010
0000
1000
0000
0001
0100
0001
0100
0001
0000
0000
1000
0000
0000
0100
0000
,
0010
0000
0010
0100
0000
0000
1000
0000
,
1000
0001
0000
0000
0100
0000
0100
0001
,
0000
0000
0010
0000
0010
0100
0000
0000
,
0000
0000
0000
0000
,
1000
0000
0000
0000
1000
0000
0010
0000
0000
0000
0000
0000
0100
0010
1000
0001
,
0100
0010
0100
0001
1000
0010
0100
0010
0100
0001
1000
0010
0100
0001
1000
0001
,
0100
0010
1000
0001
0010
0100
0010
0001
1000
0010
1000
0001
0010
0100
1000
0001
,
1000
0000
0000
0010
0000
0000
1000
0000
0000
0001
0000
0000
0010
0000
0000
0001
0000
0000
1000
0000
0000
0100
0000
0000
0010
0000
0000
0100
0000
0000
1000
0000
0000
0001
0000
0000
1000
0000
0100
0000
0010
0000
0001
0000
1000
0000
0010
0000
,
0100
0000
0000
0000
;
