#TITLE:Beyond the Dark Sun;
#SUBTITLE:;
#ARTIST:Wintersun;
#TITLETRANSLIT:;
#SUBTITLETRANSLIT:;
#ARTISTTRANSLIT:;
#CREDIT:sp1nzoK;
#BANNER:btdsbn.png;
#BACKGROUND:btdsbg.png;
#LYRICSPATH:;
#CDTITLE:Dis159.png;
#MUSIC:darksun.mp3;
#OFFSET:-0.380;
#SAMPLESTART:74.493;
#SAMPLELENGTH:12.000;
#SELECTABLE:YES;
#BPMS:0.000=180.000,157.000=160.000,158.000=140.000,159.000=120.000,160.000=180.000,236.000=160.000,244.000=210.000;
#STOPS:;
#BGCHANGES:;
// cache tags:
#FIRSTBEAT:0.000;
#LASTBEAT:509.000;
#SONGFILENAME:Songs/Definitive Keyboard Megapack/Beyond the Dark Sun(Disregard159)/darksun.sm;
#HASMUSIC:1;
#HASBANNER:1;
#MUSICLENGTH:158.380;
// end cache tags

//---------------dance-single - ----------------
#NOTES:
     dance-single:
     :
     Challenge:
     15:
     1.000,1.000,1.000,1.000,1.000,1260.000,343.000,269.000,88.000,152.000:

2222
3333
0001
0010
0001
0010
0001
0010
0001
0010
0001
0010
1000
0000
0100
0000
,
1000
0000
0010
0100
0010
0100
0010
0100
0010
0100
0010
0100
0010
0100
0010
0100
,
2222
3333
1000
0100
1000
0100
1000
0100
1000
0100
1000
0000
0001
0000
0010
0000
,
1110
0000
0001
0010
0100
1000
0010
0001
1000
0100
0010
0001
1000
0100
0010
0001
,
0100
0000
0101
0010
0001
0010
0101
0010
0001
0010
0101
0010
1000
0000
0110
0000
,
1000
0000
1010
0100
0010
0100
1010
0100
0010
0100
1010
0100
0010
0100
1010
0100
,
2222
3333
1010
0100
1000
0100
1010
0100
1000
0100
1010
0000
0001
0000
1010
0000
,
0100
0010
0101
0010
0100
0000
0110
0000
0001
0000
1100
0000
0100
0000
0011
0000
,
2222
3333
0101
0010
0001
0010
0101
0010
0001
0010
0101
0010
1100
0000
0110
0000
,
1100
0000
1010
0100
0010
0100
1010
0100
0010
0100
1010
0100
0010
0100
1010
0100
,
2222
3333
1010
0100
1000
0100
1010
0100
1000
0100
1010
0000
0001
0000
1010
0000
,
0100
0010
0101
0010
0100
0000
0110
0000
1100
0010
1001
0100
0011
1000
0110
0001
,
1110
0002
0023
2030
3200
0302
0023
0230
1311
0200
2300
3200
0320
0230
0320
0230
,
1311
0200
2300
3200
0320
0032
0023
0230
1311
0200
2300
3200
0320
0230
0320
0230
,
1311
0200
2300
3200
0320
0032
0023
0230
1311
0200
2300
3200
0320
0230
0320
0230
,
1311
0200
2300
3200
0320
0032
0023
0230
1321
0000
0000
0000
0000
0000
0000
0030
,
2222
3333
0101
0010
0001
0010
0101
0010
0001
0010
0101
0010
1000
0000
0110
0000
,
1000
0000
1010
0100
0010
0100
1010
0100
0010
0100
1010
0100
0010
0100
1010
0100
,
2222
3333
1010
0100
1000
0100
1010
0100
1000
0100
1010
0000
0001
0000
1010
0000
,
0100
0010
0101
0010
0100
0000
0110
0000
0001
0000
1100
0000
0100
0000
0011
0000
,
2222
3333
0101
0010
0001
0010
0101
0010
0001
0010
0101
0010
1100
0000
0110
0000
,
1100
0000
1010
0100
0010
0100
1010
0100
0010
0100
1010
0100
0010
0100
1010
0100
,
2222
3333
1010
0100
1000
0100
1010
0100
1000
0100
1010
0000
0001
0000
1010
0000
,
0111
0000
1000
0100
0010
0001
1100
0001
0110
1000
0011
1000
0110
0001
1100
0001
,
0110
2100
0111
0000
,
0111
0000
0000
0000
0110
0000
0000
0000
0111
0000
0000
3000
0020
0000
0000
0030
,
1102
0000
1100
0003
0200
0000
0000
0000
1011
0000
0000
0000
1001
0000
0000
0000
,
0000
0000
0000
0000
1011
0000
0000
0000
0000
0000
0000
0300
1012
0000
0000
0003
,
1210
0000
0000
0300
2001
0000
0010
0000
0101
0000
0010
0000
0101
0000
0010
0000
,
0101
0000
0010
0000
0101
0000
0010
0000
0101
0000
3010
0000
0102
0000
0000
0003
,
1200
0000
0000
0300
0021
0000
0000
0000
0001
0000
0000
0100
1000
0000
0001
0000
,
0000
0100
1000
0000
0001
0000
0001
0000
0000
0100
1000
0030
2001
0000
0000
0000
,
0011
0000
0000
3000
0210
0000
1001
0000
0000
0000
0000
0000
0010
0000
0011
0000
,
0000
0000
0010
0000
0011
0000
0000
0000
0010
0000
1010
0000
0000
0000
0000
0300
,
1012
0000
0000
0003
1020
0000
0100
0000
1001
0000
0100
0000
1001
0000
0100
0000
,
1001
0000
0100
0000
1001
0000
0100
0000
1001
0000
0100
0030
2000
0000
0000
3000
,
0201
0010
0001
0300
0012
0000
0000
0000
0100
0010
0100
0000
1010
0000
0000
0000
,
1000
0100
1000
0000
1010
0000
1100
0000
0000
0000
0000
0003
1120
0000
0000
0030
,
1201
0000
0000
0300
2011
0000
0100
0000
0010
0000
0100
0000
0010
0000
0100
0000
,
0010
0000
0000
0000
0000
0000
0100
0000
0000
3000
0000
0000
0001
0000
0010
0000
0100
0000
1000
0000
0001
0000
0010
0000
0100
0000
1000
0000
0001
0000
0010
0000
0100
0000
1000
0000
0001
0000
0010
0000
0100
0000
1000
0000
0001
0000
0010
0000
,
0100
0000
0011
1000
0010
1000
0011
1000
0010
1000
0011
1000
0010
0000
0001
0000
,
0010
0100
1001
0100
0001
0100
1001
0000
0100
0000
0001
1000
0001
0000
0100
0000
,
2000
0000
0100
0010
0001
3010
0200
0000
0010
0001
0010
1300
0020
0030
0102
1003
,
0210
1000
0010
1000
0010
1000
0010
1000
0010
1000
0010
1300
0002
0003
0020
0030
,
2100
0001
0100
0001
0100
0001
0100
0001
0100
0001
0100
3001
0020
0030
0200
0300
,
1002
0000
0100
1000
0100
1000
0100
1003
0100
0000
0001
1000
0001
0000
0100
0000
,
0020
0000
0100
1000
0100
0031
0200
0000
0010
0001
0010
1300
0002
0003
0120
0030
,
2000
0000
0010
0100
0010
0001
0010
0100
0010
0001
0010
3100
0022
0033
0202
0303
,
2002
3003
0110
0001
0010
0001
0110
0001
0010
0001
0110
0001
2200
3300
2020
3030
,
2002
3003
0110
1000
0010
1000
0110
1000
0010
1000
0110
1000
0010
1000
0110
1000
,
0022
0033
1100
0001
1000
0001
1100
0001
1000
0001
1100
0001
2200
3300
0220
0330
,
1000
0100
1000
0100
0011
0000
0110
0000
1100
0000
0110
0000
0011
0000
0110
0000
,
2200
3300
0011
0100
0001
0100
0011
0100
0001
0100
0011
0100
2020
3030
0220
0330
,
2020
3030
0101
0010
0100
0010
0101
0010
0100
0010
0101
0010
0100
0010
0101
0010
,
0202
0303
1010
0100
0010
0100
1010
0100
0010
0100
1010
0100
2002
3003
0202
0303
,
0010
1000
0010
1000
0102
1003
0120
1030
0102
1003
0120
1030
0102
1003
0120
1030
,
0001
0000
0011
1000
0001
1000
0011
1000
0001
1000
0011
1000
0022
0033
2200
3300
,
0022
0033
1100
0001
1000
0001
1100
0001
0100
0000
0001
1000
0001
0000
0100
0000
,
2020
3030
0100
0010
0001
0010
2200
3300
0010
0001
0010
0100
2020
3030
0000
0000
,
2222
0000
0000
0000
,
0000
0000
0000
0000
3333
0000
0000
0010
0000
0100
0000
0010
0000
0100
0000
0000
0001
0000
0010
0000
0100
0000
1000
0000
0100
0000
0010
0000
0001
0000
0010
0000
,
2102
0003
0010
0000
0010
0000
0101
0000
0010
3000
0102
0003
1210
0000
0000
0300
,
1012
0000
0100
0000
0100
0000
1010
0000
0100
0003
0210
0300
1021
0000
0000
0030
,
1102
0010
0010
1100
0010
0010
1100
0010
,
0010
0000
1100
0000
0010
0000
1100
0003
1210
0000
0000
0300
1012
0000
0000
0003
,
2101
0000
0010
0000
0010
0000
0101
0000
0010
3000
0102
0003
1210
0000
0000
0300
,
1012
0000
0100
0000
0100
0000
0100
0003
2110
0000
0001
3000
0010
1000
0010
0000
,
0101
0000
0100
0000
0100
0000
0101
0010
0100
1000
0100
0010
0101
1000
0001
0010
,
0001
1000
0101
0010
0001
1000
0101
0010
0101
0010
0100
1000
0101
0010
0100
1000
,
0112
0000
1000
0000
1000
0000
0110
0000
1000
0003
2100
3000
0121
0000
0000
0030
,
2101
0000
0010
0000
0010
0000
0101
0000
0010
3000
0120
0030
1201
0000
0000
0300
,
2011
0100
0100
0011
0100
0100
0011
0100
,
0100
0000
0011
0000
0100
0000
0011
3000
0121
0000
0000
0030
2101
0000
0000
3000
,
1012
0000
0100
0000
0100
0000
1010
0000
0100
0003
2010
3000
0121
0000
0000
0030
,
1010
0101
1010
0101
1010
0101
1010
0101
1010
0101
1010
0101
,
2020
0000
0000
0000
0000
0000
0100
0000
0000
0001
0000
0000
0100
0000
0000
0001
0000
0000
0000
0000
0000
0000
0001
0000
,
0100
0000
0000
0000
0000
0000
0000
0000
0001
0000
0000
0000
0100
0000
0000
0000
0001
0000
0000
0000
0100
3030
0000
0000
0201
0000
0000
0000
0010
0000
0000
0000
0001
0300
0000
0000
1020
0000
0000
0000
0100
0000
0000
0000
1000
0030
0000
0000
,
0102
0000
0000
0000
0000
0000
0000
0000
1000
0000
0000
0000
0100
0000
0000
0000
1000
0000
0000
0000
0100
0000
0000
0000
1010
0000
0000
0000
0000
0000
0000
0000
1000
0000
0000
0000
0100
0000
0000
0000
1000
0000
0000
0000
0100
0003
0000
0000
,
2010
0000
0000
0000
0000
0000
0000
0000
0001
0000
0000
0000
0010
0000
0000
0000
0001
0000
0000
0000
0010
0000
0000
0000
0101
0000
0000
0000
0000
0000
0000
0000
0001
0000
0000
0000
0010
0000
0000
0000
0001
0000
0000
0000
0010
3000
0000
0000
,
0102
0010
0100
1000
0100
1000
0100
0010
0100
0010
0100
1000
,
0100
0000
0000
0000
1000
0000
0000
0000
0100
0000
0000
0000
0010
0000
0000
0000
0100
0000
0000
0000
0010
0000
0000
0000
0100
0000
0000
0000
1000
0000
0000
0000
0100
0000
0000
0000
1000
0000
0000
0000
0100
0000
0000
0000
0010
0003
0000
0000
,
2100
0000
0010
0100
0001
0010
0101
0000
0010
0100
0001
0010
,
0101
0000
0000
0000
0010
0000
0100
0000
0001
0000
0010
0000
0101
0000
0000
0000
0010
0000
0100
0000
0001
3000
0010
0000
,
0102
0000
0000
1000
0100
0010
1000
0100
0010
1000
0100
0010
,
1000
0000
0000
0000
0100
0000
0000
0000
0010
0000
0000
0000
1000
0000
0000
0000
0100
0000
0000
0000
0010
0000
0000
0000
1000
0000
0000
0000
0100
0000
0000
0000
0010
0000
0000
0000
1000
0000
0000
0000
0100
0000
0000
0000
0010
0003
0000
0000
,
2100
0000
0001
0100
0001
0100
0011
0000
0001
0100
0001
0100
,
0010
0000
0000
0000
0100
0000
0000
0000
0001
0000
0000
0000
0010
0000
0000
0000
0100
0000
0000
0000
0001
3000
0000
0000
0210
0000
0000
0000
0000
0000
0000
0000
0000
0300
0000
0000
1021
0000
0000
0000
0000
0000
0000
0000
0000
0030
0000
0000
,
1102
0000
0000
0000
0000
0000
0000
0000
0000
0000
0000
0000
1000
0000
0000
0000
0010
0000
0000
0000
0100
0000
0000
0000
1000
0000
0000
0000
0010
0000
0000
0000
0100
0000
0000
0000
1000
0000
0000
0000
0010
0000
0000
0000
0100
0003
0000
0000
,
1000
0100
0010
0001
0000
0000
0001
0010
0100
1000
0000
0000
1000
0100
0010
0001
0000
0000
0001
0010
0100
1000
0000
0000
,
0111
1000
0100
1010
0001
1000
0100
0010
0001
1010
0100
0010
,
1101
0010
0100
1010
0001
0010
0100
1000
0001
1010
0100
1000
,
0111
1000
0100
1010
0001
1000
0100
0010
0001
1010
0100
0010
,
1101
0010
0100
1010
0001
0010
0100
1000
0001
1010
0100
1000
,
0111
1000
0100
1010
0001
1000
0100
0010
0001
1010
0100
0010
,
1101
0010
0100
1010
0001
0010
0100
1000
0001
1010
0100
1000
,
2222
0000
0000
0000
0000
0000
0000
0000
0000
0000
0000
0000
0000
0000
0000
3333
,
2222
0000
0000
0000
0000
0000
0000
3333
2222
0000
0000
0000
0000
0000
0000
3333
,
0011
0010
0010
0010
0010
0010
1000
1000
1000
0001
0001
0001
,
1110
1000
1000
1000
1000
1000
0001
0001
0001
0100
0100
0100
,
1011
1000
1000
1000
1000
1000
0001
0001
0001
0100
0100
0100
,
2220
0000
0000
0000
0000
0000
0000
0000
0000
0000
0000
3330
0222
0000
0000
0333
,
2202
0000
0000
0000
0000
0000
0000
0000
0000
3303
0000
0000
0010
0000
0000
0000
0010
0000
0000
0000
0010
0000
0000
0000
0100
0000
0000
0000
0100
0000
0000
0000
0100
0000
0000
0000
0001
0000
0000
0000
0001
0000
0000
0000
0001
0000
0000
0000
,
1110
0000
0000
0100
0100
0100
0010
0010
0010
1000
1000
1000
,
0110
0000
1000
0100
0010
0001
1000
0001
0010
0100
1000
0000
,
1000
0100
0010
0001
0100
0010
1000
0100
0010
1000
0100
0010
,
1101
0000
0000
0010
0010
0010
0010
0010
0010
1101
0000
0000
,
1110
0000
0000
0001
0001
0001
0001
0001
0001
1110
0000
0000
,
1011
0000
0000
0100
0100
0100
0100
0100
0100
1011
0000
0000
,
1110
0000
0000
0001
0001
0001
1110
0000
0000
0010
0010
0010
,
1101
0000
0000
0010
0010
0010
0010
0010
0010
1101
0000
0000
,
1110
0000
0000
0001
0001
0001
0001
0001
0001
1110
0000
0000
,
2022
0000
0000
0000
0000
0000
0000
0000
0000
0000
0000
3033
,
0222
0000
0000
0000
0000
0000
0000
0333
2220
0000
0000
0000
0002
0000
0000
3333
,
1210
0000
0000
0000
0000
0000
0000
0000
0000
0000
0000
0000
0010
0000
0000
0000
0010
0000
0000
0000
0010
0000
0000
0000
0010
0000
0000
0000
0010
0000
0000
0000
0010
0000
0000
0000
1010
0000
0000
0000
0000
0000
0000
0000
0000
0300
0000
0000
,
1021
0000
0000
0000
0000
0000
0000
0000
0000
0000
0000
0000
1000
0000
0000
0000
1000
0000
0000
0000
1000
0000
0000
0000
1000
0000
0000
0000
1000
0000
0000
0000
1000
0000
0000
0000
1001
0000
0000
0000
0000
0000
0000
0000
0000
0030
0000
0000
,
1102
0000
0000
0000
0000
0000
0000
0000
0000
0000
0000
0000
0100
0000
0000
0000
0100
0000
0000
0000
0100
0000
0000
0000
0100
0000
0000
0000
0100
0000
0000
0000
0100
0000
0000
0000
1100
0000
0000
0000
0000
0000
0000
0000
0000
0003
0000
0000
,
2220
0000
0000
0000
0000
0000
0000
0000
0000
0000
0000
0000
0000
0000
0000
3330
,
0211
0000
0000
0000
0000
0000
0000
0000
0000
0000
0000
0000
0001
0000
0000
0000
0001
0000
0000
0000
0001
0000
0000
0000
0001
0000
0000
0000
0001
0000
0000
0000
0001
0000
0000
0000
0001
0000
0000
0000
0001
0000
0000
0000
0001
0300
0000
0000
,
1021
0000
0000
0000
0000
0000
0000
0000
0000
0000
0000
0000
1000
0000
0000
0000
1000
0000
0000
0000
1000
0000
0000
0000
1000
0000
0000
0000
1000
0000
0000
0000
1000
0000
0000
0000
1000
0000
0000
0000
1000
0000
0000
0000
1000
0030
0000
0000
,
1102
0000
0000
0000
0000
0000
0000
0000
0000
0000
0000
0000
0100
0000
0000
0000
0100
0000
0000
0000
0100
0000
0000
0000
0100
0000
0000
0000
0100
0000
0000
0000
0100
0000
0000
0000
0100
0000
0000
0000
0100
0000
0000
0000
0100
0003
0000
0000
,
2110
0000
0000
0000
0000
0000
0000
0000
0000
0000
0000
0000
0010
0000
0000
0000
0010
0000
0000
0000
0010
0000
0000
0000
0010
0000
0000
0000
0010
0000
0000
0000
0010
0000
0000
0000
0010
0000
0000
0000
0010
0000
0000
0000
0010
3000
0000
0000
,
0211
0000
0000
0000
0000
0000
0000
0000
0000
0000
0000
0000
0001
0000
0000
0000
0001
0000
0000
0000
0001
0000
0000
0000
0001
0000
0000
0000
0001
0000
0000
0000
0001
0000
0000
0000
0001
0000
0000
0000
0001
0000
0000
0000
0001
0300
0000
0000
,
1021
0000
0000
0000
0000
0000
0000
0000
0000
0000
0000
0000
1000
0000
0000
0000
1000
0000
0000
0000
1000
0000
0000
0000
1000
0000
0000
0000
1000
0000
0000
0000
1000
0000
0000
0000
1000
0000
0000
0000
1000
0000
0000
0000
1000
0030
0000
0000
,
1102
0000
0010
0100
1000
0010
0100
1000
0010
0100
1000
0010
,
2200
0000
0000
0000
0000
0000
0000
0000
0000
0000
0000
0000
0000
0000
0000
3300
,
0000
0000
MMM0
MMM0
MMM0
MMM0
MMM0
MMM0
MMM0
MMM0
MMM0
MMM0
MMM0
MMM0
0MM0
0MM3
,
2MM2
0MM0
0MM0
0MM0
3MM3
0MMM
MMMM
MMMM
M2M2
M0M0
M0M0
M0M0
M3M3
MMMM
MMMM
MMMM
,
22M2
00M0
00M0
00M0
33M3
0000
0000
0000
0000
0000
0000
0000
0000
0000
0000
0000
;
