#TITLE:L2 Ver. B;
#SUBTITLE:~Liberation~;
#ARTIST:Ice;
#TITLETRANSLIT:;
#SUBTITLETRANSLIT:;
#ARTISTTRANSLIT:;
#CREDIT:;
#BANNER:../Zeppelin_bn.png;
#BACKGROUND:../bg_Zeppelin.png;
#LYRICSPATH:;
#CDTITLE:../cdtitle_ZAiA.png;
#MUSIC:Ice - L2 Ver. B.ogg;
#OFFSET:0.000;
#SAMPLESTART:39.460;
#SAMPLELENGTH:25.360;
#SELECTABLE:YES;
#BPMS:0.000=152.000;
#STOPS:;
#BGCHANGES:;
// cache tags:
#FIRSTBEAT:4.000;
#LASTBEAT:460.000;
#SONGFILENAME:Songs/Cirque du Zeppelin/L2 Ver. B - [Zaia]/L2 Ver. B.sm;
#HASMUSIC:1;
#HASBANNER:1;
#MUSICLENGTH:187.271;
// end cache tags

//---------------dance-single - 34/3/23----------------
#NOTES:
     dance-single:
     34/3/23:
     Challenge:
     14:
     1.000,1.000,0.069,0.080,1.000,1463.000,13.000,15.000,0.000,2.000:
0000
0000
0000
0000
,
1000
0100
0010
0100
,
1000
0000
0001
0100
,
0010
0000
1000
0000
,
0001
0010
0100
1000
,
0001
0000
0000
0000
0000
0000
0100
0000
0010
0000
1000
0000
,
0002
0000
0000
0000
,
0013
0100
1000
0010
0100
0001
0010
0100
,
2000
0000
0000
0000
0000
0000
3001
0000
1000
0000
0010
0000
,
0100
0001
0010
0001
,
1001
0000
0000
0000
1000
0000
0000
0000
0000
0000
0010
0000
0000
0100
0000
0000
,
0001
0010
0001
1000
,
0010
0000
1000
0000
0000
0200
0320
0032
,
1023
0000
2030
3020
0230
0000
0302
1000
,
1203
0000
0000
0000
0320
0000
0000
0000
0032
0000
0000
0000
1003
0010
1000
0001
,
0100
0010
1000
0001
1000
0001
1000
0001
0010
0100
1000
0001
1000
0001
1000
0001
,
0100
0010
1000
0001
1000
0001
0010
0100
1000
0001
1000
0010
0100
0001
1000
0010
0100
0001
1000
0100
0010
0001
0010
0100
,
1000
0001
0010
0001
1000
0100
1000
0001
1000
0010
0100
0001
1000
0001
0010
0100
,
1000
0001
0100
0001
0100
0010
1000
0100
1000
0001
0010
0100
1000
0010
1000
0001
,
0100
0010
0100
0010
1000
0001
0010
0100
1000
0001
0100
0010
1000
0001
1000
0100
,
0010
0001
0100
0010
1000
0001
0010
0001
1000
0100
1000
0010
0100
0001
1000
0001
,
0010
0100
0010
0001
1000
0100
1000
0100
0010
0001
1000
0010
0100
0010
1000
0001
,
0010
0001
1000
0010
1000
0001
0010
0100
1000
0001
0100
0010
1000
0001
1000
0001
,
0010
0100
1000
0001
1000
0010
0100
0010
1000
0001
0010
0001
0010
0100
0010
0001
,
1000
0010
0100
0001
1000
0010
1000
0001
0010
0001
1000
0100
0010
0001
1000
0001
,
1000
0010
0100
0001
0010
0001
1000
0100
1000
0001
0100
0010
1000
0100
0010
0100
,
1000
0010
1000
0001
0010
0001
0100
0010
0100
0001
1000
0001
0010
0100
1000
0001
,
0100
0010
0100
0001
1000
0100
1000
0001
0010
0001
1000
0010
0100
0001
0010
0100
,
1000
0001
0100
0001
1000
0100
1000
0001
0100
0010
1000
0100
1000
0001
1000
0100
,
0010
0001
0100
0010
1000
0100
1000
0001
0010
0001
1000
0010
0100
0001
0010
0100
,
0010
0001
0100
0001
1000
0100
1000
0010
0100
0010
1000
0001
1000
0100
0010
0001
,
1000
0010
0100
0010
1000
0001
0010
0001
1000
0100
1000
0001
0100
0010
1000
0100
,
0010
0001
1000
0010
1000
0001
0010
0001
1000
0010
0100
0001
0010
0001
1000
0001
,
0010
0100
1000
0001
0010
0001
0100
0001
1000
0100
1000
0001
0100
0010
1000
0100
,
1000
0001
0010
0001
1000
0010
0100
0001
1000
0001
0010
0100
1000
0001
0100
0010
,
1000
0001
0010
0001
0100
0010
0100
0001
1000
0100
1000
0001
1000
0010
0100
0001
,
0010
0100
1000
0001
1000
0100
0010
0001
1000
0001
0100
0001
1000
0001
0010
0100
,
1000
0010
1000
0001
0100
0001
0010
0001
1000
0010
1000
0001
0010
0100
1000
0010
,
1000
0001
0100
0001
1000
0100
0010
0001
1000
0001
0100
0010
1000
0001
0010
0100
,
1000
0001
0100
0001
0010
0100
0010
0001
1000
0010
1000
0001
1000
0100
0010
0001
,
0100
0010
1000
0001
1000
0010
0100
0001
0010
0100
1000
0001
0010
0001
1000
0010
,
0100
0001
0010
0100
1000
0010
1000
0001
0010
0001
1000
0010
0100
0001
0010
0100
,
0010
0001
0100
0001
1000
0100
1000
0010
0100
0010
1000
0001
1000
0100
0010
0001
,
1000
0010
0100
0001
0010
0100
0010
0001
0100
0010
1000
0100
1000
0001
0010
0100
,
1000
0001
0100
0010
0100
0001
0010
0100
1000
0001
0100
0001
1000
0100
0010
0100
,
1000
0010
1000
0100
0010
0001
0100
0001
1000
0100
1000
0001
0100
0010
1000
0100
,
0010
0100
1000
0010
1000
0001
0010
0001
0100
0010
0100
0001
1000
0001
0010
0100
,
1000
0001
1000
0010
0100
0001
1000
0100
0010
0100
1000
0001
0010
0100
1000
0001
0100
0010
1000
0001
1000
0010
0100
0001
,
1000
0000
0000
0100
0000
0000
1000
0000
0000
0001
0000
0000
0100
0000
0000
0001
0000
0000
1000
0000
0000
0100
0000
0000
1000
0000
0001
0000
1000
0000
0001
0000
0000
0100
0000
0000
0001
0000
0000
0010
0000
0000
0001
0000
0000
1000
0000
0000
,
0010
0101
0000
0101
0001
1000
0100
0010
,
0000
0110
0000
0110
0100
1000
0001
0100
,
0000
1010
0000
1010
1000
0001
0010
0100
,
0000
0000
0011
0000
0000
0000
0011
0000
0010
0001
1000
0001
4000
3040
0430
0304
,
1003
0100
1000
0001
0100
0010
1000
0100
0010
0100
1000
0010
0100
0001
1000
0001
,
0010
0100
1000
0001
1000
0010
0100
0001
0100
0010
1000
0100
1000
0001
0010
0100
,
1000
0001
1000
0001
0010
0100
1000
0001
1000
0010
0100
0001
1000
0100
1000
0001
0010
0001
1000
0100
0010
0100
1000
0001
,
0100
0000
0010
0000
,
1000
0000
0000
0000
0002
0003
0010
0000
,
0100
1000
0001
1000
0010
0100
0001
0010
0001
1000
0100
1000
0010
1000
0001
0100
,
0010
1000
0001
1000
0100
0010
0100
1000
0001
0010
0100
1000
0010
0100
0001
1000
,
0100
1000
0001
0010
0001
1000
0001
0100
0010
1000
0001
0100
0001
1000
0100
0010
,
0001
0100
0010
0100
0001
1000
0100
1000
0001
0100
0010
0100
0001
1000
0001
0010
,
0100
1000
0001
1000
0010
0100
0010
1000
0100
0010
0001
1000
0001
0100
0001
0010
,
0100
1000
0001
0100
0010
1000
0100
1000
0010
0100
0001
1000
0001
0010
0100
1000
,
0001
0100
0001
0100
0010
0100
0001
0100
0010
1000
0010
1000
0010
0100
0010
1000
,
0100
0000
0000
0010
0000
0000
0100
0000
0000
1000
0000
0000
0001
0000
0000
0010
0000
0000
0100
0000
0000
1000
0000
0000
0001
0000
1000
0000
0001
0000
1000
0000
0010
0000
0100
0000
0001
0000
1000
0000
0001
0000
0010
0000
0100
0000
1000
0000
,
0001
0010
0001
1000
0001
0100
0010
0100
0001
0010
0100
1000
0100
0010
0001
1000
,
0010
0100
0001
0010
0001
1000
0100
1000
0001
0100
0010
1000
0100
1000
0001
0010
,
0100
1000
0010
1000
0001
0100
0001
1000
0100
0010
0001
1000
0010
0100
0001
1000
,
0100
1000
0001
0100
0010
0100
0001
1000
0001
0010
0100
1000
0001
1000
0001
0100
,
0010
0100
0001
0010
0001
1000
0100
1000
0010
1000
0001
0100
0010
0100
0001
0010
,
0100
1000
0001
1000
0010
1000
0001
0010
0100
0010
0001
0100
0010
0100
0001
1000
,
0010
0100
0001
1000
0100
1000
0001
0010
0001
1000
0010
0100
0001
1000
0100
0010
,
0001
0000
1000
0000
0001
0000
1000
0000
0000
0010
0000
0000
0100
0000
0000
0001
0000
0000
0010
0000
0000
0100
0000
0000
1000
0000
0000
0010
0000
0000
0100
0000
0000
0001
0000
0000
0100
0000
0010
0000
1000
0000
0010
0000
0100
0000
0001
0000
,
1000
0100
1000
0001
1000
0010
0100
0010
1000
0100
0010
0001
0010
0100
1000
0001
,
0100
0000
0000
0010
0000
0000
1000
0000
0000
0100
0000
0000
1000
0000
0000
0001
0000
0000
0010
0000
0000
0001
0000
0000
1000
0000
0010
0000
0100
0000
0001
0000
0000
1000
0000
0000
0010
0000
0000
1000
0000
0000
0001
0000
0000
0100
0000
0000
,
0010
0000
0000
1000
0000
0000
0100
0000
0000
1000
0000
0000
0001
0000
0000
0010
0000
0000
0001
0000
0000
1000
0000
0000
0010
0000
0100
0000
0001
0000
1000
0000
0001
0000
0010
0000
0100
0000
0000
1000
0000
0000
0001
0000
0000
1000
0000
0000
,
0010
0000
0000
1000
0000
0000
0001
0000
0000
0010
0000
0000
0100
0000
0000
0010
0000
0000
0001
0000
0000
1000
0000
0000
0001
0000
0000
1000
0000
0000
0100
0000
0010
0000
0100
0000
1000
0000
0001
0000
1000
0000
0001
0000
0100
0000
0010
0000
,
1000
0000
0000
0001
0000
0000
1000
0000
0000
0100
0000
0000
1000
0000
0000
0001
0000
0000
0010
0000
0000
0001
0000
0000
0100
0000
0000
0001
0000
0000
1000
0000
0000
0010
0000
0000
0100
0000
0001
0000
1000
0000
0001
0000
0000
0010
0000
0000
,
0100
1000
0001
1000
0010
1000
0001
0010
0100
0010
0001
0100
0010
0100
0001
1000
,
0010
0100
0001
1000
0001
1000
0100
0010
0001
1000
0001
0100
0010
1000
0001
0100
0010
1000
0001
0010
0001
1000
0010
1000
,
0001
0000
0000
0000
,
1000
0000
0000
0000
0000
0000
0001
0100
0010
0000
0100
0000
0001
0000
0010
0000
,
0100
1000
0000
0000
,
0010
0000
0000
0000
0000
0000
0100
0001
0010
0000
0100
0000
1000
0000
0010
0000
,
0100
0000
0000
0000
0001
0000
0000
0000
0100
0000
0010
0000
1000
0001
0010
0100
,
1000
0000
0001
0000
0100
0000
0001
0010
0100
0000
1000
0000
0010
0000
0100
0000
,
0001
0000
0000
1000
0000
0000
0100
0000
0000
1000
0000
0000
0010
0000
0000
0100
0000
0000
0001
0000
0010
0000
0001
0000
,
1000
0000
0000
0010
0100
0001
1000
0000
0000
0100
0010
0100
,
1000
0001
0100
0010
1000
0001
1000
0100
0010
0100
1000
0010
1000
0100
0010
0001
,
1000
0100
1000
0001
0100
0001
0010
0100
1000
0010
0100
0010
,
1000
0001
1000
0100
0010
0100
1000
0001
0100
0001
1000
0100
,
1000
0000
0000
0001
0000
0000
0100
0000
0000
0010
0000
0000
1000
0000
0000
0000
0001
0000
0000
0000
0010
0000
0000
0000
0100
0000
0000
0000
0010
0000
0000
0000
0001
0000
0000
0000
0100
0000
0000
0000
0010
0000
0000
0000
1000
0000
0000
0000
,
0100
0000
0000
1000
0000
0000
0001
0000
0000
0100
0000
0000
0010
0000
1000
0000
0001
0000
1000
0000
0001
0000
0010
0000
0100
0000
1000
0000
0001
0000
0100
0000
0000
0000
0000
0000
0010
0000
0000
1000
0000
0000
0001
0000
0000
0100
0000
0000
,
0010
0000
0000
1000
0000
0000
0001
0000
0000
0010
0100
0000
1000
0000
0001
0000
,
0100
0000
0000
0000
0000
0000
0000
0000
0010
0000
0000
0000
0000
0000
0000
0000
1000
0000
0000
0000
0000
0000
0000
0000
0000
0000
0000
0001
0000
0000
0010
0000
0000
0000
0000
0000
0100
0000
0000
0000
0000
0000
1000
0000
0000
0000
0000
0000
,
0001
0000
0000
0100
0000
0000
0010
0000
0000
1000
0000
0000
0100
0000
0000
1000
0000
0000
0010
0000
0000
0100
0000
0000
0001
0000
0010
0000
0100
0000
1000
0000
0001
0000
1000
0000
0100
0000
0010
0000
0001
0000
1000
0000
0010
0000
1000
0000
,
0001
0000
0000
0000
0000
0000
0010
0100
1000
0000
0000
0000
0000
0000
0000
0000
,
0001
0100
0001
0000
0100
0010
0100
0000
0010
1000
0010
0000
1000
0001
1000
0000
,
0001
0100
0001
0000
1000
0100
1000
0000
0001
0010
0001
0000
0010
0100
0010
0000
,
0100
1000
0100
0000
1000
0010
1000
0100
0010
0001
1000
0000
0001
0010
0100
1000
,
0001
0100
0001
0000
1000
0001
1000
0000
0100
0010
0100
0000
1000
0100
1000
0010
,
0100
0001
0100
0000
0010
1000
0010
0000
1000
0001
1000
0000
0001
0010
0001
0000
,
1000
0100
1000
0000
0001
0100
0001
0000
1000
0010
0000
0100
0001
1000
0001
0010
,
0100
1000
0100
0000
0010
0001
0000
1000
0001
0000
0100
0001
0000
1000
0010
0100
,
0001
1000
0001
0000
0010
0100
0010
0000
0100
1000
0100
0010
0001
0100
0010
1000
,
0001
0010
0001
0000
0010
0100
0010
0000
0100
1000
0100
0000
1000
0001
1000
0000
,
0001
0010
0001
0000
1000
0010
1000
0000
0001
0100
0001
0000
0100
0010
1000
0100
,
1000
0010
0100
0000
0001
0010
0001
0000
1000
0001
1000
0000
0001
0100
0001
0000
,
1000
0100
1000
0000
0001
1000
0001
0000
0100
0010
0100
0001
0010
0100
1000
0001
,
0100
0010
1000
0010
1000
0010
1000
0010
,
1001
0100
0001
0100
0001
0100
0001
0100
,
0010
1000
0001
1000
0100
0010
0100
1000
0001
1000
0010
0100
0001
0010
0100
1000
,
0001
0000
0000
0100
0000
0000
0001
0000
0000
1000
0000
0000
0100
0000
0000
0010
0000
0000
0100
0000
0000
1000
0000
0000
0010
0000
0100
0000
0001
0000
1000
0000
0001
0000
0010
0000
0100
0000
1000
0000
0001
0000
1000
0000
0010
0000
1000
0000
,
0002
0000
0000
0000
,
0003
0000
0000
0000
;
