#TITLE:Final Destination;
#SUBTITLE:;
#ARTIST:Renard;
#TITLETRANSLIT:;
#SUBTITLETRANSLIT:;
#ARTISTTRANSLIT:;
#CREDIT:;
#BANNER:final.png;
#BACKGROUND:final-bg.png;
#LYRICSPATH:;
#CDTITLE:super_sonic.PNG;
#MUSIC:final.ogg.ogg;
#OFFSET:0.000;
#SAMPLESTART:57.432;
#SAMPLELENGTH:12.000;
#SELECTABLE:YES;
#BPMS:0.000=434.000;
#STOPS:;
#BGCHANGES:;
// cache tags:
#FIRSTBEAT:80.000;
#LASTBEAT:747.000;
#SONGFILENAME:Songs/Definitive Keyboard Megapack/Final Destination - Renard(SonicX)/final.sm;
#HASMUSIC:1;
#HASBANNER:1;
#MUSICLENGTH:108.373;
// end cache tags

//---------------dance-single - CHALLENGE----------------
#NOTES:
     dance-single:
     CHALLENGE:
     Challenge:
     12:
     1.000,1.000,0.461,0.000,0.120,843.000,50.000,0.000,202.000,1.000:

0000
0000
0000
0000
,
0000
0000
0000
0000
,
0000
0000
0000
0000
,
0000
0000
0000
0000
,
0000
0000
0000
0000
,
0000
0000
0000
0000
,
0000
0000
0000
0000
,
0000
0000
0000
0000
,
0000
0000
0000
0000
,
0000
0000
0000
0000
,
0000
0000
0000
0000
,
0000
0000
0000
0000
,
0000
0000
0000
0000
,
0000
0000
0000
0000
,
0000
0000
0000
0000
,
0000
0000
0000
0000
,
0000
0000
0000
0000
,
0000
0000
0000
0000
,
0000
0000
0000
0000
,
0000
0000
0000
0000
,
1000
0100
0010
0000
0001
0000
0010
0000
,
0100
1000
0100
0000
0010
0000
0001
0000
,
0100
0010
1000
0000
0010
0000
0100
0000
,
0001
0100
0001
0100
0001
0000
0100
0000
,
0010
1000
0010
1000
0010
0000
1000
0000
,
0001
0100
0001
0100
0001
0000
0100
0000
,
0001
0010
0001
0010
0100
1000
0100
1000
,
0010
0000
1000
0001
0100
0000
0001
0000
,
1000
0100
0010
0100
1000
0000
0001
0000
,
0010
0100
0010
0001
1000
0000
0010
0000
,
0100
0001
0100
0000
0010
1000
0010
0000
,
1000
0001
0100
0100
,
0001
0100
0001
0000
1000
0001
1000
0000
,
0100
1000
0100
0000
1000
0001
1000
0000
,
0001
0100
0010
1000
0010
0100
0001
1000
,
0100
0010
0001
0010
0100
1000
0001
0000
,
1000
0100
0010
0001
1000
0100
0010
0001
,
1000
0100
0010
0001
,
1000
0100
0010
0001
1000
0100
0010
0001
,
1000
0100
0010
0001
,
0001
0100
0010
1000
0001
0100
0010
1000
,
0001
0100
0010
1000
,
0001
0100
0010
1000
0001
0100
0010
1000
,
0001
0010
0001
0010
0100
1000
0100
1000
,
0M01
0010
0001
0010
0001
0000
0010
0000
,
0M01
0010
0001
0010
0001
0000
0010
0000
,
010M
1000
0100
1000
0100
0000
1000
0000
,
010M
1000
0100
1000
0100
0000
1000
0000
,
0M10
1000
0010
0000
1000
0000
0010
0000
,
1M00
0010
1000
0010
1000
0000
0010
0000
,
M100
0001
0100
0001
0100
0000
0001
0000
,
M100
0001
0100
0001
0100
0001
0100
0001
,
M00M
4004
0000
0000
0000
0000
0000
0000
0000
0000
0000
0000
0000
0000
0000
0000
0000
0000
0000
0000
0000
0000
0000
0000
0000
0000
0000
0000
0000
0000
0000
0000
0000
0000
0000
0000
0000
0000
0000
0000
0000
0000
0000
0000
0000
0000
0000
0000
0000
0000
0000
0000
0000
0000
0000
0000
0000
0000
0000
0000
0000
0000
0000
0000
,
0000
0000
0000
0000
,
0000
0000
0000
0000
,
0000
0000
0000
0000
0000
0000
0000
0000
0000
0000
0000
3003
MMMM
0000
0000
0000
,
1000
0100
0010
0000
0001
0000
0010
0000
,
0100
1000
0100
0010
,
0001
0100
0010
0000
1000
0000
0010
0000
,
0100
0001
0100
0010
,
1000
0100
1000
0000
0001
0000
0010
0000
,
0001
0100
0001
0000
0100
0000
0010
0000
,
1000
0010
1000
0000
0001
0100
0001
0000
,
1000
0001
0100
0010
,
1000
0000
0010
0000
0100
0000
0001
0100
,
0001
0000
0100
0000
0010
1000
0010
1000
,
0010
0000
1000
0000
0100
0000
0010
0001
,
0010
0000
0100
0000
1000
0001
1000
0001
,
1000
0000
0100
1000
0100
0000
1000
0000
,
0001
0000
0010
0001
0010
0000
0001
0000
,
1000
0000
0010
1000
0010
0000
1000
0000
,
0001
0100
0001
0100
0001
0100
0001
0000
,
1000
0100
0010
0001
0100
0010
1000
0001
,
0100
0010
1000
0100
0010
0000
0001
0000
,
0010
0100
1000
0000
0001
0010
0100
0000
,
0010
0001
1000
0000
0100
0000
0010
0000
,
0001
0010
0100
1000
0001
0000
0100
0000
,
0010
0000
1000
0010
0100
0000
0001
0000
,
1000
0000
0001
0010
0100
0000
1000
0000
,
0100
0000
1000
0100
0010
0000
0001
0000
,
0001
0010
0100
1000
0010
0100
0001
1000
,
0010
0100
0001
0010
0100
0000
1000
0000
,
0100
0010
0001
0000
1000
0100
0010
0000
,
0100
1000
0001
0000
0010
0000
0100
0000
,
1000
0100
0010
0001
1000
0000
0010
0000
,
0100
0000
0001
0100
0010
0000
1000
0000
,
0001
0000
1000
0100
0010
0000
0001
0000
,
0010
0000
0001
0010
0100
0000
1000
0000
,
0001
0010
0100
1000
0001
0000
1000
0000
,
0010
0000
0100
0000
0001
0100
0001
0000
,
1000
0010
0100
0001
1000
0000
0100
0000
,
0010
0000
0001
0000
1000
0100
1000
0000
,
0001
0010
0100
1000
0001
0000
0100
0000
,
0010
0000
1000
0000
0001
0100
0001
0000
,
1000
0010
0100
0001
1000
0000
0000
0000
,
0001
0100
0010
1000
0001
0000
0001
0000
,
1000
0100
0010
0001
1000
0000
0001
0000
,
0100
0000
0010
0000
1000
0010
1000
0000
,
0001
0100
0010
1000
0001
0000
0010
0000
,
0100
0000
1000
0000
0001
0010
0001
0000
,
1000
0100
0010
0001
1000
0000
0010
0000
,
0100
0000
0001
0000
1000
0010
1000
0000
,
0001
0100
0010
1000
0001
0000
0001
0000
,
1000
0010
0100
0001
1000
0000
1000
0000
,
0001
0010
0001
0000
0010
0000
0100
1000
,
0100
0000
1000
0000
0010
1000
0010
0000
,
0100
0000
0001
0000
0010
0000
0100
1000
,
0100
1000
0010
0000
0100
0000
0001
0100
,
0001
0100
0001
0000
0100
0000
0010
1000
,
0010
0000
1000
0000
0001
0100
0001
0000
,
1000
0000
0100
0000
0010
0000
0001
1000
,
0001
0100
0010
0000
1000
0000
0001
0100
,
0001
0000
0100
0010
0100
0000
0010
0000
,
1000
0010
1000
0000
0001
0000
0100
0001
,
0100
0000
0010
0000
1000
0000
0100
0010
,
0001
0010
0100
0000
1000
0000
0001
0100
,
0001
0000
0100
0001
1000
0000
0100
0000
,
1000
0001
0100
0000
0001
1000
0001
1000
,
0001
0100
0010
1000
,
0001
0100
0010
1000
0100
0010
0001
0000
,
1000
0100
1000
0000
0100
0000
0010
0001
,
0010
0000
0001
0000
0100
0001
0100
0000
,
0010
0000
1000
0000
0100
0000
0010
0001
,
0010
0001
0100
0000
0010
0000
1000
0010
,
1000
0010
1000
0000
0010
0000
0100
0001
,
0100
0000
0001
0000
1000
0010
1000
0000
,
0001
0000
0010
0000
0100
0000
1000
0001
,
1000
0010
0100
0000
0001
0000
1000
0010
,
1000
0000
0010
0100
0010
0000
0100
0000
,
0001
0100
0001
0000
1000
0000
0010
1000
,
0010
0000
0100
0000
0001
0000
0010
0100
,
1000
0100
0010
0000
0001
0000
1000
0010
,
1000
0000
0010
1000
0001
0000
0010
0000
,
0001
1000
0010
0000
1000
0001
1000
0001
,
1000
0010
0100
0001
,
1000
0010
0100
0001
0010
0100
1000
0000
,
0001
0010
0001
0010
0001
0000
0010
0000
,
0100
1000
0001
0000
0100
0000
0010
0000
,
1000
0010
1000
0010
1000
0000
0010
0000
,
0100
0001
1000
0000
0100
0000
0010
0000
,
0001
1000
0001
1000
0001
0000
0100
0000
,
0010
1000
0001
0000
0100
0000
0010
0000
,
1000
0100
1000
0100
1000
0000
0100
0000
,
0010
0001
1000
0000
0010
0000
0100
0000
,
0001
0100
0001
0000
0100
0000
0010
0000
,
1000
0010
1000
0000
0010
0000
0100
0000
,
0001
1000
0001
1000
0001
0000
1000
0000
,
0010
0100
0010
0100
0010
0000
0100
0000
,
0010
0000
1000
0010
1000
0000
0001
0100
,
0001
0000
1000
0100
0010
0001
1000
0000
,
0001
0000
0100
0010
0100
0000
0010
1000
,
0010
1000
0001
0100
0001
1000
0001
0000
,
1000
0100
0010
0001
0010
0100
1000
0001
,
0010
0100
1000
0100
0010
0001
1000
0000
,
0001
0100
0010
1000
0010
0100
0001
1000
,
0010
0100
0001
0100
0010
1000
0001
0000
,
1000
0100
0010
0100
1000
0001
0010
0100
,
0010
0001
1000
0010
0100
0001
1000
0000
,
0001
0010
0100
0010
0001
1000
0100
0010
,
0100
1000
0010
0100
0001
1000
0001
0000
,
1MM1
M011
M011
110M
,
110M
11M0
M101
1M10
,
M011
M110
10M1
011M
,
M101
11M0
11M0
011M
,
101M
M110
1M01
M110
,
1M1M
110M
M110
011M
,
11M0
0M11
M110
110M
,
M011
11M0
M101
101M
,
MMMM
0000
0000
0000
,
0000
0000
0000
0000
,
0000
0000
0000
0000
,
0000
0000
0000
0000
,
0000
0000
0000
0000
,
0000
0000
0000
MMMM
,
0M00
1011
0000
0000
0000
0000
0000
0000
0000
0000
0000
0000
0000
0000
0000
0000
MMMM
0000
0000
0000
0000
0000
0000
0000
0000
0000
0000
0000
0000
0000
0000
0000
MMMM
0000
0000
0000
0000
0000
0000
0000
0000
0000
0000
0000
0000
1001
0000
0000
0MM0
0000
0000
0000
0000
0000
0000
0000
0000
0000
0000
0000
0000
0000
0000
0000
,
MMMM
0000
0000
0000
0000
0000
0000
0000
0000
0000
0000
0000
0000
0000
0000
0000
M00M
0000
0000
0000
0000
0000
0000
0000
0000
0110
0000
0000
0000
0000
0000
0000
M00M
0000
0000
0000
0000
0000
0000
0000
0000
0000
0000
0000
0000
0000
0000
0000
M00M
0000
0000
0000
0000
0000
0000
0000
0000
0000
0000
0000
0000
0000
0000
0000
,
M00M
0000
0000
0000
0000
0110
0000
0000
0000
0000
0000
0000
0000
0000
0000
0000
000M
0000
0000
0000
0000
0000
0000
0000
0000
0000
0000
1000
0000
0000
0000
0000
0M0M
0000
0000
0000
0000
0010
0000
0000
0000
0000
0000
0000
0000
0000
0000
0000
0M0M
1000
0000
0000
0000
0000
0000
0000
0000
0000
0000
0000
0000
0000
0000
0000
,
MMMM
0000
0000
0000
0000
0000
0000
0000
0000
0000
0000
0000
0000
0000
0000
0000
MMMM
0000
0000
0000
0000
0000
0000
0000
0000
0000
0000
0000
0000
0110
0000
0000
M00M
0000
0000
0000
0000
0000
0000
0000
0000
0000
0000
0000
0000
0000
0000
0000
MMMM
0000
0000
0000
0000
0000
0000
0000
0000
0000
0000
0000
0000
0000
0000
0000
,
MMMM
0000
0000
0000
0000
0000
0000
0000
0000
0000
0000
0000
0000
0000
0000
1100
00MM
0000
0000
0000
0000
0000
0000
0000
0000
0000
0000
0000
0000
0000
0000
0000
MMMM
0000
0000
0000
0000
0000
0000
0000
0000
0000
0000
0000
0000
0000
0000
0000
MMMM
0000
0000
0000
0000
0000
0000
0000
0000
0000
0000
0000
0000
1001
0000
0000
,
0M00
0000
0000
0000
0000
0000
0000
0000
0000
0000
0000
0000
0000
0000
0000
0000
MM0M
0000
0000
0000
0000
0010
0000
0000
0000
0000
0000
0000
0000
0000
0000
0100
000M
0000
0000
0000
0000
0000
0000
0000
0000
1000
0000
0000
0000
0000
0000
0000
0MMM
0000
0000
0000
0000
0000
0000
0000
0000
0000
0000
0000
0000
0000
0000
0000
,
MMMM
0000
0000
0000
0000
0000
0000
0000
0000
0000
0000
0000
0000
0000
0000
0000
M00M
0000
0000
0000
0000
0000
0000
0000
0000
0000
0000
0110
0000
0000
0000
0000
M00M
0000
0000
0000
0000
0000
0000
0000
0000
0000
0000
0000
0000
0000
0000
0000
MMMM
0000
0000
0000
0000
0000
0000
0000
0000
0000
0000
0000
0000
0000
0000
0000
,
0M0M
0000
0000
0000
0000
0000
0000
1010
0000
0000
0000
0000
0000
0000
0000
0000
0M0M
0000
0000
0000
0000
0000
0000
0000
0000
0000
0000
0000
0000
0000
0000
0000
MMMM
0000
0000
0000
0000
0000
0000
0000
0000
0000
0000
0000
0000
0000
0000
0000
0M0M
0000
0000
0000
0000
0000
0000
0000
0000
1010
0000
0000
0000
0000
0000
0000
,
000M
0000
0000
0000
0000
0000
0000
0000
0000
0000
0000
0000
0000
0000
0000
MMM0
000M
0000
0000
0000
0000
0000
0000
0000
0000
0000
0000
0000
0000
0000
0000
0000
MMMM
0000
0000
0000
0000
0000
0000
0000
0000
0000
0000
0000
0000
0000
0000
M110
000M
0000
0000
0000
0000
0000
0000
0000
0000
0000
0000
0000
0000
0000
0000
0000
,
MMMM
0000
0000
0000
0000
0000
0000
0000
0000
0000
0000
0000
0000
0000
0000
0000
MMMM
0000
0000
0000
0000
0000
0000
0000
0000
0000
0000
0000
0000
0000
0000
0000
0M00
0000
0000
0000
0000
0000
0000
0000
0000
1001
0000
0000
0000
0000
0000
0000
0MM0
0000
0000
0000
0000
0000
0000
0000
0000
0000
0000
0000
0000
0000
0000
0000
,
MMMM
0000
0000
0000
0000
0000
0000
0000
0000
0000
0000
0000
0000
0000
0000
0000
MMMM
0000
0000
0000
0000
0000
0000
0000
0000
0000
0000
0000
0000
0000
0000
0000
00MM
0000
0000
1100
0000
0000
0000
0000
0000
0000
0000
0000
0000
0000
0000
0000
M000
0MMM
0000
0000
0000
0000
0000
0000
0000
0000
0000
0000
0000
0000
0000
0000
,
M00M
0000
0000
0110
0000
0000
0000
0000
0000
0000
0000
0000
0000
0000
0000
0000
MMMM
0000
0000
0000
0000
0000
0000
0000
0000
0000
0000
0000
0000
1010
0000
0000
0M0M
0000
0000
0000
0000
0000
0000
0000
0000
0000
0000
0000
0000
0000
0000
0000
MMMM
0000
0000
0000
0000
0000
0000
0000
0000
0000
0000
0000
0000
0000
0000
110M
,
00M0
0000
0000
0000
0000
0000
0000
0000
0000
0000
0000
0000
0000
0000
0000
0000
MMMM
0000
0000
0000
0000
0000
0000
0000
0000
0000
0000
0000
0000
1M10
0000
0000
000M
0000
0000
0000
0000
0000
0000
0000
0000
0000
0000
0000
0000
0000
0000
0000
MMMM
0000
0000
0000
0000
0000
0000
0000
0000
0000
0000
0000
0000
0000
0000
0000
;

//---------------dance-single - CHALLENGE1----------------
#NOTES:
     dance-single:
     CHALLENGE1:
     Edit:
     19:
     1.000,1.000,1.000,0.000,0.120,843.000,844.000,0.000,201.000,1.000:

0000
0000
0000
0000
,
0000
0000
0000
0000
,
0000
0000
0000
0000
,
0000
0000
0000
0000
,
0000
0000
0000
0000
,
0000
0000
0000
0000
,
0000
0000
0000
0000
,
0000
0000
0000
0000
,
0000
0000
0000
0000
,
0000
0000
0000
0000
,
0000
0000
0000
0000
,
0000
0000
0000
0000
,
0000
0000
0000
0000
,
0000
0000
0000
0000
,
0000
0000
0000
0000
,
0000
0000
0000
0000
,
0000
0000
0000
0000
,
0000
0000
0000
0000
,
0000
0000
0000
0000
,
0000
0000
0000
0000
,
0110
0110
0110
0000
1100
0000
0110
0000
,
1100
0101
1100
0000
1001
0000
1100
0000
,
1100
1100
0110
0000
1100
0000
1001
0000
,
1010
1100
1001
1001
0101
0000
0101
0000
,
0110
0110
0101
0110
1010
0000
1001
0000
,
0110
0110
0011
1100
0011
0000
1001
0000
,
0101
0101
0110
1100
1100
0011
1100
1010
,
1100
0000
1010
0101
1100
0000
0110
0000
,
1001
0101
0110
1010
0011
0000
1100
0000
,
1001
1001
1100
1001
1100
0000
1100
0000
,
1010
0110
0110
0000
1010
0101
1100
0000
,
1010
1010
1001
1001
,
1100
0011
1001
0000
0110
1100
0110
0000
,
1100
1100
0101
0000
0101
0110
0110
0000
,
0101
1100
1100
1001
1100
1100
0011
0110
,
1001
1100
0011
1100
1100
1001
0101
0000
,
0011
0011
1010
1001
1010
0011
1100
0011
,
0011
1100
1001
0101
,
1001
1100
1100
0011
0110
1100
1001
1100
,
0011
0101
1100
0011
,
1100
1010
1100
0101
1001
1100
1001
1001
,
1010
1100
0101
0011
,
1010
0110
1100
0101
0011
1001
1100
1001
,
0101
1010
1001
1100
1100
0110
1100
0110
,
1M10
1100
0011
1100
1100
0000
1100
0000
,
01M1
1100
0110
1100
0110
0000
1001
0000
,
1M10
0011
1100
0110
1010
0000
1100
0000
,
1M10
1001
0101
0011
1100
0000
1100
0000
,
1010
1010
1100
0000
1100
0000
0110
0000
,
M011
1001
0110
1100
1001
0000
0101
0000
,
10M1
1001
1100
0110
1001
0000
0101
0000
,
M101
1010
1100
1100
1100
1010
0101
1010
,
0MM0
0044
0000
0000
0000
0000
0000
0000
0000
0000
0000
0000
0000
0000
0000
0000
0000
0000
0000
0000
0000
0000
0000
0000
0000
0000
0000
0000
0000
0000
0000
0000
0000
0000
0000
0000
0000
0000
0000
0000
0000
0000
0000
0000
0000
0000
0000
0000
0000
0000
0000
0000
0000
0000
0000
0000
0000
0000
0000
0000
0000
0000
0000
0000
,
0000
0000
0000
0000
,
0000
0000
0000
0000
,
0000
0000
0000
0000
0000
0000
0000
0000
0000
0000
0000
0033
MMMM
0000
0000
0000
,
1001
1100
1010
0000
0011
0000
1100
0000
,
1010
1001
0110
1100
,
1100
1100
0110
0000
0101
0000
1100
0000
,
1001
1010
0110
1001
,
0101
1010
0110
0000
0011
0000
0011
0000
,
0011
1100
1010
0000
1100
0000
0011
0000
,
1001
1010
0110
0000
0011
1100
0110
0000
,
0011
0011
0110
1001
,
0110
0000
1100
0000
0101
0000
0011
1010
,
1001
0000
1100
0000
1001
0110
1100
0011
,
1100
0000
1010
0000
1001
0000
1100
0101
,
1010
0000
0110
0000
0110
1010
0011
1010
,
1010
0000
1010
0011
1001
0000
1010
0000
,
0011
0000
1100
0011
1100
0000
0101
0000
,
0011
0000
1010
1010
1100
0000
1010
0000
,
0011
1100
1100
1100
1100
1010
1010
0000
,
0110
0101
1100
1010
1001
0101
0011
0110
,
1001
0110
1010
1100
0110
0000
0011
0000
,
1010
0110
0101
0000
1010
1001
0101
0000
,
1100
1001
0011
0000
1010
0000
0110
0000
,
1010
1100
1100
0101
0110
0000
0101
0000
,
0110
0000
0011
0110
1010
0000
1100
0000
,
0011
0000
1010
1001
1100
0000
0110
0000
,
0110
0000
1001
0101
1100
0000
1010
0000
,
0101
0011
1010
1100
1010
1001
0101
0011
,
1010
0101
0110
0011
1100
0000
1100
0000
,
0110
1100
0110
0000
0011
1001
1001
0000
,
1100
0011
1100
0000
1100
0000
1100
0000
,
1001
1100
1100
1001
1100
0000
1100
0000
,
1100
0000
1010
0101
1100
0000
1100
0000
,
0101
0000
0110
1100
1010
0000
0110
0000
,
1010
0000
0110
1010
0110
0000
1001
0000
,
0011
1100
0110
0101
0101
0000
0110
0000
,
1001
0000
1001
0000
1001
1100
0101
0000
,
0110
1001
0110
0011
0101
0000
1001
0000
,
1100
0000
0011
0000
0110
1100
1010
0000
,
1010
1010
1001
1100
0011
0000
1100
0000
,
1100
0000
1010
0000
0101
1010
1010
0000
,
0110
1100
1010
1010
1100
0000
0000
0000
,
1010
1001
1010
0110
0011
0000
1100
0000
,
1001
1010
0110
0011
0101
0000
1010
0000
,
1010
0000
0011
0000
0110
1100
0011
0000
,
1100
0011
1100
0110
1010
0000
1100
0000
,
1100
0000
0011
0000
0110
1001
1010
0000
,
0101
1010
0110
0110
0101
0000
1100
0000
,
1001
0000
0110
0000
0011
0110
0011
0000
,
1010
1010
0110
0011
1001
0000
1100
0000
,
1001
1100
1010
1100
0110
0000
0101
0000
,
0011
1010
0101
0000
0110
0000
1100
1010
,
1100
0000
0011
0000
1010
0110
1001
0000
,
0101
0000
0011
0000
1100
0000
0101
1001
,
1100
1010
0110
0000
1100
0000
0110
1010
,
0110
0110
0011
0000
0110
0000
1010
0011
,
1100
0000
0011
0000
1100
0101
1010
0000
,
1100
0000
0101
0000
1010
0000
0011
1010
,
0011
1100
1100
0000
0011
0000
0011
0011
,
0101
0000
1001
0110
1100
0000
1100
0000
,
1010
1100
0011
0000
0101
0000
1100
0011
,
1100
0000
1100
0000
1010
0000
0110
0101
,
0110
0011
1100
0000
1100
0000
0101
1100
,
1100
0000
1100
0011
1010
0000
0110
0000
,
0011
1100
0101
0000
1010
1010
1010
1100
,
1010
1100
1010
0101
,
0011
0110
1100
0110
1100
1100
1100
0000
,
0011
1100
0110
0000
0101
0000
1010
1010
,
1001
0000
0011
0000
1100
1010
0110
0000
,
1010
0000
1001
0000
1100
0000
1001
0011
,
1001
0110
0110
0000
0110
0000
0011
1100
,
0110
1100
0101
0000
1010
0000
1100
1010
,
1010
0000
1010
0000
0110
1001
0011
0000
,
1100
0000
1010
0000
1100
0000
1010
0011
,
0011
1010
1100
0000
1010
0000
0011
1100
,
0101
0000
1100
1010
0110
0000
1001
0000
,
1010
1001
0011
0000
1001
0000
0110
0011
,
0101
0000
1001
0000
0011
0000
0110
1001
,
0011
1100
1100
0000
1001
0000
0011
0110
,
0011
0000
1001
0110
1001
0000
1100
0000
,
1100
1100
1010
0000
1001
0110
0011
0101
,
1001
1100
1100
1010
,
0110
1001
1100
0011
1100
1010
0110
0000
,
1001
1001
0011
1100
0110
0000
1100
0000
,
1010
1100
1010
0000
1100
0000
1100
0000
,
0110
1100
0101
1100
1100
0000
0110
0000
,
0101
0011
0110
0000
1100
0000
1100
0000
,
0011
0110
1001
0011
1010
0000
1100
0000
,
0110
0101
0101
0000
1100
0000
1100
0000
,
1001
0110
0110
1001
0011
0000
1100
0000
,
1010
1100
0110
0000
1010
0000
1001
0000
,
1100
1001
1001
0000
1010
0000
1010
0000
,
0110
1100
0110
0000
1100
0000
1100
0000
,
1100
1001
0011
0011
0110
0000
1010
0000
,
0110
1100
1100
1100
1100
0000
1100
0000
,
1100
0000
0101
1100
1100
0000
1100
1100
,
0011
0000
0110
1010
1100
1010
0110
0000
,
1010
0000
1010
1100
1001
0000
0011
1010
,
1100
0011
1010
1010
0110
1100
0110
0000
,
0101
1010
1100
0101
1100
1100
1010
1001
,
1010
1100
0011
1100
1100
1001
1010
0000
,
0101
1010
1100
0011
1010
1010
0011
1010
,
1001
0101
0110
0101
1001
0110
0110
0000
,
0110
0110
1001
0110
1100
1001
1100
1100
,
1001
0011
0110
1010
1001
0101
0110
0000
,
1001
1010
0011
1010
0101
1010
1100
1100
,
1100
1100
0101
1010
1100
0011
0101
0000
,
11MM
0M11
10M1
1M01
,
10M1
M101
101M
1M01
,
011M
0M11
01M1
0M11
,
10M1
01M1
110M
M110
,
11M0
01M1
101M
M011
,
11MM
110M
1M10
M110
,
0M11
11M0
1M10
M110
,
M011
1M01
11M0
M110
,
MMMM
0000
0000
0000
,
0000
0000
0000
0000
,
0000
0000
0000
0000
,
0000
0000
0000
0000
,
0000
0000
0000
0000
,
0000
0000
0000
MMMM
,
0M00
0111
0000
0000
0000
0000
0000
0000
0000
0000
0000
0000
0000
0000
0000
0000
MMMM
0000
0000
0000
0000
0000
0000
0000
0000
0000
0000
0000
0000
0000
0000
0000
MMMM
0000
0000
0000
0000
0000
0000
0000
0000
0000
0000
0000
0000
1010
0000
0000
0M0M
0000
0000
0000
0000
0000
0000
0000
0000
0000
0000
0000
0000
0000
0000
0000
,
MMMM
0000
0000
0000
0000
0000
0000
0000
0000
0000
0000
0000
0000
0000
0000
0000
00MM
0000
0000
0000
0000
0000
0000
0000
0000
1100
0000
0000
0000
0000
0000
0000
M0M0
0000
0000
0000
0000
0000
0000
0000
0000
0000
0000
0000
0000
0000
0000
0000
M0M0
0000
0000
0000
0000
0000
0000
0000
0000
0000
0000
0000
0000
0000
0000
0000
,
0M0M
0000
0000
0000
0000
1100
0000
0000
0000
0000
0000
0000
0000
0000
0000
0000
0M00
0000
0000
0000
0000
0000
0000
0000
0000
0000
0000
0101
0000
0000
0000
0000
M0M0
0000
0000
0000
0000
1100
0000
0000
0000
0000
0000
0000
0000
0000
0000
0000
M00M
1001
0000
0000
0000
0000
0000
0000
0000
0000
0000
0000
0000
0000
0000
0000
,
MMMM
0000
0000
0000
0000
0000
0000
0000
0000
0000
0000
0000
0000
0000
0000
0000
MMMM
0000
0000
0000
0000
0000
0000
0000
0000
0000
0000
0000
0000
1010
0000
0000
0M0M
0000
0000
0000
0000
0000
0000
0000
0000
0000
0000
0000
0000
0000
0000
0000
MMMM
0000
0000
0000
0000
0000
0000
0000
0000
0000
0000
0000
0000
0000
0000
0000
,
MMMM
0000
0000
0000
0000
0000
0000
0000
0000
0000
0000
0000
0000
0000
0000
1100
0MM0
0000
0000
0000
0000
0000
0000
0000
0000
0000
0000
0000
0000
0000
0000
0000
MMMM
0000
0000
0000
0000
0000
0000
0000
0000
0000
0000
0000
0000
0000
0000
0000
MMMM
0000
0000
0000
0000
0000
0000
0000
0000
0000
0000
0000
0000
0011
0000
0000
,
00M0
0000
0000
0000
0000
0000
0000
0000
0000
0000
0000
0000
0000
0000
0000
0000
MM0M
0000
0000
0000
0000
0101
0000
0000
0000
0000
0000
0000
0000
0000
0000
1100
0M00
0000
0000
0000
0000
0000
0000
0000
0000
1100
0000
0000
0000
0000
0000
0000
M0MM
0000
0000
0000
0000
0000
0000
0000
0000
0000
0000
0000
0000
0000
0000
0000
,
MMMM
0000
0000
0000
0000
0000
0000
0000
0000
0000
0000
0000
0000
0000
0000
0000
00MM
0000
0000
0000
0000
0000
0000
0000
0000
0000
0000
1100
0000
0000
0000
0000
0M0M
0000
0000
0000
0000
0000
0000
0000
0000
0000
0000
0000
0000
0000
0000
0000
MMMM
0000
0000
0000
0000
0000
0000
0000
0000
0000
0000
0000
0000
0000
0000
0000
,
0MM0
0000
0000
0000
0000
0000
0000
1010
0000
0000
0000
0000
0000
0000
0000
0000
M0M0
0000
0000
0000
0000
0000
0000
0000
0000
0000
0000
0000
0000
0000
0000
0000
MMMM
0000
0000
0000
0000
0000
0000
0000
0000
0000
0000
0000
0000
0000
0000
0000
MM00
0000
0000
0000
0000
0000
0000
0000
0000
1001
0000
0000
0000
0000
0000
0000
,
0M00
0000
0000
0000
0000
0000
0000
0000
0000
0000
0000
0000
0000
0000
0000
M0MM
M000
0000
0000
0000
0000
0000
0000
0000
0000
0000
0000
0000
0000
0000
0000
0000
MMMM
0000
0000
0000
0000
0000
0000
0000
0000
0000
0000
0000
0000
0000
0000
1M01
00M0
0000
0000
0000
0000
0000
0000
0000
0000
0000
0000
0000
0000
0000
0000
0000
,
MMMM
0000
0000
0000
0000
0000
0000
0000
0000
0000
0000
0000
0000
0000
0000
0000
MMMM
0000
0000
0000
0000
0000
0000
0000
0000
0000
0000
0000
0000
0000
0000
0000
0M00
0000
0000
0000
0000
0000
0000
0000
0000
0110
0000
0000
0000
0000
0000
0000
0M0M
0000
0000
0000
0000
0000
0000
0000
0000
0000
0000
0000
0000
0000
0000
0000
,
MMMM
0000
0000
0000
0000
0000
0000
0000
0000
0000
0000
0000
0000
0000
0000
0000
MMMM
0000
0000
0000
0000
0000
0000
0000
0000
0000
0000
0000
0000
0000
0000
0000
M0M0
0000
0000
1001
0000
0000
0000
0000
0000
0000
0000
0000
0000
0000
0000
0000
0M00
MMM0
0000
0000
0000
0000
0000
0000
0000
0000
0000
0000
0000
0000
0000
0000
,
00MM
0000
0000
1010
0000
0000
0000
0000
0000
0000
0000
0000
0000
0000
0000
0000
MMMM
0000
0000
0000
0000
0000
0000
0000
0000
0000
0000
0000
0000
1001
0000
0000
00MM
0000
0000
0000
0000
0000
0000
0000
0000
0000
0000
0000
0000
0000
0000
0000
MMMM
0000
0000
0000
0000
0000
0000
0000
0000
0000
0000
0000
0000
0000
0000
1M01
,
00M0
0000
0000
0000
0000
0000
0000
0000
0000
0000
0000
0000
0000
0000
0000
0000
MMMM
0000
0000
0000
0000
0000
0000
0000
0000
0000
0000
0000
0000
1M10
0000
0000
M000
0000
0000
0000
0000
0000
0000
0000
0000
0000
0000
0000
0000
0000
0000
0000
MMMM
0000
0000
0000
0000
0000
0000
0000
0000
0000
0000
0000
0000
0000
0000
0000
;
