#TITLE:Maple Gunman;
#SUBTITLE:;
#ARTIST:An Cafe;
#TITLETRANSLIT:;
#SUBTITLETRANSLIT:;
#ARTISTTRANSLIT:;
#CREDIT:Akatsuki0;
#BANNER:maple gunman-bn.avi;
#BACKGROUND:Maple Gunman.png;
#LYRICSPATH:;
#CDTITLE:akatsuki0-cdtitle.png;
#MUSIC:05 - Maple Gunman.mp3;
#OFFSET:0.180;
#SAMPLESTART:76.080;
#SAMPLELENGTH:18.680;
#SELECTABLE:YES;
#BPMS:0.000=155.020;
#STOPS:;
#BGCHANGES:1.000=Maple Gunman2.avi=1.000=1=0=1,
99999=-nosongbg-=1.000=0=0=0 // don't automatically add -songbackground-
;
// cache tags:
#FIRSTBEAT:1.000;
#LASTBEAT:586.000;
#SONGFILENAME:Songs/new cedric/Maple Gunman/05 - Maple Gunman.sm;
#HASMUSIC:1;
#HASBANNER:1;
#MUSICLENGTH:231.267;
// end cache tags

//---------------dance-single - ----------------
#NOTES:
     dance-single:
     :
     Challenge:
     10:
     0.824,0.824,1.000,0.298,0.417,995.000,270.000,69.000,0.000,0.000:
0000
0000
0000
0000
1001
0000
1000
0100
0000
0100
1000
0000
1010
0000
1000
0000
,
0001
0000
0100
0000
0101
0000
0001
1000
0000
1000
0010
0000
0001
0000
0100
0000
,
1000
0000
0001
0000
0011
0000
0001
0100
0000
0010
1000
0000
0100
0000
1000
0000
,
1010
0000
1000
0000
0101
0000
1000
0001
0000
0001
0100
0000
1000
0000
0001
0000
,
0010
0000
1000
0000
1100
0000
1000
0010
0000
0010
0100
0000
0001
0000
1000
0000
,
1010
0000
1000
0000
1010
0000
1000
0001
0000
0001
0010
0000
1000
0000
0010
0000
,
0001
0000
1000
0000
1001
0000
0001
1000
0000
1000
0001
0000
1000
0000
0010
0000
,
1010
0000
1000
0000
0110
0000
0010
1000
0000
0100
0010
0000
0001
0000
1000
0000
,
1010
0000
0000
0000
1001
0000
1000
0010
0000
0001
0100
0000
1000
0000
0010
0000
,
0011
0000
0010
0000
1010
0000
1000
0001
0000
0001
0100
0000
0010
0000
1000
0000
,
1100
0000
1000
0000
1010
0000
0010
1000
0000
1000
0001
0000
0100
0000
0010
0000
,
1010
0000
1000
0000
0110
0000
0010
1000
0000
1000
0100
0000
0010
0000
0001
0000
,
0011
0000
0001
0000
1001
0000
1000
0010
0000
0100
0001
0000
0100
0000
0010
0000
,
1010
0000
0100
0000
0110
0000
0010
0001
0000
0010
1000
0000
0100
0000
0010
0000
,
0011
0000
0001
0000
1100
0000
1000
0010
0000
0001
0100
0000
1000
0000
0010
0000
,
1100
0000
0001
0000
1001
0000
0001
0100
0000
0100
0010
0000
1000
0000
0001
0000
,
0101
0000
0010
0000
1010
0000
1000
0010
0000
1000
0001
0000
1010
0000
0011
0000
,
0101
0000
1100
0000
0000
0000
1001
0000
1000
0000
0010
0000
1000
0010
0100
0001
,
1000
0001
0110
0100
0001
1002
0000
1003
,
0010
0000
0100
0000
0000
0000
0101
0000
1000
0000
0010
0000
1000
0010
0001
0010
,
1000
0001
1001
1000
0010
1020
0000
1030
,
0001
0000
0100
0000
0000
0000
0110
0000
0010
0000
1000
0000
0001
1000
0010
0000
,
1000
0001
0110
1000
0001
0102
0000
1003
,
0010
1000
0000
1001
0100
0010
2000
0000
,
3002
0003
0101
0000
1100
0000
0101
0000
,
0001
0000
1000
0000
0010
0000
1000
0001
0000
1000
0010
0000
0101
0000
0100
0000
,
0001
0000
1000
0000
1010
0000
1000
0010
0000
0100
0001
0000
1000
0000
0010
0000
,
0001
0000
0010
0000
1010
0000
1000
0010
0000
0010
1000
0000
0001
0000
1000
0000
,
1010
0000
0100
0000
0101
0000
0001
1000
0000
1000
0100
0000
0010
0000
0001
0000
,
0100
0000
0001
0000
1001
0000
1000
0010
0000
0010
0100
0000
0001
0000
1000
0000
,
1010
0000
1000
0000
0110
0000
0010
1000
0000
1000
0001
0000
0100
0000
0010
0000
,
1000
0000
0001
0000
0101
0000
0010
1000
0000
0100
0010
0000
0001
0000
1000
0000
,
1001
0000
1000
0000
0101
0000
0010
1000
0000
1000
0100
0000
0011
0000
1100
0000
,
0011
0000
0101
0000
0000
0000
1001
0000
1000
0000
0010
0000
0100
0001
1000
0010
,
0100
0001
0011
1000
0001
0102
0000
1003
,
0010
0000
0100
0000
0000
0000
0110
0000
1000
0000
0001
0000
1000
0010
0100
0000
,
0001
1000
1010
1000
0001
0102
0000
1003
,
0010
0000
0100
0000
0000
0000
1010
0000
1000
0000
0001
0000
0100
0001
0010
0001
,
1000
0010
0110
0001
1000
2010
0000
3100
,
0010
0001
0000
1001
1000
0001
1000
0010
,
0100
0001
1010
0000
0110
0001
0101
0000
,
1001
0000
0000
0000
2002
3003
2200
3300
,
0022
0033
0101
0000
1010
1000
0001
0100
,
0010
1000
1001
0000
1000
0010
0100
0000
,
0101
0000
1001
0000
1000
0100
0010
0000
,
0011
0000
1001
0000
1000
0002
0000
1003
,
0010
0100
0002
0000
1003
0010
0000
0100
,
0001
1000
0200
0000
1000
1000
1300
0000
,
1010
2000
0000
3001
0000
0000
1001
0000
,
1100
0000
0000
0000
1010
0000
0000
1000
0000
0000
0001
0000
1001
0000
0000
0001
,
0000
0000
0100
0000
1010
0000
0000
1000
0000
0000
0100
0000
0021
0000
0000
0000
,
0031
0000
0000
0000
1001
0000
0000
0010
0000
0000
0100
0000
1001
0000
0000
1000
,
0000
0000
0010
0000
0101
0000
0000
0001
0000
0000
1000
0000
1020
0000
0000
0000
,
1030
0000
0000
0000
0101
0000
0000
0100
0000
0000
0010
0000
1010
0000
0000
0010
,
0000
0000
1000
0000
1100
0000
0000
0010
0000
0000
0001
0000
0210
0000
0000
0000
,
0310
0000
0000
0000
0011
0000
0001
0100
0010
0000
1000
0000
2010
0000
0000
0010
,
3000
0000
0100
0000
1001
0000
0000
1000
0000
0000
0010
0000
1010
0000
0000
0000
,
2100
0002
0000
0000
,
0000
0000
0000
0000
,
0000
0000
3003
0000
,
0000
0000
0000
0000
1001
0001
0000
0000
1010
0000
1000
0000
0202
0000
0000
0000
,
0303
0000
0000
0000
1001
0000
1000
0100
0000
0100
1000
0000
0010
0000
0100
0000
,
0101
0000
0001
0000
1001
0000
1000
0010
0000
0001
0010
0000
1000
0000
0100
0000
,
0001
0000
0100
0000
1100
0000
1000
0010
0000
1000
0001
0000
0100
0000
0010
0000
,
0110
0000
1000
0000
1001
0000
0001
1000
0000
0100
0010
0000
0001
0000
1000
0000
,
0100
0000
1000
0000
1010
0000
1000
0100
0000
0100
0010
0000
0001
0000
0010
0000
,
0110
0000
0100
0000
1100
0000
1000
0001
0000
0010
0100
0000
0001
0000
0010
0000
,
1000
0000
0001
0000
0101
0000
0001
1000
0000
1000
0010
0000
1000
0000
0001
0000
,
0101
0000
0001
0000
1001
0000
1000
0010
0000
0010
0100
0000
0001
0000
0100
0000
,
0010
0000
1000
0000
0000
0000
1001
1000
0010
0000
1000
0000
0100
0010
0001
0100
,
0010
1000
1010
0001
0100
1020
0000
1030
,
0002
0000
1003
0000
0000
0000
0110
0000
0001
0000
1000
0000
0010
1000
0100
0000
,
1000
0001
1010
1000
0100
0210
0000
0310
,
0001
0000
0100
0000
0000
0000
0101
0000
0001
0000
0100
0000
0010
1000
0100
0010
,
0001
1000
1010
0100
0001
2001
0000
3010
,
1000
0001
0000
1001
1000
1010
1000
0001
,
0100
0010
1010
0100
0001
0100
1020
0000
,
1030
0000
1100
1010
,
1001
0100
0101
1000
0010
0100
1001
0100
,
0010
1000
1001
0000
1000
0010
0100
0000
,
0101
0000
1001
0000
0001
0100
0010
0000
,
1010
0000
1100
0000
1000
0200
0000
0310
,
0001
0000
1000
0000
0001
0100
0010
0000
0000
0000
1010
0000
0000
0000
1001
0000
,
0000
0001
1002
0000
0100
0100
0103
0000
,
0101
1000
0000
1001
0000
0000
0201
0000
,
0301
0000
0000
0000
1001
0000
0000
1000
0000
0000
0010
0000
0101
0000
0000
0001
,
0000
0000
1000
0000
1010
0000
0000
0100
0000
0000
0001
0000
0102
0000
0000
0000
,
1003
0000
0000
0000
1100
0000
0000
0100
0000
0000
0010
0000
0011
0000
0000
0010
,
0000
0000
0100
0000
1001
0000
0000
1000
0000
0000
0001
0000
0102
0000
0000
0000
,
1003
0000
0000
0000
1010
0000
0000
0010
0000
0000
1000
0000
0110
0000
0000
0010
,
0000
0000
0100
0000
0101
0000
0000
0001
0000
0000
1000
0000
1020
0000
0000
0000
,
1030
0000
0000
0000
1001
0000
1000
0010
0100
0000
0001
0000
1010
0000
0000
1000
,
0000
0000
0001
0000
0101
0000
0000
0010
0000
0000
0001
0000
1001
0000
0000
0000
,
2010
0000
0002
0000
3003
0000
1000
0100
,
0010
0000
0001
0000
1001
0000
0001
0100
0000
0010
1000
0000
0010
0000
1000
0000
,
1100
0000
1000
0000
0011
0000
0001
0100
0000
0001
1000
0000
0010
0000
0001
0000
,
0100
0000
1000
0000
1001
0000
0010
0100
0000
0001
0100
0000
0010
0000
1000
0000
,
1100
0000
0000
0001
1001
0000
0010
0000
0101
0000
0000
0000
1000
0010
0100
0001
,
1000
0000
0000
0000
0001
0100
0010
1000
0001
0000
0101
0000
1001
1000
0000
0101
,
0000
0000
1010
0000
0110
0010
0000
1010
0000
0000
0000
0000
1000
0010
0100
0001
,
1000
0000
1001
0000
1000
0010
0100
0000
0001
0010
0100
0000
1100
0000
0000
0000
,
1100
0000
0000
0000
1000
0001
0010
0000
0010
0001
1000
0000
1010
1000
0000
1100
,
0000
0000
1001
0000
1000
0100
1100
0000
0100
1000
0000
1001
0000
0000
0000
0000
,
0000
0000
0101
0001
1000
0000
0100
1000
0000
0000
0011
0001
1000
0000
0001
1000
,
0000
0000
0000
0000
1001
1000
0010
0000
0101
0000
0100
0000
1000
0000
0100
0000
,
0001
1000
2010
0000
0000
0000
3010
0100
,
0001
2000
0000
3010
1000
0010
0100
0001
,
1000
0000
0010
0000
0000
0000
1010
1000
0001
0000
1000
0000
0010
0000
1000
0000
,
0001
0000
2020
3030
0202
0303
0022
0033
,
2200
3300
2001
0000
0000
0000
3001
0100
,
0010
0000
0100
0000
0000
0000
1001
0000
0010
0000
0100
0000
0102
0000
0000
1000
,
0003
0100
1100
0000
1010
0000
1001
0000
,
0101
0000
0000
0000
0001
0100
0001
0000
1000
0100
1000
0000
0010
0100
0010
1000
,
0010
0100
0001
1000
2002
0000
0000
0000
0000
0000
0000
0000
0000
0000
0000
0000
,
3003
0000
0000
0000
1001
0000
1000
0010
0000
0100
0001
0000
0101
0000
1000
0000
,
0010
0000
0100
0000
0110
0000
0010
0001
0000
0100
1000
0000
0010
0000
0001
0000
,
0010
0000
1000
0000
1100
0000
0000
0011
0000
0000
1100
0000
0000
0101
0000
0000
,
1100
0000
0010
0001
1000
0000
0000
1001
0000
0000
1010
0000
0100
0000
0000
0000
,
0101
0000
0000
0000
1001
0000
0000
1000
0000
0000
0001
0000
0101
0000
0000
0001
,
0000
0000
0100
0000
0110
0000
0000
1000
0000
0000
0100
0000
2100
0000
0000
0000
,
3100
0000
0000
0000
0011
0000
0000
0001
0000
0000
0100
0000
1010
0000
0000
1000
,
0000
0000
0001
0000
0101
0000
0000
1000
0000
0000
0010
0000
0120
0000
0000
0000
,
1030
0000
0000
0000
0101
0000
0000
0010
0000
0000
1000
0000
1001
0000
0000
1000
,
0000
0000
0001
0000
1001
0000
0000
0100
0000
0000
0010
0000
1020
0000
0000
0000
,
1030
0000
0000
0000
1001
0000
1000
0010
0100
0000
0001
0000
1001
0000
0000
1000
,
0000
0000
0010
0000
0110
0000
0000
0001
0000
0000
1000
0000
2020
0000
0000
0000
,
3030
0000
0000
0000
1001
0000
0000
0001
0000
0000
0100
0000
1010
0000
0000
1000
,
0000
0000
0100
0000
0011
0000
0000
0001
0000
0000
1000
0000
2010
0000
0000
0000
,
3100
0000
0000
0000
0011
0000
0000
0001
0000
0000
0100
0000
0110
0000
0000
0010
,
0000
0000
1000
0000
1100
0000
0000
0001
0000
0000
1000
0000
1002
0000
0000
0000
,
1003
0000
0000
0000
1100
0000
0000
0100
0000
0000
0010
0000
0011
0000
0000
0010
,
0000
0000
0100
0000
1100
0000
0000
1000
0000
0000
0001
0000
0201
0000
0000
0000
,
0310
0000
0000
0000
1010
0000
1000
0001
0100
0000
0001
0000
0101
0000
0000
0010
,
0000
0000
1000
0000
1100
0000
0000
1000
0000
0000
0001
0000
0101
0000
0000
0000
,
1000
2002
0000
0000
,
0000
0000
0000
0000
,
3003
0000
0000
0000
1000
0000
0000
0001
0000
0000
0100
0000
0010
0000
0000
1000
,
0000
0100
1100
0000
0110
0000
0011
0000
,
1001
0000
0000
0000
1000
0000
0000
0001
0000
0000
0100
0000
0010
0000
0000
0100
,
0000
0001
2002
0000
3003
0000
2200
0000
,
3300
0000
0000
0000
1000
0000
0000
0001
0000
0000
0100
0000
0010
0000
0000
1000
,
0000
0001
1001
0000
0110
0000
0101
1000
,
1010
0000
0000
0000
1001
0000
1000
0100
0000
0010
0001
0000
1000
0000
0001
0000
,
0010
0000
0100
0000
1100
0000
0010
0001
0000
0100
1000
0000
0010
0000
0001
0000
,
0100
0000
0001
0000
1001
0000
1000
0100
0000
0100
1000
0000
0010
0000
1000
0000
,
0001
0000
0100
0000
0110
0000
0000
0101
0000
0000
0110
0000
0000
1010
0000
0000
,
1100
0110
0022
0000
0033
0000
0000
0000
;

//---------------dance-single - ----------------
#NOTES:
     dance-single:
     :
     Hard:
     9:
     0.745,0.760,0.614,0.298,0.415,995.000,142.000,69.000,0.000,0.000:
0000
0000
0000
0000
1001
0000
1000
0010
0000
0010
1000
0000
0100
0000
0010
0000
,
0001
0000
1000
0000
1100
0000
0001
0100
0000
0010
1000
0000
0010
0000
0001
0000
,
0100
0000
1000
0000
1010
0000
0010
0100
0000
0001
0100
0000
0010
0000
1000
0000
,
0100
0000
1000
0000
1001
0000
1000
0010
0000
0100
0001
0000
0010
0000
0100
0000
,
0010
0000
0001
0000
0101
0000
0001
1000
0000
1000
0010
0000
0100
0000
0001
0000
,
1000
0000
0010
0000
1100
0000
0100
1000
0000
1000
0010
0000
0100
0000
0001
0000
,
0100
0000
0010
0000
1010
0000
1000
0001
0000
0100
0010
0000
0100
0000
0001
0000
,
1000
0000
0100
0000
1100
0000
0100
0010
0000
0001
0100
0000
0010
0000
1000
0000
,
1010
0000
0000
0000
0110
0000
0010
1000
0000
1000
0100
0000
0001
0000
0010
0000
,
1000
0000
0001
0000
1001
0000
0001
1000
0000
0100
0010
0000
0001
0000
0010
0000
,
0100
0000
1000
0000
1100
0000
1000
0010
0000
0010
0100
0000
1000
0000
0100
0000
,
0001
0000
0100
0000
0110
0000
0010
1000
0000
0100
0010
0000
0001
0000
1000
0000
,
0010
0000
1000
0000
1100
0000
0100
0010
0000
0010
0001
0000
1000
0000
0001
0000
,
0100
0000
0010
0000
0101
0000
0001
1000
0000
1000
0010
0000
0100
0000
0001
0000
,
1000
0000
0010
0000
1001
0000
1000
0010
0000
0100
0001
0000
1000
0000
0001
0000
,
0100
0000
0010
0000
1010
0000
0010
1000
0000
1000
0001
0000
0100
0000
0010
0000
,
1000
0000
0100
0000
1100
0000
1000
0001
0000
0001
0100
0000
0110
0000
1000
0000
,
1010
0000
0001
0000
0000
0000
1001
0000
1000
0000
0010
0000
1000
0010
0100
0001
,
1000
0001
0100
0010
1000
2100
0000
3100
,
0010
0000
0001
0000
0000
0000
0011
0000
0001
0000
1000
0000
0010
0100
0001
0100
,
0010
1000
0100
1000
0001
0102
0000
0103
,
0010
0000
1000
0000
0000
0000
1010
0000
1000
0000
0001
0000
1000
0100
0010
0000
,
0001
1000
0010
0100
0001
1002
0000
1003
,
0010
1000
0000
0110
0010
1000
1002
0000
,
0103
0110
1010
1100
,
1001
0000
1000
0000
0100
0000
0010
0001
0000
0001
1000
0000
0010
0000
0100
0000
,
0001
0000
1000
0000
1010
0000
1000
0010
0000
0010
0100
0000
1000
0000
0010
0000
,
0001
0000
1000
0000
1001
0000
0001
1000
0000
1000
0010
0000
0100
0000
0001
0000
,
1000
0000
0100
0000
1100
0000
0010
1000
0000
0001
0100
0000
0010
0000
0100
0000
,
0001
0000
1000
0000
1010
0000
0100
0001
0000
0001
1000
0000
0010
0000
0100
0000
,
0001
0000
0010
0000
0011
0000
0001
1000
0000
1000
0100
0000
0010
0000
0001
0000
,
1000
0000
0010
0000
0110
0000
0100
0001
0000
0001
1000
0000
0010
0000
0100
0000
,
0001
0000
1000
0000
1010
0000
1000
0001
0000
0001
0100
0000
0010
0000
1000
0000
,
0001
0000
1000
0000
0000
0000
0101
0000
1000
0000
0010
0000
0100
0001
0010
0001
,
1000
0010
0100
0001
1000
1020
0000
1030
,
0100
0000
0010
0000
0000
0000
1100
0000
1000
0000
0001
0000
0100
0010
1000
0000
,
0001
0100
0010
1000
0010
0120
0000
1030
,
0001
0000
0100
0000
0000
0000
0101
0000
0001
0000
1000
0000
0100
1000
0010
0100
,
0001
1000
0010
0001
0010
1020
0000
1030
,
0001
0100
0000
0101
0001
1000
0010
1000
,
0001
0100
0120
0000
1030
0001
2001
0000
,
3010
0000
0000
0000
2020
3030
2200
3300
,
0022
0033
0202
0303
0001
1000
0010
1000
,
0001
0100
0110
0000
1000
0001
0100
0000
,
0101
0000
1001
0000
1000
0010
0100
0000
,
1010
0000
1100
0000
1000
0200
0000
0310
,
0001
0100
0020
0000
1030
0001
0000
0100
,
0010
1000
0200
0000
1000
1000
1300
0000
,
1010
2000
0000
3001
0000
0000
1001
0000
,
1100
0000
0000
0000
1000
0000
0000
0001
0000
0000
0100
0000
0010
0000
0000
1000
,
0000
0000
0001
0000
1000
0000
0000
0001
0000
0000
0100
0000
0020
0000
0000
0000
,
1030
0000
0000
0000
1000
0000
0000
0100
0000
0000
0010
0000
0001
0000
0000
0010
,
0000
0000
0100
0000
1000
0000
0000
0001
0000
0000
0100
0000
0020
0000
0000
0000
,
0130
0000
0000
0000
0001
0000
0000
1000
0000
0000
0010
0000
0100
0000
0000
0010
,
0000
0000
1000
0000
0001
0000
0000
1000
0000
0000
0010
0000
0200
0000
0000
0000
,
0301
0000
0000
0000
0101
0000
0010
1000
0001
0000
1000
0000
0010
0000
0000
0100
,
0000
0000
0001
0000
1000
0000
0000
0010
0000
0000
0100
0000
0101
0000
0000
0000
,
2001
0020
0000
0000
,
0000
0000
0000
0000
,
0000
0000
3030
0000
,
0000
0000
0000
0000
1001
0001
0000
0000
0100
0000
0010
0000
2020
0000
0000
0000
,
3030
0000
0000
0000
0101
0000
0001
0100
0000
0010
1000
0000
0010
0000
0100
0000
,
0001
0000
0100
0000
0110
0000
0010
1000
0000
1000
0100
0000
0001
0000
0010
0000
,
1000
0000
0001
0000
1001
0000
1000
0010
0000
0010
0100
0000
0001
0000
0100
0000
,
0010
0000
1000
0000
1010
0000
0010
0100
0000
0001
1000
0000
0010
0000
1000
0000
,
0100
0000
1000
0000
1100
0000
0001
0100
0000
0100
0001
0000
0010
0000
0100
0000
,
0010
0000
0001
0000
0011
0000
0001
0100
0000
0010
0100
0000
0001
0000
1000
0000
,
0010
0000
0100
0000
0110
0000
0010
1000
0000
1000
0100
0000
1000
0000
0001
0000
,
0100
0000
0010
0000
0101
0000
0001
0100
0000
0001
1000
0000
0010
0000
1000
0000
,
0001
0000
0100
0000
0000
0000
0001
1000
0010
0000
1000
0000
0010
0100
0001
1000
,
0010
1000
0010
0100
0001
0102
0000
1003
,
0020
0000
0130
0000
0000
0000
0101
0000
0001
0000
1000
0000
0010
1000
0001
0000
,
0100
0010
1000
0100
1000
2001
0000
3010
,
0100
0000
0001
0000
0000
0000
0101
0000
0001
0000
1000
0000
0010
0100
0001
1000
,
0010
1000
0001
0100
0010
0210
0000
0310
,
1000
0001
0000
1001
1000
0001
0100
0001
,
1000
0010
1010
1000
0001
0100
0020
0000
,
1030
0000
1100
1010
,
1001
1000
0001
0100
0010
1000
0001
0100
,
0001
1000
1001
0000
1000
0010
0100
0000
,
0101
0000
1010
0000
0010
0100
0001
0000
,
0101
0000
1001
0000
1000
0002
0000
0103
,
0010
1000
0001
0100
0000
0210
0000
0310
,
0000
1000
0002
0000
1000
1000
1003
0000
,
1001
0001
0000
0101
0000
0000
1001
0000
,
1100
0000
0000
0000
1000
0000
0000
0100
0000
0000
0010
0000
0001
0000
0000
0010
,
0000
0000
0100
0000
1000
0000
0000
0001
0000
0000
0100
0000
0020
0000
0000
0000
,
1030
0000
0000
0000
0001
0000
0000
0100
0000
0000
1000
0000
0010
0000
0000
0001
,
0000
0000
1000
0000
0010
0000
0000
0100
0000
0000
0001
0000
2000
0000
0000
0000
,
3010
0000
0000
0000
0100
0000
0000
0001
0000
0000
0010
0000
0100
0000
0000
1000
,
0000
0000
0001
0000
1000
0000
0000
0010
0000
0000
0100
0000
0002
0000
0000
0000
,
0103
0000
0000
0000
1010
0000
1000
0001
0100
0000
0010
0000
1000
0000
0000
0001
,
0000
0000
0100
0000
0010
0000
0000
1000
0000
0000
0001
0000
0100
0000
0000
0000
,
0102
0000
2000
0000
0000
3003
1000
0100
,
0010
0000
0001
0000
0101
0000
0001
1000
0000
1000
0010
0000
0100
0000
0001
0000
,
1000
0000
0010
0000
1010
0000
1000
0100
0000
0100
0010
0000
0001
0000
0100
0000
,
1000
0000
0100
0000
0101
0000
0001
0010
0000
0001
1000
0000
0010
0000
0100
0000
,
1001
0000
0000
0001
1000
0000
0010
0000
1010
0000
0000
0000
1000
0010
0100
0001
,
1000
0000
0000
0000
0001
0100
0010
1000
0001
0000
1000
0000
0010
0100
0000
0001
,
0000
0000
1000
0000
0001
0100
0000
0010
0000
0000
0000
0000
1000
0010
0100
0010
,
1000
0000
0001
0000
1000
0010
0100
0000
0001
0100
0010
0000
0101
0000
0000
0000
,
1001
0000
0000
0000
0001
0100
0010
0000
0010
0100
0001
0000
1000
0010
0000
0100
,
0000
0000
0001
0000
1000
0100
1000
0000
0010
1000
0000
0100
0000
0000
0000
0000
,
0000
0000
1000
0010
0100
0000
0001
1000
0000
0000
0001
0100
0010
0000
1000
0001
,
0000
0000
0000
0000
0001
0100
0010
0000
1000
0000
0001
0000
0100
0000
0010
0000
,
0100
0001
1002
0000
0000
0000
1003
0010
,
0100
0002
0000
0103
0010
1000
0010
0100
,
0001
0000
1000
0000
0000
0000
0001
0010
0100
0000
1000
0000
0001
0000
0100
0000
,
0010
1000
1100
0000
1010
0000
1001
0000
,
0101
0000
2001
0000
0000
0000
3010
0100
,
0001
0000
2000
0000
0000
0000
3001
0000
0010
0000
0100
0000
0020
0000
0000
0031
,
0000
0100
0202
0303
2002
3003
2020
3030
,
2200
0000
3300
0000
1000
0100
1000
0000
0001
0010
0001
0000
1000
0100
0010
0001
,
0010
0100
1000
0100
2000
0000
0000
0000
0000
0000
0000
0000
0000
0000
0000
0000
,
3000
0000
0000
0000
1001
0000
0001
0100
0000
0100
0010
0000
1000
0000
0010
0000
,
0100
0000
0001
0000
0101
0000
0001
0100
0000
0010
1000
0000
0100
0000
1000
0000
,
0001
0000
0100
0000
1010
0000
0000
1000
0000
0000
1001
0000
0000
0100
0000
0000
,
0101
0000
0001
1000
0010
0000
0000
1000
0000
0000
1001
0000
0010
0000
0000
0000
,
1010
0000
0000
0000
1000
0000
0000
0001
0000
0000
0100
0000
0010
0000
0000
0100
,
0000
0000
0001
0000
1000
0000
0000
0001
0000
0000
0100
0000
0020
0000
0000
0000
,
1030
0000
0000
0000
1000
0000
0000
0001
0000
0000
0100
0000
0010
0000
0000
1000
,
0000
0000
0001
0000
0100
0000
0000
0010
0000
0000
1000
0000
0002
0000
0000
0000
,
1003
0000
0000
0000
0001
0000
0000
0100
0000
0000
1000
0000
0010
0000
0000
0001
,
0000
0000
1000
0000
0010
0000
0000
1000
0000
0000
0001
0000
0200
0000
0000
0000
,
0310
0000
0000
0000
1010
0000
1000
0010
0100
0000
0001
0000
0100
0000
0000
0010
,
0000
0000
1000
0000
0001
0000
0000
0100
0000
0000
0010
0000
1000
0000
0000
0000
,
0000
0000
0000
0000
0001
0000
0000
0100
0000
0000
0010
0000
1000
0000
0000
0100
,
0000
0000
0010
0000
0001
0000
0000
0100
0000
0000
0001
0000
2000
0000
0000
0000
,
3010
0000
0000
0000
0100
0000
0000
0001
0000
0000
1000
0000
0010
0000
0000
0100
,
0000
0000
0001
0000
1000
0000
0000
0001
0000
0000
1000
0000
0020
0000
0000
0000
,
0130
0000
0000
0000
0001
0000
0000
0010
0000
0000
1000
0000
0100
0000
0000
0001
,
0000
0000
1000
0000
0010
0000
0000
1000
0000
0000
0001
0000
0200
0000
0000
0000
,
0301
0000
0000
0000
1001
0000
1000
0001
0010
0000
0001
0000
0100
0000
0000
0001
,
0000
0000
1000
0000
0010
0000
0000
0100
0000
0000
0001
0000
1000
0000
0000
0000
,
0102
2000
0000
0000
,
0000
0000
0000
0000
,
3003
0000
0000
0000
0100
0000
0000
0001
0000
0000
0010
0000
0001
0000
0000
1000
,
0000
0100
1100
0000
1010
0000
0101
0000
,
0011
0000
0000
0000
0001
0000
0000
0100
0000
0000
1000
0000
0010
0000
0000
0001
,
0000
1000
0202
0000
0303
0000
2020
0000
,
3030
0000
0000
0000
1000
0000
0000
0100
0000
0000
0010
0000
0001
0000
0000
0010
,
0000
0100
1100
0000
1001
0000
0011
0001
,
1001
0000
0000
0000
1001
0000
1000
0010
0000
0100
0001
0000
1000
0000
0001
0000
,
1000
0000
0010
0000
1010
0000
0100
0001
0000
0001
1000
0000
0010
0000
0100
0000
,
0001
0000
1000
0000
1001
0000
1000
0100
0000
0100
1000
0000
0010
0000
0100
0000
,
0001
0000
1000
0000
1001
0000
0000
1100
0000
0000
0011
0000
0000
1001
0000
0000
,
1010
0110
0202
0000
0303
0000
0000
0000
;

//---------------dance-single - ----------------
#NOTES:
     dance-single:
     :
     Medium:
     7:
     0.612,0.538,0.298,0.246,0.134,865.000,69.000,57.000,0.000,0.000:
0000
0000
1000
0001
0000
0001
1000
0010
,
0100
0001
0100
0010
0000
0010
1000
0100
,
1000
0001
0010
0100
0000
1000
0100
0010
,
0001
0010
0001
1000
0000
0010
0100
0001
,
1000
0010
1000
0100
0000
0010
0001
0010
,
0100
1000
0001
0100
0000
0010
0100
0001
,
1000
0010
0100
0010
0000
1000
0100
0010
,
0001
1000
0001
0100
0000
0010
1000
0001
,
0101
0000
1000
0010
0000
0001
0100
1000
,
0001
0100
0001
1000
0000
0001
0100
1000
,
0100
0001
1000
0100
0000
0010
0001
0100
,
0001
1000
0010
0100
0000
1000
0010
0001
,
1000
0010
0100
0001
0000
0010
0100
0010
,
0001
1000
0001
1000
0000
0010
0100
1000
,
0100
0010
1000
0001
0000
0100
1000
0010
,
0001
1000
0010
0100
0000
0001
1000
0001
,
0100
0001
1000
0001
0000
0100
0001
1000
,
0010
1000
0000
1001
1000
0010
0100
0001
,
0100
0010
1000
0100
0010
0002
0000
1003
,
0010
0100
0000
0101
0001
1000
0001
0100
,
0010
0100
0001
1000
0010
0200
0000
0301
,
1000
0010
0000
1010
1000
0001
0100
0010
,
0100
0001
1000
0100
0010
0002
0000
0013
,
0100
1000
0000
0001
0100
1000
0200
0000
,
0301
0101
1100
0101
,
0001
1000
0010
1000
0000
0001
1000
0010
,
0100
0010
1000
0001
0000
0100
0001
1000
,
0010
1000
0100
0010
0000
0001
0010
0100
,
0010
0001
1000
0001
0000
0100
1000
0010
,
0001
1000
0001
0100
0000
0100
0010
0100
,
0001
1000
0010
1000
0000
0100
1000
0001
,
0100
0001
1000
0010
0000
0001
0100
1000
,
0001
1000
0001
0100
0000
1000
0100
0001
,
0100
0010
0000
0110
0010
1000
0001
0100
,
0010
1000
0100
1000
0001
0200
0000
0310
,
0100
0001
0000
0101
0001
1000
0010
1000
,
0100
1000
0001
0100
0010
2000
0000
3100
,
0010
0001
0000
0011
0001
1000
0001
0100
,
0001
0010
0100
1000
0001
0020
0000
0031
,
1000
0100
0000
1100
0100
0001
0100
1000
,
0010
0100
0101
0000
1000
0001
0100
0000
,
0220
0330
1010
1100
,
1001
0000
0011
0000
0001
0100
1000
0100
,
0001
1000
0010
0000
1000
0001
0100
0000
,
0101
0000
1001
0000
0001
1000
0010
0000
,
1100
0000
0011
0000
0001
2000
0000
3010
,
0100
0001
2000
0000
3010
0200
0000
0301
,
1000
0010
2000
0000
0100
0100
3100
0000
,
0010
0002
0000
1003
0000
0000
1100
0000
,
0011
0000
0000
0000
0001
0000
0000
0010
0000
0000
0100
0000
1000
0000
0000
0100
,
0000
0000
0010
0000
0001
0000
0000
1000
0000
0000
0010
0000
0200
0000
0000
0000
,
0301
0000
0000
0000
0010
0000
0000
0100
0000
0000
0010
0000
0001
0000
0000
1000
,
0000
0000
0001
0000
0100
0000
0000
0010
0000
0000
1000
0000
0002
0000
0000
0000
,
1003
0000
0000
0000
0010
0000
0000
1000
0000
0000
0100
0000
1000
0000
0000
0001
,
0000
0000
0100
0000
0010
0000
0000
0100
0000
0000
0001
0000
2000
0000
0000
0000
,
3010
0000
0000
0000
1010
0000
0001
0000
1000
0000
0010
0000
0100
0000
0000
0001
,
0000
0000
1000
0000
0010
0000
0000
0100
0000
0000
0001
0000
1000
0000
0000
0000
,
2001
0020
0000
0000
,
0000
0000
0000
0000
,
0000
0000
3030
0000
,
0000
0000
1001
0000
1000
0001
2000
0000
,
3000
0000
0001
1000
0000
1000
0010
0100
,
0001
0100
0010
1000
0000
0010
0001
0100
,
1000
0001
1000
0100
0000
0010
0001
0010
,
0100
1000
0001
0100
0000
0010
0100
0001
,
1000
0001
0100
0010
0000
0100
1000
0100
,
0001
0100
0001
1000
0000
1000
0010
0100
,
0001
1000
0001
1000
0000
0010
0100
0001
,
0100
0010
1000
0001
0000
1000
0010
0001
,
0100
1000
0000
1100
1000
0010
0100
0001
,
1000
0001
0100
0010
1000
0200
0000
1300
,
0010
1000
0000
0110
0010
0100
0001
1000
,
0001
0100
0010
1000
0100
2000
0000
3001
,
0010
0100
0000
0011
0001
0100
0010
1000
,
0100
1000
0010
0100
0001
0200
0000
0310
,
1000
0001
0000
1000
0100
0010
0001
0010
,
0100
1000
0001
0100
0010
1000
0002
0000
,
1003
0000
1001
1100
,
0011
0001
1000
0010
0100
0010
1000
0001
,
1000
0010
0100
0000
0001
1000
0010
0000
,
1010
0000
1100
0000
1000
0001
0100
0000
,
0101
0000
1001
0000
1000
0200
0000
0310
,
0001
1000
0010
1000
0000
0101
0000
1001
,
0000
1010
2000
0000
0001
0001
3001
0000
,
1000
0002
0000
0103
0000
0000
0101
0000
,
1010
0000
0000
0000
0010
0000
0000
1000
0000
0000
0100
0000
0010
0000
0000
0001
,
0000
0000
1000
0000
0010
0000
0000
1000
0000
0000
0001
0000
0200
0000
0000
0000
,
0310
0000
0000
0000
1000
0000
0000
0100
0000
0000
0010
0000
0001
0000
0000
1000
,
0000
0000
0010
0000
0100
0000
0000
0001
0000
0000
0100
0000
0020
0000
0000
0000
,
1030
0000
0000
0000
0001
0000
0000
0100
0000
0000
1000
0000
0100
0000
0000
0001
,
0000
0000
0100
0000
0010
0000
0000
1000
0000
0000
0100
0000
0020
0000
0000
0000
,
0031
0000
0000
0000
0011
0000
0001
0000
0100
0000
0010
0000
1000
0000
0000
0100
,
0000
0000
0010
0000
0001
0000
0000
0100
0000
0000
0010
0000
1000
0000
0000
0000
,
2100
0000
0002
0000
3003
0000
1000
0100
,
0010
0001
1000
0010
0000
0100
0001
0100
,
0010
1000
0001
0100
0000
1000
0010
0001
,
1000
0010
1000
0100
0000
1000
0010
0100
,
0001
0000
1001
1000
0001
0000
1000
0010
,
0100
0000
0000
0000
1001
0000
0001
0000
1000
0000
0100
0000
0010
0000
0000
0011
,
0000
0000
1000
0000
0010
0000
0000
1010
0000
0000
0000
0000
1000
0000
0010
0000
,
0100
0001
1000
0001
1000
0010
0100
0000
,
0110
0000
0000
0000
1000
0000
0010
0000
0100
0000
0001
0000
1000
0000
0000
1010
,
0000
0000
1000
0000
0010
0000
0100
0000
0001
0000
0000
0101
0000
0000
0000
0000
,
0000
0000
0001
0000
1000
0000
0010
1000
0000
0000
0010
0000
0100
0000
0001
1000
,
0000
0000
1001
0001
0100
1000
0100
0001
,
0100
0010
2000
0000
0000
0000
3010
0100
,
0001
0200
0000
0310
1000
0010
0100
0001
,
1000
0002
0000
0103
0010
0100
0001
1000
,
0010
1000
0002
0003
2000
3000
0200
0300
,
0010
0000
0022
0000
0033
0000
0001
0100
,
1000
0000
0100
0000
0000
0000
0001
0000
1000
0000
0100
0000
0020
0000
0000
0130
,
0000
1000
1100
0000
1010
0000
0101
0000
,
0011
0000
0001
0001
1000
1000
0010
0010
,
0100
0100
0202
0000
0000
0000
0000
0000
,
0303
0000
0001
1000
0000
1000
0010
0100
,
0001
0100
0010
1000
0000
0010
0001
0100
,
1000
0000
0001
0000
1000
0000
0000
0001
0000
0000
0100
0000
0000
0010
0000
0000
,
1000
0000
0001
0000
1000
0000
0000
0010
0000
0000
1010
0000
1000
0000
0000
0000
,
0001
0000
0000
0000
0100
0000
0000
0010
0000
0000
1000
0000
0001
0000
0000
0100
,
0000
0000
0010
0000
1000
0000
0000
0001
0000
0000
0010
0000
0200
0000
0000
0000
,
1300
0000
0000
0000
1000
0000
0000
0001
0000
0000
1000
0000
0010
0000
0000
0100
,
0000
0000
0001
0000
1000
0000
0000
0001
0000
0000
0100
0000
0020
0000
0000
0000
,
1030
0000
0000
0000
0001
0000
0000
0100
0000
0000
1000
0000
0100
0000
0000
0001
,
0000
0000
1000
0000
0010
0000
0000
1000
0000
0000
0001
0000
0200
0000
0000
0000
,
0310
0000
0000
0000
0110
0000
1000
0000
0001
0000
0100
0000
0010
0000
0000
0100
,
0000
0000
0001
0000
1000
0000
0000
0100
0000
0000
0010
0000
0002
0000
0000
0000
,
0003
0000
0000
0000
1000
0000
0000
0100
0000
0000
0010
0000
0100
0000
0000
0010
,
0000
0000
0001
0000
1000
0000
0000
0001
0000
0000
0100
0000
0020
0000
0000
0000
,
1030
0000
0000
0000
0001
0000
0000
0100
0000
0000
1000
0000
0010
0000
0000
0001
,
0000
0000
1000
0000
0010
0000
0000
1000
0000
0000
0001
0000
0200
0000
0000
0000
,
0310
0000
0000
0000
1000
0000
0000
0010
0000
0000
0100
0000
0001
0000
0000
0100
,
0000
0000
0010
0000
1000
0000
0000
0001
0000
0000
0100
0000
0020
0000
0000
0000
,
1030
0000
0000
0000
1100
0000
1000
0000
0001
0000
0100
0000
0001
0000
0000
1000
,
0000
0000
0010
0000
0100
0000
0000
0001
0000
0000
0100
0000
0010
0000
0000
0000
,
2010
0002
0000
0000
,
0000
0000
0000
0000
,
3003
0000
0000
0000
1000
0000
0000
0001
0000
0000
0100
0000
0010
0000
0000
1000
,
0000
0001
1000
0000
1100
0000
0010
0000
,
0011
0000
0000
0000
0001
0000
0000
0100
0000
0000
0010
0000
1000
0000
0000
0010
,
0000
0100
0202
0000
0303
0000
2020
0000
,
3030
0000
0000
0000
1000
0000
0000
0010
0000
0000
0001
0000
0100
0000
0000
1000
,
0000
0001
1000
0000
1001
0000
0001
1000
,
0001
0000
1000
0010
0000
0010
0100
0001
,
1000
0010
1000
0001
0000
0100
1000
0010
,
0001
1000
0001
0100
0000
0010
1000
0010
,
0100
0000
0001
0000
0101
0000
0000
0001
0000
0000
1001
0000
0000
1000
0000
0000
,
1010
1000
0002
0000
0003
0000
0000
0000
;
