#TITLE:Louder;
#SUBTITLE:Flux Pavilion & Doctor P Remix;
#ARTIST:Dj Fresh;
#TITLETRANSLIT:;
#SUBTITLETRANSLIT:;
#ARTISTTRANSLIT:;
#CREDIT:;
#BANNER:../Wubstream - ban.png;
#BACKGROUND:../Wubstream - bg.png;
#LYRICSPATH:;
#CDTITLE:;
#MUSIC:Dj Fresh - Louder (Flux Pavilion & Doctor P Remix).ogg;
#OFFSET:0.056;
#SAMPLESTART:75.316;
#SAMPLELENGTH:12.000;
#SELECTABLE:YES;
#BPMS:0.000=152.000;
#STOPS:;
#BGCHANGES:;
// cache tags:
#FIRSTBEAT:13.000;
#LASTBEAT:349.000;
#SONGFILENAME:Songs/Wubstream/Louder - [Rynker]/louder.sm;
#HASMUSIC:1;
#HASBANNER:1;
#MUSICLENGTH:140.745;
// end cache tags

//---------------dance-single - Rynker----------------
#NOTES:
     dance-single:
     Rynker:
     Challenge:
     14:
     1.000,1.000,0.036,0.206,1.000,1060.000,5.000,29.000,0.000,0.000:





0000
0000
0000
0000
,
0000
0000
0000
0000
,
0000
0000
0000
0000
,
0000
0000
0000
0000
0000
0000
1100
0000
0000
0001
0100
0001
0100
0000
0000
0010
0000
0000
1000
0000
0000
0100
0000
0000
,
0010
0001
1100
1000
0100
0010
0001
1100
,
1000
0010
0101
0100
0010
1000
0001
0000
,
0000
0000
0000
0000
,
0000
0000
0000
0000
0000
0000
0000
0000
0000
0000
0000
0000
0000
0000
0000
0000
0000
0000
2000
0000
0000
3000
0001
0000
,
0100
0010
1000
0000
0000
0001
0100
0010
1000
0000
0000
0001
,
0100
0010
1000
0002
0000
0003
0020
0000
0000
0030
0000
0001
,
0010
0100
1000
0000
0000
0001
0010
0100
1000
0000
0000
0001
,
0010
0100
1000
0002
0000
0000
2003
0000
0000
3000
0000
0010
,
1000
0100
1000
0000
0000
0010
1000
0100
1000
0000
0000
0010
,
1000
0100
1000
0002
0000
0000
0003
0000
0000
0000
0000
0000
,
0000
0000
0000
0000
,
0000
0000
0000
0000
0000
0000
0000
0000
0000
1000
0100
0010
,
0001
1000
0001
0100
0010
0100
0001
1000
0001
0010
0100
0010
,
0001
1000
0001
0100
0010
0100
0010
0100
0010
1000
0001
1000
,
0100
0010
0001
1000
0100
1000
0001
0100
0001
1000
0010
1000
,
0001
0010
0001
1000
0100
1000
0100
1000
0100
0010
0001
1000
,
0100
1000
0010
0100
0001
0100
0010
1000
0010
0100
0001
0100
,
0010
1000
0010
0100
0001
0100
0001
0100
0001
0010
0100
1000
,
0001
0100
0001
1000
0010
1000
0001
0010
0100
1000
0000
0000
,
0000
0000
0000
0000
0000
0000
0000
0000
0000
0000
0000
0000
0001
0000
0100
0000
0001
0000
1000
0100
1000
0001
0010
0100
,
1000
0001
0100
0001
1000
0010
0100
0000
0001
0000
0100
0000
0010
0000
1000
0000
0001
0000
0010
0000
0100
0000
0010
0000
,
0001
1000
0001
0100
0010
0100
0001
1000
0100
0020
0000
0000
,
0032
0000
0000
1003
0010
0100
0002
0000
0000
0023
0000
0000
,
0230
0000
0000
0000
0000
0000
2300
0000
0000
0000
0000
0000
0000
0000
3000
0000
0001
0000
0100
0010
0100
0001
1000
0010
,
0100
0001
1000
0100
1000
0001
0010
0000
0100
0000
1000
0000
0001
0000
0100
0000
0001
0000
1000
0000
0010
0000
1000
0000
,
0001
0010
0001
1000
0100
0010
0001
0010
0100
1000
0000
0000
,
0000
0002
0203
0320
,
2030
0000
0000
3000
0000
0000
2002
0000
0000
0000
0000
0000
3003
0000
0000
0000
0000
0000
1000
0001
0010
0100
0010
0001
,
1000
0001
1000
0100
0010
0001
1000
0000
0010
0000
0100
0000
0010
0000
1000
0000
0010
0000
0100
0000
0010
0000
1000
0000
,
0010
0000
0100
0000
0010
0000
2000
0000
0000
0000
0000
0000
3200
0000
0000
0000
0000
0000
0310
0001
1000
0001
0100
0010
,
0100
0001
1000
0001
0100
0010
1000
0000
0010
0000
0100
0000
0001
0000
1000
0000
0010
0000
0100
0000
0001
0000
1000
0000
,
0010
0000
0100
0001
1000
0000
0100
1000
0100
0010
0001
1000
0001
0100
0010
0100
0001
1000
0100
1000
0001
0010
0100
1000
,
0100
0010
0001
1000
0001
0100
0010
0000
1000
0000
0010
0000
0100
0000
0001
0000
0100
0000
0010
0000
1000
0000
0010
0000
,
0100
0000
0001
0000
0100
0000
0010
0000
1000
0000
0001
0100
0010
0000
1000
0000
0010
0000
0200
0000
0000
0000
0000
0000
,
0000
0000
0000
0302
,
0000
0000
0000
0000
0000
0000
2003
0000
0000
0000
0000
0000
3001
0000
0010
0000
0100
0000
1000
0100
0010
0001
1000
0001
,
0100
0010
0100
0001
1000
0100
0010
0000
0001
0000
1000
0000
0001
0000
0100
0000
0001
0000
1000
0100
0010
0001
1000
0001
,
0100
0010
0100
0001
1000
0100
0010
0000
0001
0000
0010
0000
0100
0000
1000
0000
0001
0000
0100
0010
0100
0001
1000
0010
,
0100
0001
1000
0100
1000
0001
0010
0000
0001
0000
0100
0000
0010
0000
1000
0000
0010
0000
0100
0010
1000
0001
0100
0001
,
0010
0100
1000
0100
0010
0001
1000
0000
0100
0000
0010
0000
0001
1000
0100
0010
0001
1000
0001
0100
0010
0100
0001
1000
,
0010
0100
0010
1000
0001
0100
0001
0000
1000
0000
0100
0000
0010
0000
0100
0000
1000
0000
0001
0100
0010
0100
0001
1000
,
0100
1000
0001
0010
0100
1000
0001
0000
0100
0000
0010
0000
0100
0000
0001
0000
1000
0000
0100
0010
0001
0010
0100
1000
,
0001
0100
0010
0100
0001
1000
0100
0000
0010
0000
0001
0000
1000
0000
0001
0000
0100
0000
0010
0100
0001
1000
0100
1000
,
0010
0100
0001
1000
0010
0100
0001
0000
1000
0000
0100
0000
0010
0001
1000
0100
1000
0001
0100
0010
0100
0001
1000
0010
,
0100
0001
1000
0100
1000
0001
0010
0000
0001
0000
0100
0000
0010
0000
1000
0000
0100
0000
1000
0001
0010
0100
0010
0001
,
1000
0100
1000
0001
0100
0010
1000
0000
0001
0000
0100
0000
0010
0000
1000
0000
0001
0000
0010
0100
1000
0100
0010
0001
,
1000
0001
0100
0010
0100
0001
1000
0000
0010
0000
0100
0000
0001
0000
1000
0000
0100
0000
0010
0001
0100
0010
1000
0001
,
0010
0001
1000
0010
0100
0001
1000
0000
0010
0000
0100
0000
0001
0100
0010
1000
0010
0100
0001
1000
0100
1000
0001
0010
,
0100
0010
0001
1000
0001
0100
0010
0000
1000
0000
0010
0000
0100
0000
0001
0000
1000
0000
0100
0010
0001
0010
0100
1000
,
0001
0100
0010
0100
0001
1000
0100
0000
0010
0000
0001
0000
0100
0000
0010
0000
1000
0000
0001
0010
0100
1000
0001
1000
,
0010
0100
0001
1000
0010
1000
0001
0000
0000
0000
0000
0000
0000
0000
0000
0000
0000
0000
0000
0000
0000
0000
0000
0000
,
0000
0000
0000
0000
0000
0000
0000
0000
0000
1000
0100
0010
,
0001
1000
0001
0100
0010
0100
0001
1000
0001
0010
0100
0010
,
0001
1000
0001
0100
0010
0100
0010
0100
0010
1000
0001
1000
,
0100
0010
0001
1000
0100
1000
0001
0100
0001
1000
0010
1000
,
0001
0010
0001
1000
0100
1000
0100
1000
0100
0010
0001
1000
,
0100
1000
0010
0100
0001
0100
0010
1000
0010
0100
0001
0100
,
0010
1000
0010
0100
0001
0100
0001
0100
0001
0010
0100
1000
,
0001
0100
0001
1000
0010
1000
0001
0010
0100
1000
0000
0000
,
0000
0000
0000
0000
0000
0000
0000
0000
0000
0000
0000
0000
0001
0000
0100
0000
0010
0000
1000
0001
0010
0100
1000
0010
,
0100
0001
0100
0010
1000
0001
1000
0000
0001
0000
0100
0000
0001
0000
1000
0000
0100
0000
1000
0000
0001
0000
0010
0000
,
0001
0000
1000
0000
0001
0000
0200
0000
0000
0000
0000
0000
0320
0000
0000
0000
0000
0000
1030
0001
0100
0001
0010
0100
,
1000
0010
0100
0001
1000
0100
0010
0000
0001
0000
1000
0000
0001
0000
1000
0000
0001
0000
1000
0000
0001
0000
1000
0000
,
0010
0000
0100
0001
1000
0000
0002
0000
0000
0000
0000
0000
0003
0000
1000
0000
0001
0000
0100
0010
1000
0100
1000
0001
,
0010
0001
1000
0010
0100
0001
1000
0000
0001
0000
0100
0000
0001
0000
0001
0000
0010
0000
0001
0000
0001
0000
0100
0000
,
0001
0000
0001
0000
1000
0000
0001
0000
0001
0000
1000
0100
1000
0000
0001
0000
0100
0000
0020
0000
0000
0000
0000
0000
,
0000
0000
0000
2030
,
0000
0000
0000
0000
0000
0000
3200
0000
0000
0000
0000
0000
0310
0000
0001
0000
1000
0000
0001
0010
0100
1000
0001
1000
,
0010
0100
0010
1000
0001
0010
0100
0000
1000
0000
0001
0000
1000
0000
0010
0000
1000
0000
0001
0010
0100
1000
0001
1000
,
0010
0100
0010
1000
0001
0010
0100
0000
1000
0000
0100
0000
0010
0000
0001
0000
1000
0000
0010
0100
0010
1000
0001
0100
,
0010
1000
0001
0010
0001
1000
0100
0000
1000
0000
0010
0000
0100
0000
0001
0000
0100
0000
0010
0100
0001
1000
0010
1000
,
0100
0010
0001
0100
0010
1000
0001
0000
0010
0000
0100
0000
1000
0001
0010
0100
1000
0001
1000
0010
0100
0001
1000
0001
,
0010
0100
1000
0001
1000
0001
0010
0000
0001
0000
1000
0000
0100
0000
0010
0000
0001
0000
1000
0010
0100
0001
1000
0001
,
0010
0100
0010
0001
1000
0010
1000
0000
0010
0000
0100
0000
0010
0000
1000
0000
0001
0000
0010
0100
1000
0100
0010
0001
,
1000
0010
1000
0100
0010
0001
1000
0000
0100
0000
1000
0000
0001
0000
1000
0000
0010
0000
0100
0010
1000
0001
0010
0001
,
0100
0010
1000
0001
0010
0100
1000
0000
0001
0000
0010
0000
0100
1000
0001
0010
0001
1000
0010
0100
0010
1000
0001
0100
,
0010
1000
0001
0010
0001
1000
0100
0000
1000
0000
0010
0000
0100
0000
0001
0000
0010
0000
0001
1000
0100
0010
0100
1000
,
0001
0010
0001
1000
0010
0100
0001
0000
1000
0000
0010
0000
0100
0000
0001
0000
1000
0000
0100
0010
0001
0010
0100
1000
,
0001
1000
0010
0100
0010
1000
0001
0000
0100
0000
0010
0000
1000
0000
0001
0000
0010
0000
0100
1000
0010
0100
0001
0010
,
0100
1000
0001
0100
0010
1000
0001
0000
0100
0000
0010
0000
1000
0010
0100
0001
0100
0010
1000
0001
0010
0001
1000
0100
,
0010
0100
1000
0001
1000
0010
0100
0000
0001
0000
0100
0000
0010
0000
1000
0000
0001
0000
0010
0100
1000
0100
0010
0001
,
1000
0010
0100
0010
1000
0001
0010
0000
0100
0000
1000
0000
0010
0000
0100
0000
0001
0000
1000
0100
1000
0010
0100
0001
,
0010
0001
1000
0010
0100
0010
1000
0000
0000
0000
0000
0000
0001
0000
0000
0000
0000
0000
0100
0000
0000
0000
0000
0000
,
0010
1000
0000
0000
;

//---------------dance-single - Rynker----------------
#NOTES:
     dance-single:
     Rynker:
     Hard:
     11:
     0.900,1.000,0.092,0.213,1.000,844.000,13.000,30.000,0.000,0.000:

0000
0000
0000
0000
,
0000
0000
0000
0000
,
0000
0000
0000
0000
,
0000
0000
0000
0000
0000
0000
1100
0000
0000
0001
0100
0001
0100
0000
0000
0010
0000
0000
1000
0000
0000
0100
0000
0000
,
0010
0001
1100
1000
0100
0010
0001
1100
,
1000
0010
0101
0100
0010
1000
0001
0000
,
0000
0000
0000
0000
,
0000
0000
0000
0000
0000
0000
0000
0000
0000
0000
0000
0000
0000
0000
0000
0000
0000
0000
2000
0000
0000
3000
0001
0000
,
0100
0010
1000
0000
0000
0001
0100
0010
1000
0000
0000
0001
,
0100
0010
1000
0002
0000
0003
0020
0000
0000
0030
0000
0001
,
0010
0100
1000
0000
0000
0001
0010
0100
1000
0000
0000
0001
,
0010
0100
1000
0002
0000
0000
2003
0000
0000
3000
0000
0010
,
1000
0100
1000
0000
0000
0010
1000
0100
1000
0000
0000
0010
,
1000
0100
1000
0002
0000
0000
0003
0000
0000
0000
0000
0000
,
0000
0000
0000
0000
,
0000
0000
0000
0000
0000
0000
0000
0000
0000
1000
0100
0010
,
0001
1000
0001
0100
0010
0100
0001
1000
0001
0010
0100
0010
,
0001
1000
0001
0100
0010
0100
0010
0100
0010
1000
0001
1000
,
0100
0010
0001
1000
0100
1000
0001
0100
0001
1000
0010
1000
,
0001
0010
0001
1000
0100
1000
0100
1000
0100
0010
0001
1000
,
0100
1000
0010
0100
0001
0100
0010
1000
0010
0100
0001
0100
,
0010
1000
0010
0100
0001
0100
0001
0100
0001
0010
0100
1000
,
0001
0100
0001
1000
0010
1000
0001
0010
0100
1000
0000
0000
,
0000
0000
0000
0000
0000
0000
0001
0100
0001
4000
0000
0000
,
0000
0000
0000
3001
1000
0010
0100
0001
1000
0100
0010
0100
,
1000
0001
1000
0010
0100
0010
1000
0001
0010
0200
0000
0000
,
2300
0000
0000
3001
0100
0010
2000
0000
0000
3200
0000
0000
,
0320
0000
0000
0000
0000
0000
0032
0000
0000
0000
0000
0000
0000
0000
0000
0003
1000
0000
0040
0000
0000
0000
0000
0000
,
0000
0000
0000
0130
0001
1000
0100
0010
0001
1000
0010
1000
,
0001
0010
0001
1000
0100
0010
0001
0010
0100
1000
0000
0000
,
0000
0002
0203
0320
,
2030
3000
2002
0000
3003
0000
4000
0000
,
0000
0000
0000
3001
0100
0010
0100
0001
0100
0010
0100
0001
,
0100
0010
0100
0002
0000
0000
0023
0000
0000
0430
0000
0000
,
0000
0000
0000
1300
0010
0100
0001
1000
0010
0100
0001
1000
,
0010
0000
0100
0001
1000
0000
0200
0000
0000
0000
0000
0000
0000
0000
0000
0000
0000
0000
4300
0000
0000
0000
0000
0000
,
0000
0000
0000
3001
1000
0010
0100
0001
0100
0010
1000
0010
,
0100
0000
0001
0000
0100
0000
0010
0000
1000
0000
0001
0100
0010
0000
1000
0000
0010
0000
0200
0000
0000
0000
0000
0000
,
0000
0000
0000
0302
,
0000
0000
0000
0000
0000
0000
0000
0000
0000
0000
0000
0000
2003
0000
0000
0000
0000
0000
0000
0000
0000
0000
0000
0000
3001
0000
0000
0000
0010
0000
0000
0000
0100
0000
0000
0000
1000
0000
0000
0001
0000
0000
0100
0000
0000
0010
0000
0000
,
1000
0000
0000
0100
0000
0000
0010
0000
0000
0001
0000
0000
0100
0000
0000
0000
0001
0000
0000
0000
1000
0000
0000
0000
0001
0000
0000
0000
0100
0000
0000
0000
0001
0000
0000
0000
1000
0000
0000
0010
0000
0000
0100
0000
0000
0001
0000
0000
,
1000
0000
0000
0100
0000
0000
0010
0000
0000
0001
0000
0000
0100
0000
0000
0000
0001
0000
0000
0000
0010
0000
0000
0000
0100
0000
0000
0000
1000
0000
0000
0000
0001
0000
0000
0000
0100
0000
0000
0010
0000
0000
1000
0000
0000
0100
0000
0000
,
1000
0000
0000
0010
0000
0000
0100
0000
0000
0001
0000
0000
0010
0000
0000
0000
0001
0000
0000
0000
0100
0000
0000
0000
0010
0000
0000
0000
1000
0000
0000
0000
0010
0000
0000
0000
0100
0000
0010
0000
1000
0000
0001
0000
0100
0000
0001
0000
,
0010
0000
0100
0000
1000
0000
0100
0000
0010
0000
0001
0000
1000
0000
0000
0000
0100
0000
0000
0000
0010
0000
0000
0000
0001
0000
0000
1000
0000
0000
0010
0000
0000
0100
0000
0000
0001
0000
0000
0010
0000
0000
0100
0000
0000
1000
0000
0000
,
0100
0000
0000
0010
0000
0000
0001
0000
0000
1000
0000
0000
0001
0000
0000
0000
1000
0000
0000
0000
0100
0000
0000
0000
0010
0000
0000
0000
0100
0000
0000
0000
1000
0000
0000
0000
0001
0000
0000
0100
0000
0000
0010
0000
0000
0100
0000
0000
,
0001
0000
0000
0010
0000
0000
0100
0000
0000
1000
0000
0000
0010
0000
0000
0000
1000
0000
0000
0000
0001
0000
0000
0000
0100
0000
0000
0000
0001
0000
0000
0000
1000
0000
0000
0000
0100
0000
0000
0010
0000
0000
0001
0000
0000
1000
0000
0000
,
0100
0000
0000
1000
0000
0000
0001
0000
0000
0100
0000
0000
0010
0000
0000
0000
1000
0000
0000
0000
0001
0000
0000
0000
1000
0000
0000
0000
0001
0000
0000
0000
0100
0000
0000
0000
0001
0000
1000
0000
0001
0000
1000
0000
0100
0000
0010
0000
,
0001
0000
1000
0000
0001
0000
1000
0000
0010
0000
0100
0000
0001
0000
0000
0000
1000
0000
0000
0000
0100
0000
0000
0000
0010
0000
0000
0001
0000
0000
0100
0000
0000
0010
0000
0000
0100
0000
0000
0001
0000
0000
0010
0000
0000
0100
0000
0000
,
1000
0000
0000
0100
0000
0000
0010
0000
0000
0001
0000
0000
1000
0000
0000
0000
0001
0000
0000
0000
0100
0000
0000
0000
0010
0000
0000
0000
1000
0000
0000
0000
0100
0000
0000
0000
1000
0000
0000
0001
0000
0000
0100
0000
0000
0010
0000
0000
,
0100
0000
0000
0001
0000
0000
1000
0000
0000
0100
0000
0000
1000
0000
0000
0000
0001
0000
0000
0000
0100
0000
0000
0000
0010
0000
0000
0000
1000
0000
0000
0000
0001
0000
0000
0000
0100
0000
0000
0010
0000
0000
0100
0000
0000
0001
0000
0000
,
1000
0000
0000
0100
0000
0000
0010
0000
0000
0001
0000
0000
1000
0000
0000
0000
0010
0000
0000
0000
0100
0000
0000
0000
0001
0000
0000
0000
1000
0000
0000
0000
0100
0000
0000
0000
0010
0000
0001
0000
1000
0000
0001
0000
1000
0000
0010
0000
,
0100
0000
0001
0000
1000
0000
0001
0000
1000
0000
0010
0000
0100
0000
0000
0000
0001
0000
0000
0000
0100
0000
0000
0000
0001
0000
0000
0100
0000
0000
0001
0000
0000
1000
0000
0000
0010
0000
0000
0100
0000
0000
0001
0000
0000
1000
0000
0000
,
0100
0000
0000
1000
0000
0000
0001
0000
0000
0010
0000
0000
0100
0000
0000
0000
1000
0000
0000
0000
0010
0000
0000
0000
0100
0000
0000
0000
0001
0000
0000
0000
1000
0000
0000
0000
0001
0000
0000
0100
0000
0000
0010
0000
0000
0100
0000
0000
,
0001
0000
0000
0010
0000
0000
0100
0000
0000
1000
0000
0000
0100
0000
0000
0000
0010
0000
0000
0000
0001
0000
0000
0000
0100
0000
0000
0000
0010
0000
0000
0000
1000
0000
0000
0000
0001
0000
0000
0100
0000
0000
0010
0000
0000
1000
0000
0000
,
0010
0100
0001
1000
0100
0000
0000
0000
0000
0000
0000
0000
0000
0000
0000
0000
,
0000
0000
0000
0000
0000
0000
0000
0000
0000
1000
0100
0010
,
0001
1000
0001
0100
0010
0100
0001
1000
0001
0010
0100
0010
,
0001
1000
0001
0100
0010
0100
0010
0100
0010
1000
0001
1000
,
0100
0010
0001
1000
0100
1000
0001
0100
0001
1000
0010
1000
,
0001
0010
0001
1000
0100
1000
0100
1000
0100
0010
0001
1000
,
0100
1000
0010
0100
0001
0100
0010
1000
0010
0100
0001
0100
,
0010
1000
0010
0100
0001
0100
0001
0100
0001
0010
0100
1000
,
0001
0100
0001
1000
0010
1000
0001
0010
0100
1000
0000
0000
,
0000
0000
0000
0000
0000
0000
0001
0100
0010
4000
0000
0000
,
0000
0000
0000
3001
1000
0010
1000
0001
0010
0001
1000
0100
,
1000
0001
1000
0020
0000
0000
0230
0000
0000
0304
0000
0000
,
0000
0000
0000
1003
0100
0010
0001
1000
0100
0010
0001
1000
,
0010
0000
0100
0001
1000
0000
0002
0000
0000
0000
0000
0000
0003
0000
0000
0000
1000
0000
0400
0000
0000
0000
0000
0000
,
0000
0000
0000
1300
1000
0010
1000
1000
0100
1000
1000
0010
,
1000
0000
1000
0000
0001
0000
1000
0000
1000
0000
0001
0010
0001
0000
1000
0000
0010
0000
0200
0000
0000
0000
0000
0000
,
0000
0000
0000
0302
,
0000
0000
0000
0000
0000
0000
0000
0000
0000
0000
0000
0000
0023
0000
0000
0000
0000
0000
0000
0000
0000
0000
0000
0000
0130
0000
0000
0000
1000
0000
0000
0000
0001
0000
0000
0000
1000
0000
0000
0001
0000
0000
0100
0000
0000
0010
0000
0000
,
1000
0000
0000
0100
0000
0000
0010
0000
0000
0001
0000
0000
0100
0000
0000
0000
0001
0000
0000
0000
1000
0000
0000
0000
0001
0000
0000
0000
0100
0000
0000
0000
0001
0000
0000
0000
1000
0000
0000
0010
0000
0000
0100
0000
0000
0001
0000
0000
,
1000
0000
0000
0100
0000
0000
0010
0000
0000
0001
0000
0000
0100
0000
0000
0000
0001
0000
0000
0000
0010
0000
0000
0000
0100
0000
0000
0000
1000
0000
0000
0000
0001
0000
0000
0000
0100
0000
0000
0010
0000
0000
1000
0000
0000
0100
0000
0000
,
1000
0000
0000
0010
0000
0000
0100
0000
0000
0001
0000
0000
0010
0000
0000
0000
0001
0000
0000
0000
0100
0000
0000
0000
0010
0000
0000
0000
1000
0000
0000
0000
0010
0000
0000
0000
0100
0000
0010
0000
1000
0000
0001
0000
0100
0000
0001
0000
,
0010
0000
0100
0000
1000
0000
0100
0000
0010
0000
0001
0000
1000
0000
0000
0000
0100
0000
0000
0000
0010
0000
0000
0000
0001
0000
0000
1000
0000
0000
0010
0000
0000
0100
0000
0000
0001
0000
0000
0010
0000
0000
0100
0000
0000
1000
0000
0000
,
0100
0000
0000
0010
0000
0000
0001
0000
0000
1000
0000
0000
0001
0000
0000
0000
1000
0000
0000
0000
0100
0000
0000
0000
0010
0000
0000
0000
0100
0000
0000
0000
1000
0000
0000
0000
0001
0000
0000
0100
0000
0000
0010
0000
0000
0100
0000
0000
,
0001
0000
0000
0010
0000
0000
0100
0000
0000
1000
0000
0000
0010
0000
0000
0000
1000
0000
0000
0000
0001
0000
0000
0000
0100
0000
0000
0000
0001
0000
0000
0000
1000
0000
0000
0000
0100
0000
0000
0010
0000
0000
0001
0000
0000
1000
0000
0000
,
0100
0000
0000
1000
0000
0000
0001
0000
0000
0100
0000
0000
0010
0000
0000
0000
1000
0000
0000
0000
0001
0000
0000
0000
1000
0000
0000
0000
0001
0000
0000
0000
0100
0000
0000
0000
0001
0000
1000
0000
0001
0000
1000
0000
0100
0000
0010
0000
,
0001
0000
1000
0000
0001
0000
1000
0000
0010
0000
0100
0000
0001
0000
0000
0000
1000
0000
0000
0000
0100
0000
0000
0000
0010
0000
0000
0001
0000
0000
0100
0000
0000
0010
0000
0000
0100
0000
0000
0001
0000
0000
0010
0000
0000
0100
0000
0000
,
1000
0000
0000
0100
0000
0000
0010
0000
0000
0001
0000
0000
1000
0000
0000
0000
0001
0000
0000
0000
0100
0000
0000
0000
0010
0000
0000
0000
1000
0000
0000
0000
0100
0000
0000
0000
1000
0000
0000
0001
0000
0000
0100
0000
0000
0010
0000
0000
,
0100
0000
0000
0001
0000
0000
1000
0000
0000
0100
0000
0000
1000
0000
0000
0000
0001
0000
0000
0000
0100
0000
0000
0000
0010
0000
0000
0000
1000
0000
0000
0000
0001
0000
0000
0000
0100
0000
0000
0010
0000
0000
0100
0000
0000
0001
0000
0000
,
1000
0000
0000
0100
0000
0000
0010
0000
0000
0001
0000
0000
1000
0000
0000
0000
0010
0000
0000
0000
0100
0000
0000
0000
0001
0000
0000
0000
1000
0000
0000
0000
0100
0000
0000
0000
0010
0000
0001
0000
1000
0000
0001
0000
1000
0000
0010
0000
,
0100
0000
0001
0000
1000
0000
0001
0000
1000
0000
0010
0000
0100
0000
0000
0000
0001
0000
0000
0000
0100
0000
0000
0000
0001
0000
0000
0100
0000
0000
0001
0000
0000
1000
0000
0000
0010
0000
0000
0100
0000
0000
0001
0000
0000
1000
0000
0000
,
0100
0000
0000
1000
0000
0000
0001
0000
0000
0010
0000
0000
0100
0000
0000
0000
1000
0000
0000
0000
0010
0000
0000
0000
0100
0000
0000
0000
0001
0000
0000
0000
1000
0000
0000
0000
0001
0000
0000
0100
0000
0000
0010
0000
0000
0100
0000
0000
,
0001
0000
0000
0010
0000
0000
0100
0000
0000
1000
0000
0000
0100
0000
0000
0000
0010
0000
0000
0000
0001
0000
0000
0000
0100
0000
0000
0000
0010
0000
0000
0000
1000
0000
0000
0000
0001
0000
0000
0100
0000
0000
0010
0000
0000
1000
0000
0000
,
0010
0100
0001
1000
0001
0000
0000
0000
1000
0000
0000
0000
0010
0000
0000
0000
,
0100
0001
0000
0000
;
