#TITLE:Boss;
#SUBTITLE:Legend of Dragoon;
#ARTIST:Dennis Martin;
#TITLETRANSLIT:;
#SUBTITLETRANSLIT:;
#ARTISTTRANSLIT:;
#CREDIT:;
#BANNER:bn.PNG;
#BACKGROUND:bg.PNG;
#LYRICSPATH:;
#CDTITLE:rr-ddr-v3.PNG;
#MUSIC:LoD_Boss2.mp3;
#OFFSET:0.000;
#SAMPLESTART:10.007;
#SAMPLELENGTH:12.000;
#SELECTABLE:YES;
#BPMS:0.000=115.950;
#STOPS:106.000=0.776
;
#BGCHANGES:;
// cache tags:
#FIRSTBEAT:0.000;
#LASTBEAT:138.500;
#SONGFILENAME:Songs/toune 2/Boss - Legend of Dragoon/Boss.sm;
#HASMUSIC:1;
#HASBANNER:1;
#MUSICLENGTH:76.225;
// end cache tags

//---------------dance-single - ----------------
#NOTES:
     dance-single:
     :
     Challenge:
     10:
     0.750,0.659,1.000,0.157,0.886,309.000,79.000,12.000,0.000,0.000:
1001
0000
0100
0000
0010
0100
0010
0000
1000
0100
0010
0001
0200
0000
0000
0300
,
0001
0010
0100
0010
0002
0000
0010
0000
0103
1000
0010
0100
0001
0100
0010
1000
,
0100
1000
0001
0010
0100
1000
0100
0001
0100
1000
0010
0001
0020
0000
0000
0000
,
1030
0100
0010
0001
0200
0000
0000
0000
0310
1000
0100
0010
0001
0010
0100
1000
,
0010
0000
0000
0100
0000
0000
0001
0000
0000
0100
0000
0000
0010
0000
0100
0000
0001
0000
0100
0000
0010
0000
0100
0000
0011
0000
0000
0000
0000
0000
0110
0000
0000
0000
0000
0000
0000
0000
0000
1001
0000
0000
0000
0000
0000
0000
0000
0000
,
0010
0100
0010
0100
0020
0000
0000
0000
1030
0100
0010
0001
0200
0000
0000
0000
,
0310
1010
0000
0110
0000
0011
0000
1001
0100
0000
0110
0000
0000
1100
0000
0000
,
0101
0000
0000
0000
0011
0000
0000
0000
1000
0100
0010
0001
0100
0000
1001
0000
,
0100
0000
0000
0000
0000
0000
1001
0000
0000
0000
0000
0000
0100
0000
0010
0000
0001
0000
0010
0000
0001
0000
0010
0000
0100
0000
0000
0000
0000
0000
0010
0000
0000
0000
0000
0000
0000
0000
0000
0100
0000
0000
0000
0000
0000
0000
0000
0000
,
1000
0100
0010
0100
1000
0000
0000
0000
0001
0010
0100
1000
0010
0000
0000
0000
,
1000
0001
0000
0010
0000
0100
0000
1000
0010
0000
0100
0000
0000
0101
0000
0000
,
0011
0000
0000
0000
1100
0000
0000
0000
0010
0100
0001
0010
0100
0000
0000
0000
,
0220
0000
0000
0000
0000
0000
0000
0000
0330
0000
0000
0000
0001
0000
0100
0000
0010
0000
1000
0000
0100
0000
0010
0000
0011
0000
0000
0000
0000
0000
1100
0000
0000
0000
0000
0000
0000
0000
0000
0011
0000
0000
0000
0000
0000
0000
0000
0000
,
0100
0010
1000
0001
0100
0000
0000
0000
0100
0010
0001
0100
0010
0000
0000
0000
,
1000
0110
0000
1010
0000
0101
0000
0101
0010
0000
0000
1010
0000
0000
1100
0000
,
0110
0000
0000
0011
0000
0000
0101
0000
0110
0000
0000
1010
0000
0000
1100
0000
,
0110
0000
0000
0011
0000
0000
0101
0000
0110
0000
0000
1010
0000
0000
1100
0000
,
0110
0000
0000
1001
0000
0000
0101
0000
0110
0000
0000
1010
0000
0000
1100
0000
,
0110
0000
0000
0011
0000
0000
0101
0000
2002
0000
0000
0000
0000
0000
3003
0000
,
0010
1000
0001
1000
0010
0000
0000
0000
0010
0100
0001
0010
0100
0000
0000
0000
,
1000
0110
0000
1010
0000
0101
0000
0110
0010
0000
1100
0000
0000
0101
0000
0000
,
0110
0000
0001
0000
0101
0000
0000
0000
1000
0100
0010
0001
0100
0000
0000
0000
,
0010
0000
0000
0000
0000
0000
0000
0000
0000
0000
0000
0000
0100
0000
1000
0000
0100
0000
0001
0000
0100
0000
1000
0000
0100
0000
0000
0000
0000
0000
1010
0000
0000
0000
0000
0000
0000
0000
0000
0011
0000
0000
0000
0000
0000
0000
0000
0000
,
0110
0010
0100
0001
1000
0000
0000
0000
0010
0100
0001
0010
0100
0000
0000
0000
,
1000
0110
0000
1100
0000
0011
0000
0110
0100
0000
0000
1000
0000
0000
0010
0000
,
0100
0000
0000
0001
0000
0000
0010
0000
0100
0000
0000
1000
0000
0000
0010
0000
,
0100
0000
0000
0000
0000
0000
0000
0000
0000
0000
0000
0000
0100
0000
0010
0000
0100
0000
1000
0000
0100
0000
0010
0000
0101
0000
0000
0000
0000
0000
1000
0000
0000
0100
0000
0000
0010
0000
0000
0000
0000
0000
0000
0000
0000
0001
0000
0000
,
0000
0000
0010
0100
0000
1000
0000
0010
0000
0010
0100
0001
0010
0100
1000
0001
,
0000
1100
0110
0011
1001
0220
0000
0000
,
0000
0000
0000
0000
,
0330
0000
1000
0010
1000
0001
0010
0100
1000
0000
0100
0010
0100
0010
0100
0000
,
0000
0000
1000
0100
0000
0010
0000
0001
0000
0100
0010
1000
0001
0100
0010
0000
,
0000
0000
1100
0000
1100
0000
1100
0000
1100
0000
1000
0100
0010
0001
0100
0000
,
0000
0000
0010
1000
0000
0100
0000
0010
0000
0001
0100
0010
1000
0100
0010
0000
,
0000
1001
1100
0011
0110
1001
0000
0000
;

//---------------dance-single - ----------------
#NOTES:
     dance-single:
     :
     Hard:
     8:
     0.558,0.613,0.302,0.262,0.643,255.000,23.000,20.000,0.000,0.000:
1001
0000
0100
0000
0010
0100
0010
0000
1000
0100
0010
0001
0100
0000
0000
0000
,
0010
1000
0100
0010
0001
0000
0100
0000
0020
0000
0000
0000
0000
0000
0000
0000
,
0230
0000
0000
0000
0000
0000
0000
0000
1300
0100
0010
0001
0100
0000
0000
0000
,
0010
1000
0100
0010
0001
0000
0000
0000
0202
0000
0000
0000
0000
0000
0303
0000
,
2200
3300
0000
0220
0330
0000
0022
0033
0101
0000
1000
0000
0000
0010
0000
0000
,
1000
0001
0100
0001
0010
0000
0000
0000
0001
0100
0010
1000
0100
0000
0000
0000
,
0100
0001
0000
1000
0000
0010
0000
1000
0100
0000
0010
0000
0000
0001
0000
0000
,
0100
0000
0000
0000
0110
0000
0000
0000
1000
0100
0010
0001
0100
0000
0000
0000
,
0010
2000
3200
0010
,
0320
0000
0000
0000
0031
0000
0000
0000
0100
0010
1000
0100
0010
0000
0000
0000
,
0001
0010
0000
1000
0000
0010
0000
0001
0010
1000
0010
1000
0010
0000
0000
0000
,
0001
0000
0000
0000
0010
0000
0000
0000
0100
1000
0010
0100
0001
0000
0000
0000
,
0010
0000
0000
0000
0200
0000
0000
0000
0310
0000
1000
0000
0000
0001
0000
0000
,
0100
0010
1000
0001
0100
0000
0000
0000
0100
0010
0001
0100
0010
0000
0000
0000
,
1000
0100
0000
0010
0000
0001
0000
0100
0010
0000
0000
1000
0000
0000
0100
0000
,
0010
0000
0000
0001
0000
0000
0100
0000
0010
0000
0000
1000
0000
0000
0100
0000
,
0010
0000
0000
0001
0000
0000
0100
0000
0010
0000
0000
1000
0000
0000
0100
0000
,
0010
0000
0000
0001
0000
0000
0100
0000
0010
0000
0000
1000
0000
0000
0100
0000
,
0010
0000
0000
0001
0000
0000
0100
0000
2002
0000
0000
0000
0000
0000
3003
0000
,
0010
1000
0001
1000
0010
0000
0000
0000
0010
0100
0001
0010
0100
0000
0000
0000
,
1000
0010
0000
1000
0000
0001
0000
0100
0010
0000
1000
0000
0000
0100
0000
0000
,
0010
0000
0001
0000
0101
0000
0000
0000
1000
0100
0010
0001
0100
0000
0000
0000
,
0010
0000
0000
0000
2000
0000
0000
0000
0100
3000
0010
0000
0000
0001
0000
0000
,
0010
0000
0100
0000
1000
0000
0000
0000
0010
0100
0001
0010
0100
0000
0000
0000
,
1000
0010
0000
0100
0000
0001
0000
0010
0100
0000
0000
1000
0000
0000
0010
0000
,
0100
0000
0000
0001
0000
0000
0010
0000
0100
0000
0000
1000
0000
0000
0010
0000
,
0100
0000
0000
0000
0002
0000
0000
0000
0103
0000
1000
0100
0010
0000
0000
0001
,
0000
0000
0010
0100
0000
1000
0000
0010
0000
0010
0100
0001
0010
0100
1000
0001
,
0000
1100
0110
0011
1001
0220
0000
0000
,
0000
0000
0000
0000
,
0330
0000
1000
0010
1000
0001
0010
0100
1000
0000
0100
0010
0100
0010
0100
0000
,
0000
0000
1000
0100
0000
0010
0000
0001
0000
0100
0010
1000
0001
0100
0010
0000
,
0000
0000
1100
0000
1100
0000
1100
0000
1100
0000
1000
0100
0010
0001
0100
0000
,
0000
0000
0010
1000
0000
0100
0000
0010
0000
0001
0100
0010
1000
0100
0010
0000
,
0000
1001
1100
0011
0110
1001
0000
0000
;

//---------------dance-single - ----------------
#NOTES:
     dance-single:
     :
     Medium:
     5:
     0.322,0.386,0.105,0.328,0.092,139.000,8.000,25.000,0.000,0.000:
0000
0000
1000
0100
,
0010
0000
0001
1000
0200
0000
0000
0000
,
0320
0000
0000
0000
1030
0001
0010
0000
,
0010
0001
1000
0000
0200
0000
0000
0000
,
0310
0000
0000
0001
0000
0000
0010
0000
0100
0000
1000
0000
0000
0010
0000
0000
,
0100
0001
0010
0100
,
1000
0000
0000
0000
0100
0000
0000
0000
0011
0000
0100
0000
0000
1000
0000
0000
,
0010
1001
0100
0010
,
0100
1000
0200
0000
,
0320
0000
0032
0000
,
0023
0000
0230
0000
,
2300
0000
3020
0000
,
0032
0000
0023
0000
,
2030
0000
3200
0000
,
0320
0000
0000
0000
0000
0000
0000
0030
0001
0000
0000
1000
0000
0000
0010
0000
,
0100
0000
0000
0001
0000
0000
0100
0000
0010
0000
0000
1000
0000
0000
0010
0000
,
0100
0000
0000
0001
0000
0000
0100
0000
0010
0000
0000
1000
0000
0000
0010
0000
,
0100
0000
0000
0001
0000
0000
0010
0000
0100
0000
0000
1000
0000
0000
0100
0000
,
0010
0000
0000
0001
0000
0000
0010
0000
2002
0000
0000
0000
0000
0000
3003
0000
,
0220
0000
0000
0000
0000
0000
0000
0330
2020
0000
0000
0000
0000
0000
0000
3030
,
0202
0000
0000
0303
0010
0000
0100
0000
,
1000
0010
0100
0001
,
0010
0000
1000
0100
1000
0000
0010
0000
,
0100
0001
0010
0100
,
1000
0000
0000
0000
0010
0000
0000
0000
1000
0000
0000
0001
0000
0000
0010
0000
,
0100
0000
0000
1000
0000
0000
0010
0000
0100
0000
0000
0010
0000
0000
1000
0000
,
0100
0000
0010
0000
1001
1000
0000
0100
,
0000
0010
0000
0001
0000
0100
0000
0010
,
0000
1000
0100
0010
0001
2002
0000
0000
,
0000
0000
0000
0000
,
3003
0000
0000
0000
0000
1000
0100
0010
,
0000
0001
0000
0100
0000
0010
0000
0001
,
0000
0010
0001
1000
0100
0010
0001
0100
,
0000
0001
0000
0100
0000
0100
0010
0001
,
0000
0100
0010
1000
0100
1000
0000
0000
;

//---------------dance-single - ----------------
#NOTES:
     dance-single:
     :
     Easy:
     2:
     0.242,0.227,0.026,0.394,0.000,97.000,2.000,30.000,0.000,0.000:
0000
0000
1000
0100
,
0010
0100
2000
0000
,
3002
0000
0013
0100
,
1000
0010
0200
0000
,
0302
0000
0000
0003
0001
0000
0100
0000
,
0010
1000
0100
0010
,
0001
0000
1000
0100
,
0010
0001
0010
0100
,
1000
0000
0020
0000
,
0230
0000
2300
0000
,
3200
0000
0320
0000
,
0032
0000
0023
0000
,
0230
1300
0200
0000
,
0320
0000
0230
0000
,
2300
0000
3100
0000
,
0010
0000
0100
0000
,
1000
0000
0001
0000
,
0100
0000
0010
0000
,
1000
0000
0200
0000
,
0320
0000
0032
0000
,
0023
0000
0230
0000
,
2300
0000
3200
0000
,
0320
0031
0002
0000
,
0023
0000
0230
0000
,
2300
0000
3100
0010
,
0001
0010
0100
1000
,
0010
0000
0100
0000
0010
1000
0000
0001
,
0000
0010
0000
0100
0000
0100
0000
0100
,
0000
1000
0000
0010
0000
2002
0000
0000
,
0000
0000
0000
0000
0000
0000
0000
3003
,
0000
0100
0000
0010
0000
1000
0000
0100
,
0000
0010
0000
0001
0000
1000
0000
0100
,
0000
0100
0000
0100
0000
1000
0000
0100
,
0000
0010
0000
0010
0000
0001
0000
0001
,
0000
0010
0000
0100
0000
1001
0000
0000
;
