#TITLE:Lost Souls In Endless Time;
#SUBTITLE:;
#ARTIST:Dragonforce;
#TITLETRANSLIT:;
#SUBTITLETRANSLIT:;
#ARTISTTRANSLIT:;
#CREDIT:B. Abear;
#BANNER:Bn-Lost.png;
#BACKGROUND:Bg-Lost.png;
#LYRICSPATH:;
#CDTITLE:;
#MUSIC:Lost Souls In Endless Time.ogg;
#OFFSET:-0.262;
#SAMPLESTART:62.557;
#SAMPLELENGTH:19.270;
#SELECTABLE:YES;
#BPMS:0.000=200.000,1208.000=123.000,1222.000=130.500,1228.000=200.000;
#STOPS:;
#BGCHANGES:;
// cache tags:
#FIRSTBEAT:0.000;
#LASTBEAT:1247.500;
#SONGFILENAME:Songs/Dragonforce/Lost Souls In Endless Time/Lost Souls In Endless Time.sm;
#HASMUSIC:1;
#HASBANNER:1;
#MUSICLENGTH:382.040;
// end cache tags

//---------------dance-single - B. Abear----------------
#NOTES:
     dance-single:
     B. Abear:
     Challenge:
     16:
     1.000,1.000,0.272,0.503,1.000,3360.000,104.000,192.000,124.000,1.000:




2200
0000
0000
0000
,
0000
0000
0000
0000
,
0000
0000
0000
0000
,
0000
0000
0000
3300
,
0210
0000
0000
0000
,
0000
0000
0000
0000
,
M01M
0000
0000
0000
,
0000
0000
1000
1000
1000
1000
1000
1300
,
2002
0000
0000
0000
,
0000
0000
0000
0000
,
0000
0000
0000
0003
3002
0000
0000
0000
,
0203
0000
0000
0000
0320
0000
0000
0030
,
2040
0000
0000
0000
0000
3000
2030
0000
,
3002
0000
0000
0000
,
MM10
0000
0000
0000
,
0000
0000
1000
1000
1000
1000
1000
1003
,
1020
0000
0000
0230
,
0302
0000
0000
0000
,
MM10
0000
2003
0000
,
3200
0000
0000
0000
0000
0000
0320
0000
0000
0000
0000
0031
,
1002
0000
0000
0000
0000
0000
0103
0010
,
2000
0000
0000
0000
,
0000
0000
0000
0000
,
0000
0000
3002
0000
0023
0000
0230
0300
,
2100
0000
0000
3002
0000
0000
0103
0010
,
2020
0000
0000
0000
0000
0000
0000
3030
,
1002
0000
0000
0023
0000
0000
0130
0000
,
1100
1000
0002
0000
0000
0000
0000
0003
,
0201
0000
0000
0000
0000
0000
0310
1000
,
0002
0000
0000
0000
0000
0000
0000
0000
0000
0003
0020
0000
0000
0000
0000
0000
0000
0000
0130
0000
0000
0000
0000
0000
,
1200
0000
0000
0000
,
1300
0001
1000
0001
1000
0000
0000
0000
0001
1000
0001
1000
0001
0000
0000
0000
,
1000
0100
1000
0000
0100
0010
0100
0000
0010
0001
0010
0000
0001
1000
0001
0000
,
0100
0001
0100
0000
0010
0100
0010
0000
0100
0001
2000
0000
3002
0000
0003
0000
,
1000
0200
0000
0320
0000
0032
0000
4MM3
,
0000
0MM0
0000
0MM0
0000
0MM0
0000
3000
,
0020
0000
0230
0000
0302
0000
2003
0000
3001
0010
0200
0000
2300
0000
3002
0000
,
2003
3200
0302
0403
0300
1000
1000
1000
,
1000
0000
0000
0010
0000
0000
0100
0000
0000
0001
0000
0000
1000
0000
0000
0100
0000
0000
0010
0002
0000
0000
0000
0000
,
1003
0010
1000
0010
0100
0010
0100
0010
0100
0001
0100
0001
1000
0001
1000
0001
,
0010
0100
0010
0000
0011
0000
0001
0000
1001
0000
0101
0000
0100
0000
0010
0000
,
1010
0001
1100
0001
2000
3002
2003
3000
,
0010
0100
0001
0000
0101
0000
0100
0000
0010
1000
0001
0000
0011
0000
0010
0000
,
0100
1000
0001
0010
0100
1000
0001
0010
0200
0000
0000
0000
0000
0000
0000
0000
,
1300
0000
0001
0000
0100
0001
0100
0000
0010
0000
1000
0000
0001
0010
0001
0000
,
1000
0000
0100
0000
0010
0100
0010
0000
0001
0000
1000
0000
0001
0100
0001
0000
,
1000
0000
0010
0000
0100
0001
0100
0000
0001
0000
1000
0000
0001
0010
0001
0000
,
0010
0000
0100
0000
1000
0100
1000
0000
0010
0000
0100
0000
0001
0100
0001
0000
,
1000
0000
0001
0000
1000
0100
1000
0000
0010
0000
0100
0000
0001
1000
0001
0000
,
1000
0000
0001
0000
0010
0001
0010
0000
0100
0000
1000
0000
0001
0100
0001
0000
,
1000
0010
0100
0001
1000
0010
0100
0001
1000
0010
0100
0001
1000
0010
0100
0001
,
1000
0100
1000
0100
0010
0100
0010
0100
0010
0001
0010
0001
1000
0001
1000
0001
,
0010
0100
1000
0001
0100
0001
1000
0010
0100
0001
0100
0010
1000
0001
0010
0100
,
2000
0000
3001
0100
0010
1000
0002
0000
1003
0100
0010
0001
2000
0000
3002
0000
,
0103
0010
1000
0001
0100
0001
1000
0100
0010
0100
1000
0001
1000
0001
0010
0100
,
0020
0000
0031
1000
0001
0100
0020
0000
0130
0001
1000
0001
0020
0000
0230
0000
,
23MM
0000
0000
0000
3001
0100
0010
1000
0001
0100
0001
1000
0001
0010
0100
1000
,
0200
0000
0310
0001
1000
0001
0200
0000
0310
1000
0001
1000
0200
0300
0020
0000
,
0031
0000
1000
0000
0001
0100
0001
0000
1000
0100
1000
0000
0001
0010
0001
0000
,
1000
0100
1000
0100
0010
0100
0010
0100
1000
0001
1000
0001
0100
0001
0100
0001
,
1000
0100
0010
0001
1000
0010
0100
0001
1000
0100
1000
0001
0100
0001
1000
0010
,
0100
0001
0100
0010
1000
0001
0010
0001
0010
0100
1000
0001
1000
0010
0100
0000
,
0101
0000
0001
1000
0100
1000
0100
0000
0110
0000
0010
0001
1000
0001
1000
0000
,
1001
0000
0000
0000
0101
0000
0000
0000
M10M
0010
0100
0010
0100
0010
0100
0010
,
1000
0001
0010
0001
0010
0100
1000
0100
0010
0100
1000
0001
0100
0001
1000
0010
,
0100
0010
1000
0001
0010
0100
1000
0001
1000
0001
0100
0001
1000
0010
1000
0100
,
0010
0001
0010
0001
1000
0001
1000
0001
0100
0001
0100
0001
0100
0010
0100
0010
,
1000
0001
1000
0001
0010
0001
0010
0001
0010
0100
0010
0100
1000
0100
1000
0100
,
0040
0000
0000
0000
0031
1000
0100
0000
0010
0000
0001
0000
0100
0001
1000
0000
,
0020
0000
0100
0000
0130
0001
1000
0000
0001
0000
0010
0000
0100
1000
0001
0000
,
2000
0000
0010
0000
3010
0100
0001
0000
1000
0000
0001
0000
0010
0100
1000
0000
,
0002
0000
0100
0000
0103
0010
100M
0000
00M1
0000
0M10
0000
M100
0000
1000
0000
,
0001
0000
0100
0000
0010
0100
0001
0000
1000
0000
0001
0000
0010
0001
1000
0000
,
0020
0000
0100
0000
0130
0001
1000
0000
0001
0000
0010
0000
0100
1000
0001
0000
,
1000
0000
0010
0000
0100
0001
1000
0000
0100
0000
0010
0000
0001
1000
0010
0000
,
1000
0100
0010
0001
1000
0100
0010
0001
1000
0100
0010
0001
1000
0100
0010
0001
,
2000
0000
0010
0000
3010
0100
0001
0100
0001
1000
0100
0010
0001
1000
0100
1000
,
0002
0000
0103
0M10
10M0
M001
001M
00M1
,
200M
0000
0100
0000
3100
0010
0001
0000
1000
0000
0001
0000
0100
0010
1000
0000
,
0002
0000
0100
0000
0103
0010
1M00
0000
01M0
0000
001M
0000
M001
0100
0010
0000
,
0200
0000
0001
0000
0301
1000
0100
0000
0010
0000
0001
0000
1000
0001
0100
0000
,
0010
1000
0001
0100
0001
0100
0010
1000
0001
0100
0001
0100
0001
1000
0001
1000
,
0100
0010
0001
1000
0100
0010
0001
1000
0100
0010
0001
1000
0100
0010
0001
1000
,
0001
0100
0001
0100
0001
0100
0001
0100
0101
0000
0000
0000
MMMM
0000
0000
0000
,
0001
0100
0010
1000
0001
0100
0001
1000
0100
1000
0001
0010
0001
0010
0100
1000
,
0001
0100
0010
0100
0001
1000
0001
0010
0100
1000
0001
0100
0001
1000
0100
1000
,
0010
0100
0001
0100
0010
0100
0001
1000
0001
1000
0100
1000
0001
0010
0100
1000
,
0001
0000
0100
0000
0010
1000
0010
0000
0100
0000
0001
0000
1000
0100
1000
0000
,
0001
0010
0100
1000
0001
0010
0100
0010
0001
1000
0010
0100
0001
0000
0001
0000
,
1000
0100
0010
0100
0010
0001
1000
0001
0100
0010
1000
0001
1000
0000
1000
0000
,
0001
0000
0010
0000
0100
0010
0100
0000
1000
0000
0001
0000
0100
0001
0100
0000
,
0010
1000
0010
1000
0010
0100
0010
0100
0001
0100
0001
0000
0101
0000
0100
0000
,
0001
0010
0100
1000
0001
0100
0001
1000
0100
1000
0001
0010
0100
1000
0001
0100
,
0001
0100
0010
0100
0010
1000
0001
0010
0100
1000
0001
0100
0001
1000
0100
0010
,
0001
1000
0100
1000
0001
0100
0010
0100
0001
1000
0001
1000
0100
0010
0001
1000
,
0010
0100
0001
0100
0001
1000
0100
0010
0100
1000
0001
0100
0001
0010
0100
1000
,
0001
0100
0010
0100
0001
0100
0001
1000
0100
1000
0001
0010
0001
1000
0100
0010
,
0001
1000
0010
0100
0001
0100
0010
1000
0001
0010
0001
1000
0100
0010
0001
0000
,
1000
0100
0010
0100
0010
0100
1000
0100
0010
0100
0010
0100
1000
0001
1000
0001
,
0100
0010
1000
0001
0100
0010
1000
0000
1010
0000
0000
0000
00M0
0000
0000
0000
,
0010
0100
0010
0100
0001
0100
0001
0100
0001
1000
0001
1000
0100
1000
0100
1000
,
0100
0010
0100
0010
0001
0010
0001
0010
0001
1000
0001
1000
0010
1000
0010
0000
,
1010
1000
1001
0001
0011
0010
0110
0100
,
1000
0100
1000
0100
0010
0100
0010
0100
1000
0001
0100
0001
1000
0001
0100
0001
,
1000
1000
0200
0310
0002
1003
0020
0130
,
0001
0001
0200
0310
2000
3002
2003
3002
,
0013
0100
0010
0000
0200
0000
1300
0000
0010
0100
0010
0000
0200
0000
0301
0000
,
1000
0001
1000
0000
0002
0000
0013
0000
0100
1000
0100
1000
0004
0000
0000
0000
,
1003
1000
0020
0130
0002
1003
0200
0310
,
0001
0010
0001
1000
0010
0100
0001
1000
0001
0100
0010
1000
0100
0010
0001
0010
,
0100
1000
0100
1000
0001
1000
0001
1000
0010
0100
0010
0100
0001
0100
0001
0100
,
0010
1000
0001
0000
0011
0000
1001
0000
1000
0010
1000
0010
0100
0001
0100
0001
,
1000
0000
0001
0000
0100
0001
0100
0000
0010
0000
1000
0000
0001
0010
0001
0000
,
1000
0000
0100
0000
0010
0100
0010
0000
0001
0000
1000
0000
0001
0100
0001
0000
,
1000
0000
0010
0000
0100
0001
0100
0000
0001
0000
1000
0000
0001
0010
0001
0000
,
0010
0000
0100
0000
1000
0100
1000
0000
0010
0000
0100
0000
0001
0100
0001
0000
,
1000
0000
0001
0000
1000
0100
1000
0000
0010
0000
0100
0000
0001
1000
0001
0000
,
1000
0000
0001
0000
0010
0001
0010
0000
0100
0000
1000
0000
0001
0100
0001
0000
,
4000
0004
0000
0000
0000
0000
0000
0000
0000
0000
0000
0000
3003
0000
0000
0000
,
1000
0100
1000
0100
0010
0100
0010
0100
0010
0001
0010
0001
1000
0001
1000
0001
,
0010
0100
1000
0001
0100
0001
1000
0010
0100
0001
0100
0010
1000
0001
0010
0100
,
2000
0000
3001
0100
0010
1000
0002
0000
1003
0100
0010
0001
2000
0000
3002
0000
,
0103
0010
1000
0001
0100
0001
1000
0100
0010
0100
1000
0001
1000
0001
0010
0100
,
0020
0000
0031
1000
0001
0100
0020
0000
0130
0001
1000
0001
0020
0000
0230
0000
,
23MM
0000
0000
0000
3001
0100
0010
1000
0001
0100
0001
1000
0001
0010
0100
1000
,
0200
0000
0310
0001
1000
0001
0200
0000
0310
1000
0001
1000
0200
0300
0020
0000
,
0031
1000
0100
1000
0001
0100
0010
0100
0001
1000
0001
1000
0100
0010
0001
1000
,
0001
0010
0001
0010
0100
0010
0100
0010
0001
1000
0001
1000
0010
1000
0010
1000
,
0001
0010
0100
1000
0001
0100
0010
1000
0001
0010
0001
1000
0010
1000
0001
0100
,
0010
1000
0010
0100
0001
1000
0100
1000
0100
0010
0001
1000
0001
0100
0010
0000
,
1010
0000
1000
0001
0010
0001
0010
0000
0110
0000
0100
1000
0001
1000
0001
0000
,
1001
0000
0000
0000
1010
0000
0000
0000
M01M
0100
0010
0100
0010
0100
0010
0100
,
0001
1000
0100
1000
0100
0010
0001
0010
0100
0010
0001
1000
0010
1000
0001
0100
,
0010
0100
0001
1000
0100
0010
0001
1000
0001
1000
0010
1000
0001
0100
0001
0010
,
0100
1000
0100
1000
0001
1000
0001
1000
0010
1000
0010
1000
0010
0100
0010
0100
,
0001
1000
0001
1000
0100
1000
0100
1000
0100
0010
0100
0010
0001
0010
0001
0010
,
0200
0000
1000
0000
1300
0001
0010
0000
0100
0000
1000
0000
0010
1000
0001
0000
,
0200
0000
0010
0000
0310
1000
0001
0000
1000
0000
0100
0000
0010
0001
1000
0000
,
0002
0000
0100
0000
0103
0010
1000
0000
0001
0000
1000
0000
0100
0010
0001
0000
,
2000
0000
0010
0000
3010
0100
M001
0000
1M00
0000
01M0
0000
001M
0000
0001
0000
,
1000
0000
0010
0000
0100
0010
1000
0000
0001
0000
1000
0000
0100
1000
0001
0000
,
0200
0000
0010
0000
0310
1000
0001
0000
1000
0000
0100
0000
0010
0001
1000
0000
,
0001
0000
0100
0000
0010
1000
0001
0000
0010
0000
0100
0000
1000
0001
0100
0000
,
0001
0010
0100
1000
0001
0010
0100
1000
0001
0010
0100
1000
0001
0010
0100
1000
,
0002
0000
0100
0000
0103
0010
1000
0010
1000
0001
0010
0100
1000
0001
0010
0001
,
2000
0000
3010
01M0
0M01
100M
M100
1M00
,
M002
0000
0010
0000
0013
0100
1000
0000
0001
0000
1000
0000
0010
0100
0001
0000
,
2000
0000
0010
0000
3010
0100
00M1
0000
0M10
0000
M100
0000
100M
0010
0100
0000
,
0020
0000
1000
0000
1030
0001
0010
0000
0100
0000
1000
0000
0001
1000
0010
0000
,
0200
0000
0001
0000
0301
1000
0100
0000
0010
0000
0100
0000
1000
0001
0010
0000
,
0001
0010
0001
0010
0001
0010
0001
0010
0001
0010
0001
0010
0001
0010
0001
0000
,
0044
0033
4004
3003
4040
0000
3030
0000
,
1000
0010
0100
0001
1000
0010
1000
0001
0010
0001
1000
0100
1000
0100
0010
0001
,
1000
0010
0100
0010
1000
0001
1000
0100
0010
0001
1000
0010
1000
0001
0010
0001
,
0100
0010
1000
0010
0100
0010
1000
0001
1000
0001
0010
0001
1000
0100
0010
0001
,
1000
0100
0010
0001
1000
0000
1000
0000
0001
0100
0010
1000
0001
0000
0001
0000
,
1000
0100
0010
0001
1000
0100
0010
0100
1000
0001
0100
0010
1000
0000
1000
0000
,
0001
0010
0100
0010
0100
1000
0001
1000
0010
0100
0001
1000
0001
0000
0001
0000
,
1000
0100
0010
0001
0010
0100
1000
0001
0100
0010
1000
0001
0100
0001
1000
0100
,
0010
0001
0010
0001
1000
0001
1000
0001
1000
0010
1000
0010
0100
0010
0100
0010
,
1000
0100
0010
0001
1000
0010
1000
0001
0010
0001
1000
0100
0010
0001
1000
0010
,
1000
0010
0100
0010
0100
0001
1000
0100
0010
0001
1000
0010
1000
0001
0010
0100
,
1000
0001
0010
0001
1000
0010
0100
0010
1000
0001
1000
0001
0010
0100
1000
0001
,
0100
0010
1000
0010
1000
0001
0010
0100
0010
0001
1000
0010
1000
0100
0010
0001
,
1000
0010
0100
0010
1000
0010
1000
0001
0010
0001
1000
0100
1000
0001
0010
0100
,
1000
0001
0100
0010
1000
0010
0100
0001
1000
0100
1000
0001
0010
0100
1000
0000
,
0001
0010
0100
0010
0100
0010
0001
0010
0100
0010
0100
0010
0001
1000
0001
1000
,
0010
0100
0001
1000
0010
0100
0001
0000
0101
0000
0000
0000
0M00
0000
0000
0000
,
0100
0010
0100
0010
1000
0010
1000
0010
1000
0001
1000
0001
0010
0001
0010
0001
,
0010
0100
0010
0100
1000
0100
1000
0100
1000
0001
1000
0001
0100
0001
0100
0000
,
0101
0101
1001
1001
1100
1100
0110
0110
,
0010
0001
0010
0001
1000
0001
1000
0001
1000
0010
0100
0010
1000
0010
0100
0010
,
2000
0000
0000
0000
3001
0000
0010
0000
0001
1000
0001
0010
0001
1000
0001
0000
,
0011
0000
0010
0100
1000
0001
0100
0001
2000
0000
0000
0000
0000
0000
3000
0000
,
1010
0001
1000
0100
0011
1000
0001
0100
,
1001
0010
0100
0001
1200
0320
0032
2003
,
3010
0100
0001
1000
0001
1000
0100
0010
0001
1000
0001
0100
0020
0000
0000
0000
,
1030
0001
0000
0100
0000
0000
0010
1000
0000
0001
0000
0000
1000
0100
0000
0010
0000
0000
0001
1000
0000
0010
0000
0000
,
0100
0001
1000
0100
1000
0001
0100
0001
1000
0100
1000
0001
0200
0000
0300
0000
,
0110
0000
0010
0000
1010
0000
1000
0000
0001
0010
0001
0010
0001
0010
0001
0010
,
0100
1000
0001
0100
0001
1000
0010
1000
0001
0010
0100
1000
0001
0100
0010
1000
,
0002
0203
0302
0203
0302
0203
0302
0203
,
0304
4000
0000
0000
0000
0000
0000
0000
0000
0000
0000
0000
0000
3003
0000
0000
,
1000
0100
0010
0001
0010
0100
1000
0010
0100
0001
0100
0010
,
1000
0010
0100
0001
1000
0100
0010
0100
1000
0001
0100
0010
0100
0001
1000
0001
,
0020
0230
0320
0230
0320
0230
0320
0230
,
1300
0000
0000
0001
0000
0000
0100
0000
0000
0001
0000
0000
1000
0000
0010
0000
0000
0000
0100
0000
0001
0000
0000
0000
1000
0000
0100
0000
0000
0000
0010
0000
0001
0000
0000
0000
1000
0000
0010
0000
0000
0000
0100
0000
0001
0000
0000
0000
,
2000
0000
0000
3020
0000
0000
0230
0000
0000
0302
0000
0000
1003
0000
0100
0000
0010
0000
0001
0000
0010
0000
0100
0000
,
1000
0010
0100
1000
0100
0001
0010
0100
0001
0100
1000
0001
,
1000
0100
0010
0001
0010
0100
1000
0010
0100
0001
0100
0010
,
1000
0001
0100
0101
0001
1000
0100
1000
0001
0011
0010
0100
,
1000
0001
0100
0101
0001
1000
0010
0100
0010
1010
1000
0001
,
0010
0100
1000
1100
0100
0010
0001
1000
0001
0101
0100
0010
,
1000
0001
1000
1001
0001
0010
0100
1000
0100
0110
0010
0001
,
1000
0001
0100
0101
0001
1000
0010
0100
0001
1001
1000
0100
,
0010
0001
0010
0011
0001
1000
0100
1000
0010
0110
0100
0001
,
1000
0001
0010
0011
0001
1000
0010
0100
0001
1001
1000
0100
,
0010
0001
1000
1001
0001
0100
0010
0100
1000
0100
0001
1000
,
0001
0010
0100
1100
1000
0001
0100
0001
1000
1001
0001
0010
,
0100
1000
0001
0101
0100
0010
0100
0001
1000
1100
0100
0010
,
0001
1000
0010
0110
0100
0001
1000
0001
0010
0011
0001
1000
,
0100
0010
0100
1100
1000
0001
0100
0010
0100
0101
0001
1000
,
0200
0000
0000
0311
0001
1000
0001
0100
0010
1010
1000
0001
,
0010
0000
0100
0000
1000
0000
1100
0000
0100
0000
0010
0000
0002
0000
0000
2003
0000
0000
3002
0000
0000
2003
0000
0000
,
3001
0100
0010
1010
1000
0001
0010
0100
1000
1100
0100
0010
,
0011
0000
0000
MMMM
0000
0000
0000
MMMM
0000
0000
0000
0000
,
0001
0000
0001
0000
0100
0010
1000
0001
1000
0100
0010
0001
1000
0001
0100
0010
,
1000
0000
1000
0000
0010
0100
0001
1000
0001
0010
0100
1000
0001
0000
0400
0000
,
0310
0010
1000
0001
0011
0000
1001
0000
,
2020
0000
0000
0000
0000
0000
0030
0000
0040
0000
0000
0000
0000
0030
3000
0000
,
1000
0010
1000
0010
0100
0001
0100
0001
1000
0010
1000
0010
0100
0001
0100
0001
,
1000
0100
1000
0100
0010
0001
0010
0001
1000
0100
1000
0100
0010
0001
0010
0001
,
1000
0010
0100
0010
1000
0001
0100
0001
1000
0010
0100
0010
1000
0001
0100
0001
,
1000
0100
1000
0100
0010
0100
0010
0100
1000
0001
1000
0001
0100
0001
0100
0001
,
1000
0010
0000
0404
0000
0303
0002
0000
,
1003
0100
0000
0044
0000
0033
0020
0000
,
0230
0000
0000
2300
0000
0000
3002
0000
,
0203
0000
0310
4000
0000
0000
0000
0000
,
3001
0000
0100
0000
0001
0000
0100
0000
0000
0010
0000
0000
1000
0000
0000
0001
0000
0000
0010
0000
0001
0000
1000
0000
0001
0000
0000
1000
0000
0000
0010
0000
0000
0100
0000
0000
0001
0000
1000
0000
0001
0000
1000
0000
0000
0100
0000
0000
,
0010
0000
0001
0000
1000
0000
0001
0000
0000
0010
0000
0000
0001
0000
0000
1000
0000
0000
0010
0000
0100
0000
0010
0000
1000
0000
0000
0001
0000
0000
0010
0000
0000
0100
0000
0000
1000
0000
0001
0000
0100
0000
0001
0000
0000
1000
0000
0000
,
0001
0010
0001
0010
0001
1000
0001
1000
0001
0010
0001
0010
0001
1000
0001
1000
,
0010
0100
0010
0100
0010
0100
0010
0100
0010
0100
0010
0000
1001
0000
0000
0000
,
2000
0000
0000
0000
0000
0000
0000
0000
0000
0000
0000
0000
3200
0000
0000
0000
0000
0000
0000
0000
0000
0310
0000
0001
,
1000
0000
0001
1000
0000
0001
0100
0000
0001
0100
0000
0010
0100
0000
0010
0100
0000
0000
0002
0000
0000
0000
0000
0000
,
1003
0100
0010
0001
1000
0001
0100
0010
1000
0001
0010
0001
1000
0010
0100
0001
,
1000
0100
1000
0100
0010
0100
0010
0100
0010
0001
0010
0001
1000
0001
1000
0001
,
0200
0000
0000
0000
0000
0000
0000
0000
0320
0000
0000
0000
0000
0000
1030
0001
,
0200
0000
0000
0000
0000
0000
0310
1000
,
0001
0100
0010
1000
0001
0010
0100
1000
0001
0100
0001
1000
0100
1000
0001
0010
,
0100
1000
0100
1000
0001
1000
0001
1000
0100
1000
0100
1000
0001
1000
0001
1000
,
0010
0000
0100
0000
0001
0000
1000
0000
0001
0010
0100
1000
0001
0100
0010
1000
,
0001
0000
1000
0010
0100
0001
0040
0000
0000
0000
0000
0000
0000
0000
0000
0000
,
0130
1000
0100
1000
0001
1000
0001
1000
0001
0100
0001
0100
0010
1000
0001
0010
,
0100
1000
0001
0201
0000
0000
0020
0330
,
0100
0001
1000
0100
2000
0000
3001
0010
0100
1000
0001
0100
0010
0100
0001
1000
,
0100
0000
0000
1000
0000
0000
0001
0000
0000
0010
0000
0000
0100
0000
0000
0010
0000
0000
0001
0000
0000
0000
0000
0000
1000
0000
0001
0000
0000
0000
0100
0000
0001
0000
0000
0000
1000
0000
0020
0000
0000
0000
0000
0000
0000
0000
0000
0000
,
0130
0000
0000
0001
0000
0000
1000
0000
0000
0100
0000
0000
1000
0000
0000
0001
0000
0000
0010
0000
0000
0100
0000
0000
1000
0000
0001
0000
0000
0000
0100
0000
0001
0000
0000
0000
0100
0000
0010
0000
0000
0000
1000
0000
0000
0001
0000
0000
,
0010
0100
0010
0100
1000
0100
1000
0100
1000
0001
1000
0001
0100
0001
0100
0001
,
1000
0000
0000
0000
0000
0000
0000
0000
0000
0000
0000
0000
0000
0100
0000
0000
0000
0000
0000
0000
0000
0000
0000
0000
1000
0000
0000
0000
0000
0000
0000
0000
0000
0000
0000
0000
0000
0001
0000
0000
0000
0000
0000
0000
0000
0000
0000
0000
1000
0000
0000
0000
0000
0000
0000
0000
0000
0000
0000
0000
0000
0100
0000
0000
0000
0000
0000
0000
0000
0000
0000
0000
1000
0000
0000
0000
0000
0000
0000
0000
0000
0000
0000
0000
0000
0001
0000
0000
0000
0000
0000
0000
0000
0000
0000
0000
1000
0000
0000
0000
0000
0000
0000
0000
0000
0000
0000
0000
0000
0100
0000
0000
0000
0000
0000
0000
0000
0000
0000
0000
1000
0000
0000
0000
0000
0000
0000
0000
0000
0000
0000
0000
0000
0001
0000
0000
0000
0000
0000
0000
0000
0000
0000
0000
1000
0000
0000
0000
0000
0000
0000
0000
0000
0000
0000
0000
0010
0000
0000
0000
0000
0000
0000
0000
0000
0000
0000
0000
0100
0000
0000
0000
0000
0000
0000
0000
0000
0000
0000
0000
0010
0000
0000
0000
0000
0000
0000
0000
0000
0000
0000
0000
,
1000
0000
0001
0000
0000
0000
1000
0000
0010
0000
0000
0000
1000
0000
0001
0000
0000
0000
0010
0000
0100
0000
0000
0000
1000
0000
0000
0001
0000
0000
1000
0000
0000
0010
0000
0000
0100
0000
0000
0001
0000
0000
1000
0000
0000
0001
0000
0000
,
0020
0000
0130
0000
1000
0001
1000
0010
0100
0001
1000
0100
2000
0000
3002
0000
,
0103
0000
0010
0000
1000
0000
0004
0000
0000
0000
0000
0000
,
1003
0100
1000
0001
0100
0010
0100
0001
1000
0100
1000
0001
0100
0010
0100
0001
,
1000
0010
0100
0001
1000
0100
0010
0001
1000
0001
0100
0010
2000
0000
0000
0000
,
3001
0100
0001
0100
0010
0100
0010
0100
0001
1000
0001
1000
0100
1000
0100
1000
,
0001
0100
0001
0100
0010
1000
0010
1000
0001
0010
0100
1000
0001
0010
0100
1000
,
0002
0000
0103
0020
0000
1030
0002
0013
,
0100
2000
0000
0000
3002
0000
0203
0000
,
0320
0000
0000
2030
0000
3001
0000
0000
,
2000
0200
0000
0000
0000
0000
0000
0000
0000
0000
0000
0000
0000
0000
0000
0000
0000
0000
0000
0000
3300
0000
0000
0000
,
1000
0010
0100
0200
0000
0310
1000
0001
,
0040
0000
0000
0000
0130
1000
0004
0000
,
1003
0010
0100
0001
1000
0100
0010
0001
2000
0000
3020
0000
0230
0000
0302
0000
,
1003
0100
1000
0100
0010
0100
0010
0100
0010
0001
0010
0001
1000
0001
1000
0001
,
0100
0000
0010
1000
0001
1000
0100
0010
0001
1000
0001
1000
0100
0010
0001
1000
,
0010
0100
0010
1000
0001
0100
0010
1000
0001
0010
0001
1000
0100
00MM
0000
0000
,
0010
0000
0000
0001
0000
0000
1000
0000
0000
0010
0100
0000
0001
0000
0000
1000
0000
0000
0000
0000
0000
0001
0000
0000
,
1000
0000
0010
0000
0000
0000
0100
0000
0000
0000
0000
0000
0001
0000
0000
0000
0000
0000
2000
0000
0000
0000
0000
0000
0200
0000
0000
0000
0000
0000
3000
0000
0000
0000
0000
0000
130M
0000
0000
00M0
0000
0000
0M00
0000
0000
M000
0000
0000
,
0001
0100
0010
1000
0001
1000
0100
0010
,
0001
1000
0000
0010
0000
0000
0100
0000
0000
0001
0000
0000
1001
0000
0000
1000
0000
0000
0100
0000
0000
0010
0000
0000
,
0001
1000
0001
1000
0001
1000
0001
1000
0010
0100
0010
0100
0010
0100
0010
0100
,
0001
1000
0001
1000
0100
1000
0100
1000
0100
0010
0100
0010
0001
0010
0001
0010
,
0200
1000
0310
0200
1000
0310
0200
1300
,
0001
0000
0100
0000
0000
0000
0010
0000
0000
0000
0000
0000
1000
0000
0000
0010
0000
0000
0100
0000
0000
0001
0000
0000
1000
0000
0000
0100
0000
0000
0010
0000
0000
0001
0000
0000
2000
0000
0000
0000
0000
0000
0000
0000
0000
0000
0000
0000
,
3001
0010
0001
0010
0100
0010
0100
0010
0100
1000
0100
1000
0001
1000
0001
1000
,
0010
0100
0001
1000
0010
0100
0001
1000
0010
0100
0001
1000
0010
0100
0001
1000
,
0001
M000
0000
000M
0000
00M0
0000
M000
,
0000
000M
0000
0M00
0000
M000
0000
000M
,
0000
00M0
0000
0M00
0000
000M
0000
M000
,
0000
0M00
0000
000M
0000
M000
0000
00M0
,
0000
000M
0000
M000
0000
00M0
0000
0M00
,
0000
000M
0000
M000
0000
0M00
0000
000M
,
0000
00M0
0000
000M
0000
M000
0000
0M00
,
1000
0001
1000
0001
1000
0001
1000
0001
1000
0001
1000
0001
1000
0001
1000
0001
,
1000
0100
0010
0001
1000
0010
1000
0001
0100
0010
1000
0001
0010
0001
1000
0100
,
1000
0001
0010
0100
0010
0100
1000
0001
1000
0010
0100
0001
0010
0001
1000
0100
,
1000
0001
0100
0001
0100
0010
1000
0001
0010
0100
0010
0001
1000
0100
1000
0001
,
1000
0010
0100
0010
0100
0001
1000
0100
0010
0001
1000
0100
0010
0001
1000
0010
,
1000
0001
0100
0010
0100
0001
1000
0010
0100
0010
1000
0001
0010
0100
1000
0001
,
0010
0001
1000
0010
1000
0001
0100
0010
1000
0001
0010
0100
1000
0001
0100
0010
,
1000
0100
0010
0001
1000
0100
0010
0001
1000
0100
0010
0001
1000
0100
0010
0001
,
1000
0010
1000
0010
0100
0001
0100
0001
1000
0100
1000
0100
0010
0000
0010
0000
,
0001
1000
0010
0100
0001
1000
0010
1000
0001
0010
0100
1000
0100
0010
0001
1000
,
0010
1000
0001
0010
0001
1000
0100
1000
0001
0100
0010
0100
0010
1000
0001
0010
,
0100
1000
0100
1000
0001
0100
0010
1000
0001
0010
0100
0010
0001
1000
0010
1000
,
0001
0100
0001
1000
0010
0000
0010
0000
0100
0001
1000
0100
0010
0000
0010
0000
,
0001
1000
0010
0100
0001
1000
0010
1000
0001
0010
0100
1000
0100
0010
0001
1000
,
0010
0100
0001
0100
0010
1000
0001
0010
0001
1000
0100
1000
0001
0010
0100
1000
,
0001
0100
0010
1000
0001
1000
0010
1000
0001
0010
0001
1000
0001
0010
0100
1000
,
0001
0010
0001
0010
0100
0010
0100
0010
0100
1000
0100
1000
1001
0000
0000
0000
,
0001
0010
0100
1000
0001
1000
0010
0100
0001
0100
0001
1000
0100
0010
0001
1000
,
0010
1000
0001
0010
0100
1000
0001
0100
0010
0100
0010
1000
0001
1000
0100
0010
,
0001
1000
0010
1000
0001
0010
0001
1000
0010
1000
0001
0100
0001
0100
0010
1000
,
0100
1000
0001
0010
0001
1000
0010
0100
0001
0010
0001
1000
0100
0010
0001
1000
,
0010
0100
0001
0100
0010
1000
0001
0010
0001
1000
0100
1000
0001
0100
0010
1000
,
0001
0010
0001
0010
0100
0010
0100
0010
0001
1000
0001
1000
0010
1000
0010
1000
,
0001
0100
0010
0100
0010
0100
0001
0100
0010
0100
0010
0100
0001
0100
0010
0100
,
0001
100M
M100
0M00
,
1000
0001
1000
0010
0100
0001
1000
0001
1000
0100
0010
0001
1000
0010
1000
0001
,
0010
0001
1000
0010
0100
0010
1000
0001
0010
0001
1000
0100
0010
0001
0100
0010
,
1000
0001
0010
0100
1000
0001
0100
0010
1000
0001
1000
0100
0010
0001
1000
0010
,
0100
0001
0100
0001
0100
0010
0100
0010
1000
0010
1000
0010
1000
0001
1000
0001
,
M010
0000
0000
010M
0000
0000
10M0
0000
0000
0M01
0000
0000
10M0
0000
0000
001M
1000
0010
1000
0000
0000
0M01
0000
0000
,
M010
0000
0000
010M
0000
0000
10M0
0000
0000
0M01
0000
0000
10M0
0000
0000
M001
0100
0001
01M0
0000
0000
001M
0000
0000
,
1M00
0000
0000
010M
0000
0000
M010
0000
0000
0M01
0000
0000
10M0
0000
0000
0000
0010
0000
0000
0000
0100
0000
0000
0000
,
0001
0000
0000
1000
0000
0000
0000
0000
0200
0000
0000
0000
000M
0000
0000
0000
0000
0000
0000
0000
0000
0000
0000
0000
0000
0000
0000
0000
0000
0000
M000
0000
0000
0000
0000
0000
0000
0000
0000
0000
0300
0000
00M0
0000
0000
0000
0000
0000
,
0000
0000
0000
0000
,
1000
0001
0100
0010
1000
0001
0010
0001
1000
0100
0010
0001
1000
0010
0100
0001
,
1000
0010
1000
0001
0010
0100
1000
0001
0010
0001
1000
0010
0100
0010
0100
0001
,
1000
0100
0010
0001
1000
0100
0010
0001
1000
0010
0100
0001
1000
0001
1000
0100
,
0010
0001
1000
0010
1000
0001
0100
0001
1000
0100
0010
0001
1000
0010
1000
0000
,
2002
0000
0000
0000
0000
0003
0000
3000
;
