#TITLE:Hymn;
#SUBTITLE:(Gammer, G-Spencer, & Nightcore Remix);
#ARTIST:Tina Cousins;
#TITLETRANSLIT:;
#SUBTITLETRANSLIT:;
#ARTISTTRANSLIT:;
#CREDIT:owenviau1;
#BANNER:BN.png;
#BACKGROUND:BG.png;
#LYRICSPATH:;
#CDTITLE:../CDTitleOV1.png;
#MUSIC:Tina Cousins - Hymn (Gammer, G-Spencer, & Nightcore Remix).mp3;
#OFFSET:-0.711;
#SAMPLESTART:91.024;
#SAMPLELENGTH:29.999;
#SELECTABLE:YES;
#DISPLAYBPM:212.530;
#BPMS:0.000=212.530;
#STOPS:;
#BGCHANGES:;
// cache tags:
#FIRSTBEAT:0.000;
#LASTBEAT:672.104;
#SONGFILENAME:Songs/owenviau1 Simfiles 7/Hymn - [owenviau1] v1.0.6/Hymn.sm;
#HASMUSIC:1;
#HASBANNER:1;
#MUSICLENGTH:190.493;
// end cache tags

//---------------dance-single - 18.14 (18) (owenviau----------------
#NOTES:
     dance-single:
     18.14 (18) (owenviau:
     Challenge:
     18:
     1.000,1.000,0.089,0.856,1.000,2175.000,17.000,163.000,53.000,0.000:

2MMM
0000
0000
3000
0200
0000
M300
0000
,
0020
0000
0000
0000
0000
0000
0M30
0000
0002
0000
0000
0000
M003
00M0
0000
0000
,
0200
0000
0000
0300
0020
0000
0030
0M00
,
2000
0000
0000
3000
0002
0003
0M00
1000
,
0200
0000
0000
0000
0000
0300
0000
0000
0020
0000
0032
0000
2003
0000
3020
0000
,
0000
0000
0000
0000
0000
0000
0030
0000
0000
M000
0000
0000
000M
0000
0000
0200
,
0000
0000
0000
0000
0302
0000
0000
0003
2000
0000
0000
0000
3200
0000
0000
0000
,
0300
2000
0000
0000
3100
0000
0010
0001
,
1MM2
0000
0000
0000
0000
0000
0000
0003
2000
0000
0000
0000
300M
0000
0000
0000
,
0020
0000
0000
0000
0000
0000
0000
0030
0200
0000
0000
0300
0001
0000
M100
0000
,
0020
0000
0000
0000
0000
0000
0030
0000
2000
0000
0000
0000
3200
0000
0300
000M
,
0020
0000
0000
0000
0000
0030
0002
0000
1003
0000
0000
0000
0010
0000
0100
0000
,
0001
1000
0010
0100
0001
1000
0100
0010
0001
1000
0010
0100
0001
0010
0100
1000
,
0010
0100
0010
1000
0001
0100
0001
1000
0100
0010
0001
0100
0010
1000
0010
0100
,
0001
0010
0001
1000
0100
0010
0001
0100
0010
1000
0100
1000
0001
0100
0010
1000
,
0001
0000
0000
0200
0000
0000
0000
0000
0000
0000
0000
0000
0300
0000
0000
0000
,
MM1M
2000
3200
0320
0032
0203
0320
2030
,
3004
0203
0320
4030
3002
0203
0320
2030
,
3400
2300
3002
0403
0320
2030
3020
0230
,
0304
0000
0000
0000
0000
0000
0000
0000
0000
0000
0000
0000
0000
0000
0000
0000
0000
0000
0000
0000
0000
0000
0000
0000
0023
0000
0000
0000
0000
0000
0000
0000
0000
0000
0000
0000
0000
0000
0000
0000
0000
0000
0000
0000
0000
0000
0000
0000
0230
0000
0000
0000
0000
0000
0000
0000
0000
0000
0000
0000
0000
0000
0000
0000
0000
0000
0000
0000
0000
0000
0000
0000
4300
0000
0000
0000
0000
0000
0000
0000
0000
0000
0000
0000
0000
0000
0000
0000
0000
0000
0000
0000
0000
0000
0000
0000
3020
0000
0000
0000
0000
0000
0000
0000
0000
0000
0000
0000
0000
0000
0000
0000
0000
0000
0000
0000
0000
0000
0000
0000
0430
0000
0000
0000
0000
0000
0000
0000
0000
0000
0000
0000
0000
0000
0000
0000
0000
0000
0000
0000
0000
0000
0000
0000
0302
0000
0000
0000
0000
0000
0000
0000
0000
0000
0000
0000
0000
0000
0000
0000
0000
0000
0000
0000
0000
0000
0000
0000
2003
0000
0000
0000
0000
0000
0000
0000
0000
0000
0000
0000
0000
0000
0000
0000
0000
0000
0000
0000
0000
0000
0000
3000
,
1MM1
0020
0230
0302
2003
3200
2300
3002
,
0403
0320
2030
3400
0320
0032
2003
3200
,
4300
3020
0230
0304
2003
3020
0230
0320
,
4030
3002
0203
0340
2030
3002
0043
0230
,
130M
0010
0100
0001
1000
0100
0010
0001
0100
0010
0100
0001
1000
0100
0010
0001
,
0100
0010
1000
0001
0100
0001
1000
0010
1000
0001
0100
0010
1000
0100
0010
0001
,
0100
0010
1000
0001
0010
0100
1000
0001
0100
0010
1000
0100
1000
0001
0100
0010
,
1000
0010
0100
0001
1000
0100
0010
0001
0100
0010
1000
0001
0010
0001
0100
0010
,
1000
0100
0010
0001
0100
0001
1000
0010
0100
0001
0010
0001
1000
0100
0010
0001
,
0100
0010
1000
0001
0010
0001
1000
0100
0010
0001
0100
0010
0100
0001
1000
0010
,
0100
0010
1000
0100
0010
0001
0100
0010
1000
0001
0010
0001
1000
0010
0100
0001
,
1000
0000
0000
0000
0000
0000
0000
0000
0000
0000
0100
0000
0000
0000
0000
0000
0000
0000
0000
0010
0000
0000
0000
0000
0000
0000
0000
0000
0000
0001
0000
0000
0000
0000
0000
0000
0000
0000
1000
0000
0000
0000
0000
0000
0000
0000
0000
0000
0010
0000
0000
0000
0000
0000
0000
0000
0000
0000
0100
0000
0000
0000
0000
0000
0000
0000
0000
0001
0000
0000
0000
0000
0000
0000
0000
0000
0000
1000
0000
0000
0000
0000
0000
0000
0000
0000
0100
0000
0000
0000
0000
0000
0000
0000
0000
0000
0010
0000
0000
0000
0000
0000
0000
0000
0000
0000
0001
0000
0000
0000
0000
0000
0000
0000
0000
0100
0000
0000
0000
0000
0000
0000
0000
0000
0000
0010
0000
0000
0000
0000
0000
0000
0000
0000
1000
0000
0000
0000
0000
0000
0000
0000
0000
0000
0001
0000
0000
0000
0000
0000
0000
0000
0000
0000
0000
0000
0100
0000
0000
0000
0000
0000
0000
0000
0000
0000
0000
0000
0001
0000
0000
0000
0000
0000
0000
0000
0000
0000
0000
0000
1000
0000
0000
0000
0000
0000
0000
0000
0000
0000
0000
0000
,
0010
1000
0100
0010
0001
0100
0010
1000
0001
0100
0001
1000
0100
0010
0001
0100
,
0010
1000
0010
0100
0001
0010
0001
1000
0010
1000
0100
0010
0001
0100
0010
1000
,
0001
0100
0001
0010
0100
1000
0100
0010
0001
1000
0001
0100
0010
1000
0100
1000
,
0001
0010
0001
1000
0100
0010
0001
0100
0010
1000
0001
0100
0001
1000
0100
1000
,
0001
0010
0001
0100
0010
1000
0100
0010
0001
0100
0010
1000
0001
0010
0100
1000
,
0010
0100
0010
1000
0001
0100
0001
1000
0100
0010
0001
0100
0010
1000
0001
0010
,
0001
1000
0100
0010
0001
0100
0010
0100
0001
1000
0010
0100
0001
1000
0100
0010
,
0001
0100
0010
1000
0001
0010
0001
1000
0100
0010
0001
0100
0010
1000
0010
0100
,
0001
0010
0100
1000
0001
0010
0001
0100
0010
1000
0100
1000
0001
0100
0010
1000
,
0100
0010
0001
0100
0010
0100
0001
1000
0010
1000
0100
0010
0001
0100
0010
1000
,
0001
0010
0001
1000
0100
1000
0010
0100
0010
1000
0001
0100
0001
1000
0100
0010
,
0001
0100
0010
1000
0001
0010
0001
1000
0100
0010
0001
0100
0010
1000
0100
0010
,
0001
1000
0100
1000
0010
0100
0001
0010
0001
1000
0100
0010
0001
0100
0010
1000
,
0001
0100
0001
1000
0100
0010
0001
0100
0010
1000
0001
0010
0001
1000
0100
0010
,
0001
0100
0010
1000
0001
0010
0001
0100
0010
1000
0100
0010
0001
0100
0010
1000
,
0001
0200
0320
1030
0200
0320
0031
2000
,
3001
0100
0010
1000
0001
0010
0100
1000
0100
0010
0001
1000
0010
1000
0001
0100
,
0010
1000
0010
0100
0001
0010
0001
1000
0010
1000
0100
0010
0001
0100
0010
1000
,
0001
0100
0001
0010
0100
1000
0100
0010
0001
1000
0001
0100
0010
1000
0100
1000
,
0001
0010
0001
1000
0100
0010
0001
0100
0010
1000
0001
0100
0001
1000
0100
1000
,
0001
0010
0001
0100
0010
1000
0100
0010
0001
0100
0010
1000
0001
0010
0100
1000
,
0001
0100
0010
1000
0001
0100
0001
1000
0100
0010
0001
0100
0010
1000
0001
0100
,
0001
1000
0100
0010
0001
0100
0010
0100
0001
1000
0010
0100
0001
1000
0100
0010
,
0001
0100
0010
1000
0001
0100
0001
1000
0100
0010
0001
0100
0010
1000
0010
0100
,
0001
0010
0100
1000
0001
0010
0001
0100
0010
1000
0100
1000
0001
0100
0010
1000
,
0100
0010
0001
0100
0010
0100
0001
1000
0010
1000
0100
0010
0001
0100
0010
1000
,
0001
0010
0001
1000
0100
1000
0010
0100
0010
1000
0001
0100
0001
1000
0100
0010
,
0001
0100
0010
1000
0001
0100
0001
1000
0100
0010
0001
0100
0010
1000
0100
0010
,
0001
1000
0100
1000
0010
0100
0001
0010
0001
1000
0100
0010
0001
0100
0010
1000
,
0001
0100
0001
1000
0100
0010
0001
0100
0010
1000
0001
0010
0001
1000
0100
0010
,
0001
0100
0010
1000
0001
0010
0001
0100
0010
1000
0100
0010
0001
0100
0010
1000
,
0001
0000
0000
0000
0000
0000
2000
0000
0000
0000
0000
0000
0000
0000
0000
0000
0000
0000
0000
0000
0000
0000
0000
0000
0000
0000
0000
0000
0000
0000
3001
0000
0010
0000
0100
0000
1000
0000
0000
0010
0000
0000
0000
0000
0000
1000
0000
0000
,
0001
0010
0100
1000
0001
0100
0010
1000
,
0001
0010
0100
1000
0001
0010
0001
1000
,
0100
0010
0001
0100
0010
1000
0001
0010
,
0001
1000
0100
0010
0002
0023
0230
2300
,
3002
0000
0203
0000
0320
0000
1030
0000
0100
000M
0010
0000
0001
0000
0100
0000
,
0M1M
1000
0100
0010
0001
0100
0010
1000
,
M01M
0100
0001
1000
M0M1
0100
0010
1000
,
0M1M
0100
MM01
0010
M10M
100M
001M
M100
,
M001
0010
0100
1000
0001
1000
0100
0010
0001
0100
0010
1000
0001
0010
0001
1000
,
0100
0010
0001
0100
0010
1000
0010
0100
0001
0010
0100
1000
0001
0010
0001
0100
,
0010
1000
0100
1000
0001
0100
0010
1000
0100
0010
0001
0100
0010
0100
0001
1000
,
0010
1000
0100
0010
0001
0100
0010
1000
0001
0010
0001
1000
0100
1000
0010
0100
,
0010
1000
0001
0100
0001
1000
0100
0010
0001
0100
0010
1000
0001
0010
0001
1000
,
0100
0010
0001
0100
0010
1000
0100
0010
0001
1000
0100
1000
0010
0100
0001
0010
,
0001
1000
0100
0010
0001
0100
0010
1000
0001
0100
0001
1000
0100
0010
0001
0100
,
0010
1000
0001
0010
0001
1000
0100
0010
0001
0100
0010
1000
0001
0100
0010
1000
,
010M
0010
0001
1000
0010
1000
0001
0100
0010
0100
0001
1000
0100
0010
0001
0100
,
0010
1000
0001
0100
0001
1000
0010
1000
0001
0100
0010
1000
0100
0010
0001
0100
,
0010
1000
0001
0010
0100
1000
0001
0100
0010
1000
0100
1000
0001
0100
0010
1000
,
0010
0100
0001
1000
0100
0010
0001
0100
0010
1000
0001
0010
0001
0100
0010
1000
,
0100
0010
0001
0100
0001
1000
0010
0100
0001
0010
0001
1000
0100
0010
0001
0100
,
0010
1000
0001
0010
0001
1000
0100
0010
0001
0100
0010
0100
0001
1000
0010
0100
,
0010
1000
0100
0010
0001
1000
0010
0100
0001
0010
0001
1000
0100
0010
0001
1000
,
0010
0100
0001
1000
0100
0010
0001
0100
0010
0100
0001
1000
0100
0010
0001
0100
,
001M
1000
0010
0100
0001
1000
0010
1000
0001
0100
0010
1000
0100
0010
0001
0100
,
0010
1000
0001
0010
0100
1000
0001
0100
0010
1000
0100
1000
0001
0100
0010
1000
,
0010
0100
0001
1000
0100
0010
0001
0100
0010
1000
0001
0010
0001
0100
0010
1000
,
0100
0010
0001
0100
0001
1000
0010
0100
0001
0010
0001
1000
0100
0010
0001
0100
,
0010
1000
0001
0010
0001
1000
0100
0010
0001
0100
0010
0100
0001
1000
0010
0100
,
0010
1000
0100
0010
0001
0100
0010
1000
0001
0010
0001
1000
0010
0100
0001
0100
,
0010
1000
0100
0010
0001
1000
0100
1000
0010
0100
0001
1000
0100
0010
0001
1000
,
0002
0000
0000
0000
0000
0000
0003
0000
0000
0000
0000
0000
0000
0000
0000
0000
0000
0000
0000
0000
0000
0000
0000
0000
0000
0000
0000
0000
0000
0000
0001
0000
0010
0000
0100
0000
1000
0000
0000
0001
0000
0000
0000
0000
0000
0100
0000
0000
,
0020
1030
0001
0100
0020
1030
010M
0010
,
0002
1003
0100
10M0
0002
0103
0010
1000
,
0002
0013
0001
1000
0200
0310
0001
M100
,
0020
1030
0001
0010
0002
1003
M100
0020
,
0032
0103
0010
1000
0020
0230
0302
1003
,
0200
0310
0001
0100
0010
1000
0001
M010
,
0200
1300
0002
0103
0002
1003
0020
1030
,
0001
0020
0130
1000
0100
0010
0001
1000
,
0020
1030
0001
0100
0020
1030
010M
0010
,
0002
1003
0100
1000
0002
0103
0010
1M00
,
0002
0013
0001
1000
0200
0310
0002
0103
,
0020
1030
0001
0010
0002
1003
M100
0020
,
0032
0103
0010
1000
0020
0130
0002
2003
,
3200
0310
0001
0100
0010
1000
0001
M010
,
0200
1300
0002
0103
0002
1003
0020
1030
,
0001
0000
0000
0000
0000
0000
0000
0000
0000
0000
0000
0000
0000
0000
0000
0000
0000
0000
0000
0000
0000
0000
0000
0000
0020
0000
0000
0000
0000
0000
0000
0000
0000
0000
0000
0000
0000
0000
0000
0000
0000
0000
0000
0000
0000
0000
0000
0000
0130
0000
0000
0000
0000
0000
0000
0000
0000
0000
0000
0000
0000
0000
0000
0000
0000
0000
0000
0000
0000
0000
0000
0000
1000
0000
0000
0000
0000
0000
0000
0000
0000
0000
0000
0000
0000
0000
0000
0000
0000
0000
0000
0000
0000
0000
0000
0000
0100
0000
0000
0000
0000
0000
0000
0000
0000
0000
0000
0000
0000
0000
0000
0000
0000
0000
0000
0000
0000
0000
0000
0000
0010
0000
0000
0000
0000
0000
0000
0000
0000
0000
0000
0000
0000
0000
0000
0000
0000
0000
0000
0000
0000
0000
0000
0000
0001
0000
0000
0000
0000
0000
0000
0000
0000
0000
0100
0000
0000
0000
0000
0000
0000
0000
0000
0010
0000
0000
0000
0000
0000
0000
0000
0000
0000
1000
0000
0000
0000
0000
0000
0000
0000
0000
0001
0000
0000
0000
0000
0000
0000
0000
0000
0000
,
02M0
0320
2030
3020
0230
0302
0023
0230
,
1300
0200
0320
0031
0200
0320
2030
3002
,
0203
0320
0230
0302
2003
3020
0230
0302
,
2003
3200
0320
0031
0200
0310
2000
3002
,
1M03
0010
1000
0100
0010
0001
0100
0010
,
1000
0100
0010
0001
0100
0010
1000
0001
,
0010
0100
1000
0001
0100
0010
1000
0100
1000
0001
0010
0100
1000
0010
0100
0001
,
1000
0000
0000
0000
0000
0000
0000
0000
0000
0000
0100
0000
0000
0000
0000
0000
0000
0000
0000
0010
0000
0000
0000
0000
0000
0000
0000
0000
0000
0001
0000
0000
0000
0000
0000
0000
0000
0000
0100
0000
0000
0000
0000
0000
0000
0000
0000
0000
0010
0000
0000
0000
0000
0000
0000
0000
0000
0000
1000
0000
0000
0000
0000
0000
0000
0000
0000
0100
0000
0000
0000
0000
0000
0000
0000
0000
0000
0010
0000
0000
0000
0000
0000
0000
0000
0000
0001
0000
0000
0000
0000
0000
0000
0000
0000
0000
0100
0000
0000
0000
0000
0000
0000
0000
0000
0000
0010
0000
0000
0000
0000
0000
0000
0000
0000
0100
0000
0000
0000
0000
0000
0000
0000
0000
0000
0001
0000
0000
0000
0000
0000
0000
0000
0000
1000
0000
0000
0000
0000
0000
0000
0000
0000
0000
0010
0000
0000
0000
0000
0000
0000
0000
0000
0000
0000
0000
0000
0000
0000
0000
0000
0000
0000
0000
0000
0000
0000
0000
0200
0000
0000
0000
0000
0000
0000
0000
0000
0000
0000
0000
0000
0000
0000
0000
0000
0000
0000
0000
0000
0000
0000
0000
,
0310
1000
0001
1000
0010
0100
0010
1000
0100
0010
0001
1000
0010
1000
0001
0100
,
0010
1000
0010
0100
0001
0010
0001
1000
0010
1000
0100
0010
0001
0100
0010
1000
,
0001
0100
0001
0010
0100
1000
0100
0010
0001
1000
0001
0100
0010
1000
0100
1000
,
0001
0010
0001
1000
0100
0010
0001
0100
0010
1000
0001
0100
0001
1000
0100
1000
,
0001
0010
0001
0100
0010
1000
0100
0010
0001
0100
0010
1000
0001
0010
0100
1000
,
0001
0100
0010
1000
0001
0100
0001
1000
0100
0010
0001
0100
0010
1000
0001
0100
,
0001
1000
0100
0010
0001
0100
0010
0100
0001
1000
0010
0100
0001
1000
0100
0010
,
0001
0100
0010
1000
0001
0100
0001
1000
0100
0010
0001
0100
0010
1000
0010
0100
,
0001
0010
0100
1000
0001
0010
0001
0100
0010
1000
0100
1000
0001
0100
0010
1000
,
0100
0010
0001
0100
0010
0100
0001
1000
0010
1000
0100
0010
0001
0100
0010
1000
,
0001
0010
0001
1000
0100
1000
0010
0100
0010
1000
0001
0100
0001
1000
0100
0010
,
0001
0100
0010
1000
0001
0100
0001
1000
0100
0010
0001
0100
0010
1000
0100
0010
,
0001
1000
0100
1000
0010
0100
0001
0010
0001
1000
0100
0010
0001
0100
0010
1000
,
0001
0100
0001
1000
0100
0010
0001
0100
0010
1000
0001
0010
0001
1000
0100
0010
,
0001
0100
0010
1000
0001
0010
0001
0100
0010
1000
0100
0010
0001
0100
0010
1000
,
0001
0000
0000
0000
0000
0000
0000
0000
0000
0000
0000
0000
0000
0000
0000
0000
0000
0000
0000
0000
0000
0000
0000
0000
0200
0000
0000
0000
0000
0000
0000
0000
0000
0000
0000
0000
0000
0000
0000
0000
0000
0000
0000
0000
0000
0000
0000
0000
0320
0000
0000
0000
0000
0000
0000
0000
0000
0000
0000
0000
0000
0000
0000
0000
0000
0000
0000
0000
0000
0000
0000
0000
1030
0000
0000
0000
0000
0000
0000
0000
0000
0000
0000
0000
0000
0000
0000
0000
0000
0000
0000
0000
0000
0000
0000
0000
0002
0000
0000
0000
0000
0000
0000
0000
0000
0000
0000
0000
0000
0000
0000
0000
0000
0000
0000
0000
0000
0000
0000
0000
0203
0000
0000
0000
0000
0000
0000
0000
0000
0000
0000
0000
0000
0000
0000
0000
0000
0000
0000
0000
0000
0000
0000
0000
0310
0000
0000
0000
0000
0000
0000
0000
0000
0000
1000
0000
0000
0000
0000
0000
0000
0000
0000
0100
0000
0000
0000
0000
0000
0000
0000
0000
0000
0010
0000
0000
0000
0000
0000
0000
0000
0000
0001
0000
0000
0000
0000
0000
0000
0000
0000
0000
,
0100
0010
1000
0001
0010
0100
1000
0001
0100
0010
1000
0010
0100
0001
0010
0001
,
1000
0010
1000
0100
0010
0001
0100
0010
1000
0001
0100
0001
0010
0100
1000
0100
,
0010
0001
1000
0001
0100
0010
1000
0100
1000
0001
0010
0001
1000
0100
0010
0001
,
0100
0010
1000
0001
0100
0001
1000
0100
1000
0001
0010
0001
0100
0010
1000
0100
,
0010
0001
0100
0010
1000
0001
0010
0100
1000
0001
0100
0010
1000
0001
0100
0001
,
1000
0100
0010
0001
0100
0010
1000
0001
0100
0001
1000
0100
0010
0001
0100
0010
,
0100
0001
1000
0010
0100
0001
1000
0100
0010
0001
0100
0010
1000
0001
0100
0001
,
1000
0100
0010
0001
0100
0010
1000
0010
0100
0001
0010
0100
1000
0001
0010
0001
,
0100
0010
1000
0100
1000
0001
0100
0010
1000
0100
0010
0001
0100
0010
0100
0001
,
1000
0010
1000
0100
0010
0001
0100
0010
1000
0001
0010
0001
1000
0100
1000
0010
,
0100
0010
1000
0001
0100
0001
1000
0100
0010
0001
0100
0010
1000
0001
0100
0001
,
1000
0100
0010
0001
0100
0010
1000
0100
0010
0001
1000
0100
1000
0010
0100
0001
,
0010
0001
1000
0100
0010
0001
0100
0010
1000
0001
0100
0001
1000
0100
0010
0001
,
0100
0010
1000
0001
0010
0001
1000
0100
0010
0001
0100
0010
1000
0001
0010
0001
,
0100
0010
1000
0100
0010
0001
0100
0010
1000
0010
0100
0001
0100
0010
1000
0100
,
0010
0000
0000
0000
0000
0000
0000
0000
0000
0002
0000
0000
0000
0000
0000
0000
0000
0000
0000
0000
0000
0000
0000
0000
4003
0000
0000
0000
0000
0000
3100
0000
0010
0000
0001
0000
1000
0000
0000
0010
0000
0000
0100
0000
0000
0001
0000
0000
,
1M00
0010
1000
0100
0010
0001
1000
0010
1000
0001
0100
0010
1000
0010
0100
0001
,
0010
0001
1000
0010
1000
0100
0010
0001
0100
0010
1000
0001
0100
0001
0010
0100
,
1000
0100
0010
0001
1000
0001
0100
0010
1000
0100
1000
0001
0010
0001
1000
0100
,
0010
0001
0100
0010
1000
0001
0100
0001
1000
0100
1000
0001
0010
0001
0100
0010
,
1000
0100
0010
0001
0100
0010
1000
0001
0010
0100
1000
0001
0100
0010
1000
0001
,
0100
0001
1000
0100
0010
0001
0100
0010
1000
0001
0100
0001
1000
0100
0010
0001
,
0100
0010
0100
0001
1000
0010
0100
0001
1000
0100
0010
0001
0100
0010
1000
0001
,
0100
0001
1000
0100
0010
0001
0100
0010
1000
0010
0100
0001
0010
0100
1000
0001
,
0010
0001
0100
0010
1000
0100
1000
0001
0100
0010
1000
0100
0010
0001
0100
0010
,
0100
0001
1000
0010
1000
0100
0010
0001
0100
0010
1000
0001
0010
0001
1000
0100
,
1000
0010
0100
0010
1000
0001
0100
0001
1000
0100
0010
0001
0100
0010
1000
0001
,
0100
0001
1000
0100
0010
0001
0100
0010
1000
0100
0010
0001
1000
0100
1000
0010
,
0100
0001
0010
0001
1000
0100
0010
0001
0100
0010
1000
0001
0100
0001
1000
0100
,
0010
0001
0100
0010
1000
0001
0010
0001
1000
0100
0010
0001
0100
0010
1000
0001
,
0010
0001
0100
0010
1000
0100
0010
0001
0100
0010
1000
0001
0010
0100
1000
0001
,
0100
0000
0000
0000
0000
0000
0000
0000
0000
0000
0000
0000
0010
0000
0000
0000
0000
0000
0000
0000
0000
0000
0000
0000
1000
0000
0000
0000
0000
0000
0000
0000
0000
0000
0100
0000
0000
0000
0000
0000
0000
0000
0000
0010
0000
0000
0000
0000
0000
0000
0000
0000
0000
0001
0000
0000
0000
0000
0000
0000
0000
0000
0100
0000
0000
0000
0000
0000
0000
0000
0000
0000
0010
0000
0000
0000
0000
0000
0000
0000
0000
0000
1000
0000
0000
0000
0000
0000
0000
0000
0000
0010
0000
0000
0000
0000
0000
0000
0000
0000
0000
0100
0000
0000
0000
0000
0000
0000
0000
0000
0001
0000
0000
0000
0000
0000
0000
0000
0000
0000
1000
0000
0000
0000
0000
0000
0000
0000
0000
0000
0100
0000
0000
0000
0000
0000
0000
0000
0000
0010
0000
0000
0000
0000
0000
0000
0000
0000
0000
0001
0000
0000
0000
0000
0000
0000
0000
0000
0100
0000
0000
0000
0000
0000
0000
0000
0000
0000
0010
0000
0000
0000
0000
0000
0000
0000
0000
0000
1000
0000
0000
0000
0000
0000
0000
0000
0000
0001
0000
0000
0000
0000
,
0000
0000
0000
0000
0000
0100
0000
0000
0000
0000
0000
0000
0000
0000
0000
0000
0000
0000
0000
0000
0000
0000
0000
0000
0000
0000
0000
0000
0000
0000
0000
0000
0000
0000
0000
0000
0000
0000
0000
0000
0000
0000
0000
0000
0000
0000
0000
0000
0000
0000
0000
0000
0000
0000
0000
0000
0000
0000
0000
0000
0000
0000
0000
0000
0000
0000
0000
0000
0000
0000
0000
0000
0000
0000
0000
0000
0000
0000
0000
0000
0000
0000
0000
0000
0000
0000
0000
0000
0000
0000
0000
0000
0000
0000
0000
0000
0000
0000
0000
0000
0000
0000
0000
0000
0000
0000
0000
0000
0000
0000
0000
0000
0000
0000
0000
0000
0000
0000
0000
0000
0000
0000
0000
0000
0000
0000
0000
0000
0000
0000
0000
0000
0000
0000
0000
0000
0000
0000
0000
0000
0000
0000
0000
0000
0000
0000
0000
0000
0000
0000
0000
0000
0000
0000
0000
0000
0000
0000
0000
0000
0000
0000
0000
0000
0000
0000
0000
0000
0000
0000
0000
0000
0000
0000
0000
0000
0000
0000
0000
0000
0000
0000
0000
0000
0000
0000
0000
0000
0000
0000
0000
0000
;
