#TITLE:Back In The Loop;
#SUBTITLE:[Seph & Gson];
#ARTIST:E-Type;
#TITLETRANSLIT:;
#SUBTITLETRANSLIT:;
#ARTISTTRANSLIT:;
#CREDIT:;
#BANNER:../thisandthat-bn.png;
#BACKGROUND:../thisnthat-bg.png;
#LYRICSPATH:;
#CDTITLE:;
#MUSIC:E-Type - Back In The Loop.ogg;
#OFFSET:-0.009;
#SAMPLESTART:40.226;
#SAMPLELENGTH:12.000;
#SELECTABLE:YES;
#DISPLAYBPM:170.000;
#BPMS:0.000=85.000,14.000=170.100,19.000=340.200,19.250=170.100,21.000=340.200,21.250=170.100,23.000=340.200,23.250=170.100,25.000=340.200,25.250=170.100,27.000=340.200,27.250=170.100,29.000=340.200,29.250=170.100,31.000=340.200,31.250=170.100,33.000=340.200,33.250=170.100,76.000=340.200,76.250=170.100,173.000=340.200,173.250=170.100,258.000=85.050,290.000=170.100,299.000=170.100;
#STOPS:19.000=0.044
,21.000=0.044
,23.000=0.044
,25.000=0.044
,27.000=0.044
,29.000=0.044
,31.000=0.044
,33.000=0.044
,76.000=0.044
,173.000=0.044
;
#BGCHANGES:;
// cache tags:
#FIRSTBEAT:8.000;
#LASTBEAT:426.500;
#SONGFILENAME:Songs/Seph, Gson & Shpadoinkle's Pack of This 'n That/Back In The Loop [12]/Back In The Loop.sm;
#HASMUSIC:1;
#HASBANNER:1;
#MUSICLENGTH:105.000;
// end cache tags

//---------------dance-single - ----------------
#NOTES:
     dance-single:
     :
     Challenge:
     12:
     1.000,1.000,0.305,1.000,1.000,1059.000,32.000,174.000,62.000,10.000:

0000
0000
0000
0000
,
0000
0000
0000
0000
,
2000
0000
0000
0000
0000
0000
0000
0000
0000
0000
0000
0000
0000
0000
0000
0000
0000
0000
0000
0000
0000
0000
0000
0000
0000
0000
0000
0000
0000
0000
0000
0000
0000
0000
0000
0000
0000
0000
0000
0000
0000
0000
0000
0000
0000
0000
0000
0000
3200
0000
0000
0000
0000
0000
0000
0000
0000
0000
0000
0000
0000
0000
0000
0000
0000
0000
0000
0000
0000
0000
0000
0000
0320
0000
0000
0000
0000
0000
0000
0000
0000
0000
0000
0000
0000
0000
0000
0000
0000
0000
0000
0000
0000
0000
0000
0000
0032
0000
0000
0000
0000
0000
0000
0000
0000
0000
0000
0000
0000
0000
0000
0000
0000
0000
0000
0000
0000
0000
0003
0000
0002
0000
0000
0000
0000
0000
0000
0000
0000
0000
0000
0000
0000
0000
0000
0000
0000
0000
0000
0000
0000
0000
0000
0000
2003
0000
0000
0000
0000
0000
0000
0000
0000
0000
0000
0000
0000
0000
0000
0000
0000
0000
0000
0000
0000
0000
0000
0000
3200
0000
0000
0000
0000
0000
0000
0000
0000
0000
0000
0000
0000
0000
0000
0000
0000
0000
0000
0000
0000
0000
0000
0000
,
0320
0000
0230
0000
230M
00M0
0M00
00M0
,
000M
00M0
0M00
00M0
3100
0100
2000
3001
,
0010
0010
0002
1003
0100
0100
2000
3100
,
0010
0010
0002
0013
0100
0100
0020
0130
,
0010
0010
0002
1003
0100
0100
0020
0031
,
0010
0010
0200
1300
1100
0100
0020
0031
,
0011
0010
0200
1300
1100
0100
0020
0130
,
0110
0010
0002
0103
0101
0001
0200
0310
,
0110
0100
0020
1030
1010
0010
2000
3001
,
1001
0000
0000
0000
0000
0000
0000
0000
1000
0000
0000
0000
0000
0000
0000
0000
0200
0000
0000
0000
0000
0000
0000
0000
0310
0000
0000
0000
0000
0000
0000
0000
0022
0033
0000
0000
0000
0000
0000
0000
0000
0000
0000
0000
0000
0000
0000
0000
0001
0000
0000
0000
0000
0000
0000
0000
0001
0000
0000
0000
0000
0000
0000
0000
,
0010
0100
1000
1000
0200
0300
1000
1000
,
0100
0010
0001
1000
0010
0010
1000
0010
,
1000
1000
0100
0010
0002
0000
1003
MMMM
,
2000
0000
3010
MMMM
0010
0010
1000
1000
,
0001
0001
1000
0100
1000
1000
0100
0100
,
1000
0100
1000
0001
0010
0010
0001
1000
,
0001
0001
1000
0100
1000
1000
0100
0010
,
0001
0000
0000
0000
0000
0000
0000
0000
0010
0000
0000
0000
0000
0000
0000
0000
0022
0033
0000
0000
0000
0000
0000
0000
0000
0000
0000
0000
0000
0000
0000
0000
0002
0000
0000
0000
0000
0000
0000
0000
0000
0000
0000
0000
0000
0000
0000
0000
0000
0000
0000
0000
0000
0000
0000
0000
0000
0000
0000
0000
0000
0000
0000
0003
,
2001
3002
0023
0230
2300
3200
0320
0230
,
2300
0000
0000
0000
0000
0000
0000
0000
3200
0000
0000
0000
0000
0000
0000
0000
2300
0000
0000
0000
0000
0000
0000
0000
0000
0000
0000
0000
0000
0000
0000
0000
3002
0000
0000
0000
0000
0000
0000
0000
0000
0000
0000
0000
0000
0000
0000
0000
0000
0000
0000
0000
0000
0000
0000
0000
0000
0000
0000
0000
0000
0000
0000
0003
,
0201
0302
2003
3020
0230
0320
2030
3020
,
0230
0000
0000
0000
0000
0000
0000
0000
0320
0000
0000
0000
0000
0000
0000
0000
2030
0000
0000
0000
0000
0000
0000
0000
0000
0000
0000
0000
0000
0000
0000
0000
3200
0000
0000
0000
0000
0000
0000
0000
0000
0000
0000
0000
0000
0000
0000
0000
0000
0000
0000
0000
0000
0000
0000
0000
0000
0000
0000
0000
0000
0000
0000
0300
,
0220
0330
0000
0000
0000
0000
0000
0000
0020
0000
0000
0000
0000
0000
0000
0000
0032
0000
0000
0000
0000
0000
0000
0000
0203
0000
0000
0000
0000
0000
0000
0000
2300
0000
0000
0000
0000
0000
0000
0000
3200
0000
0000
0000
0000
0000
0000
0000
0302
0000
0000
0000
0000
0000
0000
0000
0203
0000
0000
0000
0000
0000
0000
0000
,
2300
0000
0000
0000
0000
0000
3200
0000
0000
0000
0000
0000
0302
0000
0000
0000
0000
0000
0000
0000
0000
0000
0000
0000
0203
0000
0000
0000
0000
0000
0000
0000
0000
0000
0000
0000
0000
0000
0000
0000
0000
0000
0000
0000
0000
0000
0000
0300
,
0220
0330
0000
0000
0000
0000
0000
0000
0000
0000
0000
0000
0000
0000
0000
0000
MMMM
0000
0000
0000
0000
0000
0000
0000
0000
0000
0000
0000
0000
0000
0000
0000
0010
0000
0000
0000
0000
0000
0000
0000
0000
0000
0000
0000
0000
0000
0000
0000
0010
0000
0000
0000
0000
0000
0000
0000
2000
0000
0000
0000
0000
0000
0000
0000
,
0000
0000
3010
0000
2000
0000
0000
0000
3001
0100
0010
1000
0001
0100
0010
1000
,
0001
1000
0001
1000
0010
1000
0010
1000
0001
1000
0001
1000
0100
1000
0100
1000
,
0100
0010
0001
1000
0001
1000
0010
1000
0001
1000
0001
1000
0010
1000
0100
0010
,
0001
0000
0000
0000
0010
0000
0000
0000
0100
0000
0000
0000
1000
0000
0000
0000
0010
0000
0000
0000
0100
0000
0000
0000
0002
0000
0000
0000
0000
0000
0000
0000
0000
0000
0000
0000
0000
0000
0000
0003
0002
0000
0000
0000
0000
0000
0000
0000
2003
0000
0000
0000
0000
0000
0000
0000
0000
0000
0000
0000
0000
0000
0000
0000
,
3200
0000
0000
0000
0320
0000
0000
0000
0031
1000
0010
1000
0001
1000
0001
1000
,
0100
1000
0100
1000
0001
0010
0100
1000
0100
1000
0010
0100
0001
0100
0010
1000
,
0100
0010
0001
1000
0001
1000
0001
0100
0001
1000
0010
1000
0100
0010
0001
0010
,
0100
0000
0000
0000
1000
0000
0000
0000
0100
0000
0000
0000
1000
0000
0000
0000
0001
0000
0000
0000
0100
0000
0000
0000
0020
0000
0000
0000
0000
0000
0000
0000
0000
0000
0000
0000
0000
0000
0000
0030
0020
0000
0000
0000
0000
0000
0000
0000
2030
0000
0000
0000
0000
0000
0000
0000
0000
0000
0000
0000
0000
0000
0000
0000
,
3200
0000
0000
0000
0320
0000
0000
0000
0031
1000
0001
1000
0001
1000
0001
1000
,
0010
1000
0010
1000
0010
1000
0010
1000
0001
1000
0001
1000
0001
1000
0001
1000
,
0001
0000
0010
0000
0001
0000
0001
0000
1000
0100
1000
0100
1000
0100
1000
0100
,
0010
0001
0010
0001
0010
0001
0010
0001
0100
0010
1000
0100
1000
0001
1000
0100
,
1000
0000
0000
0000
0000
0000
0000
0000
0100
0000
0000
0000
0000
0000
0000
0000
2000
3000
0000
0000
0000
0000
0000
0000
2000
3000
0000
0000
0000
0000
0000
0000
0200
0000
0000
0000
0000
0000
0000
0000
0300
0000
0000
0000
0000
0000
0000
0000
0010
0000
0000
0000
0000
0000
0000
0000
0010
0000
0000
0000
0000
0000
0000
0000
,
0001
0001
0100
0010
1000
1000
0100
0100
,
0010
0001
0100
0010
2000
3000
0100
0100
,
0010
0000
0000
0000
0000
0000
0000
0000
0010
0000
0000
0000
0000
0000
0000
0000
0002
0000
0000
0000
0000
0000
0000
0000
2003
3000
0000
0000
0000
0000
0000
0000
0000
0000
0000
0000
0000
0000
0000
0000
0100
0000
0000
0000
0000
0000
0000
0000
0010
0000
0000
0000
0000
0000
0000
0000
0001
0000
0000
0000
0000
0000
0000
0000
,
0002
0003
1000
0000
1000
0000
0010
0000
0100
0000
0100
0000
0010
0000
1000
0000
,
0100
0100
0010
0001
0001
0100
0010
1000
,
1000
0000
0000
0000
0000
0000
0000
0000
0100
0000
0000
0000
0000
0000
0000
0000
0010
0000
0000
0000
0000
0000
0000
0000
0010
0000
0000
0000
0000
0000
0000
0000
0200
0300
0000
0000
0000
0000
0000
0000
0000
0000
0000
0000
0000
0000
0000
0000
1000
0000
0000
0000
0000
0000
0000
0000
0001
0000
0000
0000
0000
0000
0000
0000
,
0100
0010
1000
0200
0300
0010
0001
0001
,
1000
0000
0000
0000
0000
0000
0000
0000
0002
0000
0000
0000
0000
0000
0000
0000
0203
0000
0000
0000
0000
0000
0000
0000
0000
0000
0000
0000
0000
0000
0000
0000
0302
0000
0000
0000
0000
0000
0000
0000
0000
0000
0000
0000
0000
0000
0000
0000
0000
0000
0000
0000
0000
0000
0000
0000
0000
0000
0000
0000
0000
0000
0000
0003
,
0201
0302
0023
0230
2300
3200
0320
0032
,
0023
0000
0000
0000
0000
0000
0000
0000
0032
0000
0000
0000
0000
0000
0000
0000
0203
0000
0000
0000
0000
0000
0000
0000
0000
0000
0000
0000
0000
0000
0000
0000
0320
0000
0000
0000
0000
0000
0000
0000
0000
0000
0000
0000
0000
0000
0000
0000
0000
0000
0000
0000
0000
0000
0000
0000
0000
0000
0000
0000
0000
0000
0000
0030
,
2010
3000
MMMM
0000
1000
0000
1000
0200
,
0000
0000
0310
0000
0002
0000
0000
0000
1003
0100
0010
0001
1000
0100
0010
0001
,
1000
0100
1000
0001
0010
0001
1000
0001
1000
0001
0100
0010
1000
0100
0010
0001
,
0010
0100
0010
0001
0010
0100
0010
0001
0100
0010
1000
0100
0010
0100
1000
0100
,
0010
0000
0000
0000
0000
0000
0000
0000
0000
0000
0000
0000
0100
0000
0000
0000
0000
0000
0000
0000
0000
0000
0000
0000
1000
0000
0000
0000
0000
0000
0000
0000
0000
0000
0000
0000
0100
0000
0000
0000
0000
0000
0000
0000
0000
0000
0000
0000
0010
0000
0000
0000
0000
0000
0000
0000
0000
0000
0000
0000
0001
0000
0000
0000
0000
0000
0000
0000
0000
0000
0000
0000
0200
0000
0000
0000
0000
0000
0000
0000
0000
0000
0000
0000
0000
0000
0000
0000
0000
0000
0000
0000
0000
0000
0000
0000
0000
0000
0000
0000
0000
0000
0000
0000
0000
0000
0000
0000
0000
0000
0000
0000
0000
0000
0000
0000
0000
0000
0000
0300
0200
0000
0000
0000
0000
0000
0000
0000
0000
0000
0000
0000
0000
0000
0000
0000
0000
0000
0000
0000
0000
0000
0000
0000
0320
0000
0000
0000
0000
0000
0000
0000
0000
0000
0000
0000
0000
0000
0000
0000
0000
0000
0000
0000
0000
0000
0000
0000
0000
0000
0000
0000
0000
0000
0000
0000
0000
0000
0000
0000
0000
0000
0000
0000
0000
0000
0000
0000
0000
0000
0000
0000
,
2030
0000
0000
0000
3002
0000
0000
0000
1003
0001
1000
0001
1000
0100
0010
0001
,
0010
0100
1000
0100
1000
0001
0010
0001
0100
0010
0100
0010
1000
0010
1000
0100
,
0010
0001
0100
0010
1000
0001
0100
0010
1000
0100
0010
0001
0010
0001
0010
0001
,
0010
0000
0000
0000
0000
0000
0000
0000
0000
0000
0000
0000
0100
0000
0000
0000
0000
0000
0000
0000
0000
0000
0000
0000
1000
0000
0000
0000
0000
0000
0000
0000
0000
0000
0000
0000
0100
0000
0000
0000
0000
0000
0000
0000
0000
0000
0000
0000
0010
0000
0000
0000
0000
0000
0000
0000
0000
0000
0000
0000
0001
0000
0000
0000
0000
0000
0000
0000
0000
0000
0000
0000
0020
0000
0000
0000
0000
0000
0000
0000
0000
0000
0000
0000
0000
0000
0000
0000
0000
0000
0000
0000
0000
0000
0000
0000
0000
0000
0000
0000
0000
0000
0000
0000
0000
0000
0000
0000
0000
0000
0000
0000
0000
0000
0000
0000
0000
0000
0000
0030
0020
0000
0000
0000
0000
0000
0000
0000
0000
0000
0000
0000
0000
0000
0000
0000
0000
0000
0000
0000
0000
0000
0000
0000
0032
0000
0000
0000
0000
0000
0000
0000
0000
0000
0000
0000
0000
0000
0000
0000
0000
0000
0000
0000
0000
0000
0000
0000
0000
0000
0000
0000
0000
0000
0000
0000
0000
0000
0000
0000
0000
0000
0000
0000
0000
0000
0000
0000
0000
0000
0000
0000
,
0203
0000
0000
0000
0320
0000
0000
0000
1030
0010
1000
0010
1000
0010
1000
0010
,
0100
0001
0100
0001
0100
0001
0100
0001
1000
0001
1000
0001
1000
0001
1000
0001
,
1000
0000
0001
0000
0100
0000
0100
0000
0010
1000
0010
1000
0010
1000
0010
1000
,
0001
1000
0001
1000
0001
1000
0001
1000
0100
1000
0100
1000
0100
1000
0100
1000
,
0200
0000
0000
0000
0000
0000
0000
0000
0000
0000
0000
0000
0000
0000
0000
0000
0320
0000
0000
0000
0000
0000
0000
0000
0000
0000
0000
0000
0031
0000
0000
0000
2000
0000
0000
0000
0000
0000
0000
0000
0001
0000
0000
0000
0000
0000
0000
3000
1000
0000
0000
0000
0002
0003
0000
0000
2000
0000
0000
0000
0000
0000
0000
0000
,
3002
0013
0011
0001
1000
0010
1010
0020
,
0230
0300
0000
0000
0001
0000
0000
0000
0100
0000
0000
0000
0000
0000
0000
0000
0101
0000
0000
0000
0000
0000
0000
0000
0001
0000
0000
0000
0000
0000
0000
0000
0010
0000
0000
0000
0000
0000
0000
0000
0001
0000
0000
0000
0000
0000
0000
0000
1111
0000
0000
0000
0000
0000
0000
0000
0010
0000
0000
0000
0000
0000
0000
0000
,
0001
0100
0010
0000
1111
0000
0100
0000
0001
0000
0010
0000
1111
0000
0020
0000
,
0032
0000
1003
0200
0000
1300
0001
0000
0220
0000
0000
0000
0000
0000
0000
0000
,
2300
0000
0032
0000
,
3020
0000
0000
0000
0000
0000
0000
0000
0000
0000
0000
0000
0130
0000
0000
0000
0000
0000
1000
0000
0000
0000
0000
0003
0202
0000
0000
0000
0000
0000
0000
0000
0000
0000
0000
0000
0000
0000
0000
0000
0000
0000
0000
0000
0000
0000
0000
0000
,
0023
0000
2300
0000
,
3032
0000
1000
0100
1003
0001
0011
0010
,
0100
1000
1100
0100
0010
0001
1001
1000
,
0100
0010
0120
0230
2300
3200
0320
0032
,
0203
0000
0320
0000
2030
0000
3002
0003
2000
0000
0000
0000
3010
0000
MMMM
0000
,
0020
0000
1030
MMMM
1000
0100
0110
0100
,
1000
0010
1010
1000
0100
0010
0011
0001
,
0010
0100
2100
3200
0320
0032
0203
0320
,
2030
3002
0203
0320
2030
3200
2300
3002
,
0023
0000
0032
0000
0203
0000
0320
0000
1030
0001
1000
0001
1000
0100
1000
0100
,
1000
0100
0010
0001
1000
0010
1000
0010
1000
0001
1000
0010
0100
0001
0010
0100
,
1000
0010
0100
0001
0010
0001
0010
0100
1000
0010
0100
0001
1000
0010
1000
0010
,
1000
0001
1000
0100
1000
0100
0010
0001
0010
0001
0010
0001
0100
0010
1000
0100
,
1000
0010
1000
0100
0010
0100
1000
0001
0100
0010
1000
0010
1000
0010
1000
0001
,
1000
0001
1000
0100
1000
0001
1000
0010
0100
0001
0010
0100
1000
0100
1000
0001
,
1000
0100
0010
0001
0010
0100
1000
0100
0010
0100
1000
0100
0010
0100
1000
0100
,
0010
0001
0010
0100
0010
0001
0010
0100
0010
0001
0100
0010
1000
0001
1000
0010
,
1000
0010
1000
0100
1000
0001
1000
0001
1000
0010
1000
0100
0010
0100
1000
0100
,
0010
0001
0010
0001
0100
0010
1000
0001
1000
0100
1000
0001
0010
0001
0100
0010
,
1000
0100
0010
0001
1000
0001
0100
0001
1000
0010
1000
0100
0010
0001
0010
0100
,
1000
0100
1000
0010
0100
0001
0010
0100
0010
0001
0010
0100
1000
0100
0010
0100
,
1000
0001
1000
0010
0100
0010
1000
0010
1000
0100
0010
0001
0010
0100
1000
0001
,
1000
0100
0010
0001
1000
0100
0010
0001
0010
0100
1000
0001
0100
0010
1000
0001
,
0100
0010
1000
0001
1000
0001
0010
0001
1000
0100
1000
0100
0010
0001
0010
0100
,
1000
0001
1000
0100
0010
0001
0100
0010
1000
0010
0100
0001
1000
0001
1000
0001
,
0100
0001
0100
0001
1000
0010
0100
0001
0010
0001
0010
0001
0010
0001
0010
0001
,
0010
0001
0010
0001
0010
0001
0010
0001
0100
0010
0100
0010
0100
0010
0100
0010
,
0100
0010
0100
0010
0100
0010
0100
0010
0100
0001
0100
0001
0100
0001
0100
0001
,
0100
0001
0100
0001
0100
0001
0100
0010
1000
0100
0010
0001
0010
0100
1000
0100
,
1000
0010
0100
0001
0010
0001
1000
0001
1000
0100
1000
0100
1000
0100
1000
0100
,
1000
0100
1000
0100
1000
0100
1000
0100
1000
0001
1000
0001
1000
0001
1000
0001
,
1000
0001
1000
0001
1000
0001
1000
0001
1000
0010
1000
0010
1000
0010
1000
0010
,
1000
0010
1000
0010
1000
0010
1000
0100
0010
0001
0010
0100
0010
0001
0010
0100
,
1000
0010
0100
0001
0010
0100
0010
0001
0020
0000
0000
0000
0000
0000
0000
0000
,
0000
0000
0000
0000
0030
0000
M000
M000
M000
M000
M000
M000
MMMM
0000
0MM0
M00M
,
M00M
M00M
0MM0
0000
M000
M000
M000
M000
M000
M000
MMMM
0000
0000
0000
0000
0000
;
