#TITLE:Who Killed Acid Techno;
#SUBTITLE:;
#ARTIST:Steve Mills;
#TITLETRANSLIT:;
#SUBTITLETRANSLIT:;
#ARTISTTRANSLIT:;
#CREDIT:Owem;
#BANNER:../banner.png;
#BACKGROUND:../bg.png;
#LYRICSPATH:;
#CDTITLE:../cdtitleowem.png;
#MUSIC:Steve Mills - Who Killed Acid Techno.ogg;
#OFFSET:-0.094;
#SAMPLESTART:357.761;
#SAMPLELENGTH:29.999;
#SELECTABLE:YES;
#DISPLAYBPM:151.638;
#BPMS:0.000=151.603,256.000=151.637,502.000=151.643,512.000=151.689,962.000=151.693,1032.000=151.760;
#STOPS:;
#BGCHANGES:;
// cache tags:
#FIRSTBEAT:0.000;
#LASTBEAT:1288.000;
#SONGFILENAME:Songs/Owem's Simfiles 08 - 1.2/Who Killed Acid Techno - [Braeden & Owem] v1.0.1/Who Killed Acid Techno.sm;
#HASMUSIC:1;
#HASBANNER:1;
#MUSICLENGTH:522.083;
// end cache tags

//---------------dance-single - 15 (Braeden)----------------
#NOTES:
     dance-single:
     15 (Braeden):
     Hard:
     15:
     1.000,1.000,0.000,0.178,1.000,4853.000,0.000,93.000,7.000,0.000:
1000
0000
0001
0100
0000
0010
1000
0000
0001
0100
0001
0000
0100
0001
1000
0010
,
1000
0000
0001
0100
0000
0010
1000
0000
0001
0100
0001
0000
1000
0010
1000
0010
,
0100
0000
0001
1000
0000
1000
0001
0000
1000
0100
1000
0010
0100
0001
0010
0001
,
1000
0000
0100
0010
0000
0001
1000
0000
0010
0100
0001
0000
1000
0100
0010
0001
,
1000
0000
0001
0100
0000
0010
1000
0000
0001
0100
0001
0000
1000
0100
1000
0001
,
1000
0000
0010
0100
0000
0001
0100
0000
0010
1000
0010
0000
0100
0001
0100
0001
,
1000
0000
0010
0100
0000
0001
0100
0000
0010
1000
0010
0000
0100
0001
0100
0001
,
0010
0000
0100
1000
0000
0100
0010
0000
0100
1000
0001
0000
0100
0010
0100
0001
,
1000
0000
0100
0010
0000
0001
0010
0000
0100
1000
0100
0010
0001
1000
0010
0100
,
0001
0100
0010
1000
0000
1000
0100
0000
0010
0001
0100
0010
1000
0001
0010
0100
,
1000
0000
0001
0100
0000
0010
1000
0000
0100
1000
0100
0010
0100
1000
0010
0100
,
0001
0000
1000
0100
0000
0010
0001
0000
0100
0010
0100
0010
1000
0001
0100
0010
,
1000
0000
0001
0100
0000
0010
1000
0000
0001
0010
0001
0000
1000
0010
1000
0010
,
0100
0000
0001
0010
0000
0100
1000
0000
0100
0010
0100
0000
0010
0001
0010
0001
,
1000
0000
0010
0100
0000
0010
0100
0000
0001
1000
0001
0000
1000
0100
1000
0010
,
0100
0000
0010
1000
0000
1000
0010
0000
1000
0100
0010
0000
0001
0010
0100
1000
,
00M1
0100
0001
1000
0100
1000
0001
0010
0001
1000
0100
0010
0001
1000
0001
1000
,
0010
0100
0001
0010
0001
1000
0100
1000
0001
0010
0100
1000
0001
0100
0001
0100
,
0010
1000
0001
0010
0100
1000
0001
0100
0010
1000
0100
1000
0001
0100
0001
0100
,
0010
1000
0100
1000
0001
0010
0001
0100
0010
1000
0001
0100
0010
1000
0010
1000
,
0001
0100
0010
1000
0001
0010
0100
1000
0100
0010
0001
1000
0010
0100
0010
0100
,
0001
1000
0100
1000
0001
0010
0100
1000
0001
0100
0010
1000
0001
0100
0001
0100
,
0010
1000
0100
1000
0001
0010
0001
0100
0010
1000
0100
1000
0001
0100
0010
0100
,
0001
1000
0100
1000
0001
0100
0010
1000
0001
0100
0010
1000
0001
0100
0010
1000
,
0010
1000
0100
1000
0001
0010
0100
1000
0100
0010
0001
1000
0001
0010
0001
0010
,
0100
1000
0001
0100
0010
1000
0100
0010
0001
1000
0010
0100
0001
0010
0001
0010
,
0100
1000
0001
0100
0010
0100
0001
0010
0001
1000
0100
0010
0001
1000
0001
1000
,
0010
0100
0001
0010
0001
1000
0100
1000
0001
0010
0100
1000
0001
0010
0001
0010
,
0100
1000
0001
0100
0010
0100
0001
0010
0001
1000
0010
0100
0001
0010
0001
0010
,
0100
0010
0001
0100
0010
1000
0001
0010
0100
1000
0001
0100
0010
1000
0010
1000
,
0001
0010
0100
1000
0001
0100
0010
0100
0001
0010
0001
1000
0100
0010
0100
0010
,
0001
1000
0100
1000
0010
1000
0001
0010
0001
0100
0010
1000
0001
0100
0010
1000
,
0010
0000
0100
0001
0100
0010
1000
0000
0001
1000
0001
0000
1000
0100
0010
0001
,
1000
0000
0010
0100
0001
1000
0010
0000
0100
0001
0100
0000
0010
1000
0100
1000
,
0001
0000
1000
0100
1000
0001
0010
0000
0100
1000
0100
0000
0010
0001
0010
0001
,
1000
0000
0010
0100
0010
0100
0010
0000
1000
0100
1000
0000
0001
0100
0010
1000
,
0001
0000
0100
0010
0100
0001
0100
0000
0010
1000
0010
0000
0100
0001
0100
0010
,
1000
0000
0001
0010
0001
0100
0001
0000
1000
0100
1000
0000
0010
0100
0001
1000
,
0010
0000
0100
0001
0100
0010
0100
0000
0001
0010
0001
0000
1000
0100
1000
0010
,
0100
0000
0001
0010
0100
1000
0001
0000
0100
0010
0100
0000
0001
0010
0100
1000
,
0001
0100
0010
1000
0100
1000
0010
0100
0001
0010
0001
1000
0010
0100
0010
0100
,
0001
1000
0001
0010
0100
1000
0001
0100
0010
1000
0010
0100
0001
0010
0001
0010
,
0100
1000
0010
0100
0001
0100
0010
1000
0001
0010
0001
1000
0010
0100
0010
0100
,
0001
1000
0010
0100
0001
0100
0010
1000
0100
0010
0100
1000
0001
0010
0100
1000
,
0001
0100
0010
1000
0010
0100
0001
1000
0100
0010
0100
1000
0001
0010
0100
1000
,
0001
0100
0010
1000
0001
0100
0010
1000
0100
0010
0100
1000
0001
0100
0001
0100
,
0010
1000
0100
0010
0100
1000
0001
0100
0010
1000
0010
0100
0001
0010
0001
0100
,
0010
1000
0100
0010
0100
1000
0001
0100
0010
1000
0010
0100
0001
0010
0001
1000
,
01M0
1000
0001
0100
0001
0100
0010
1000
0100
0010
0100
1000
0001
0100
0001
0100
,
0010
1000
0100
0010
0100
1000
0001
0100
0010
1000
0010
0100
0001
0010
0001
0010
,
0100
1000
0001
0100
0010
1000
0001
1000
0100
0010
0100
1000
0001
0100
0010
1000
,
0001
1000
0100
0010
0100
1000
0001
0100
0010
1000
0010
0100
0001
0010
0001
0010
,
0100
1000
0001
0100
0010
0100
0001
1000
0100
0010
0100
1000
0001
0100
0010
1000
,
0001
1000
0100
0010
0100
0010
0100
1000
0001
0100
0001
1000
0100
0010
0001
0010
,
0100
1000
0001
0100
0010
1000
0001
0100
0010
1000
0100
0010
0100
1000
0001
0100
,
0010
1000
0100
0010
0100
1000
0001
0100
0010
1000
0010
0100
0001
0010
0001
0010
,
0100
0010
0001
1000
0100
1000
0001
0100
0010
1000
0010
0100
0001
0010
0001
0010
,
0100
1000
0001
0100
0010
1000
0001
0010
0100
1000
0100
0010
0001
0100
0010
1000
,
0001
1000
0100
0010
0100
1000
0010
0100
0001
0010
0001
1000
0010
0100
0010
0100
,
0010
1000
0100
0010
0100
1000
0001
0100
0010
1000
0010
0100
0001
0010
0100
1000
,
0001
1000
0100
0010
0100
1000
0001
0100
0010
1000
0010
0100
0001
0010
0100
1000
,
0001
0010
0100
1000
0100
1000
0100
0010
0001
1000
0001
0100
0010
1000
0010
1000
,
0001
0000
1000
0010
1000
0010
1000
0000
0001
0100
0001
0000
1000
0010
1000
0010
,
0100
0001
0010
0001
1000
0100
1000
0001
1000
0001
0010
0001
0100
0010
1000
0001
,
1000
0001
1000
0100
1000
0100
1000
0010
0100
0001
0100
0010
1000
0100
1000
0100
,
0010
0001
0100
0010
0100
0001
0100
0010
1000
0100
1000
0001
0010
0100
1000
0001
,
0100
0010
1000
0010
0100
0001
0100
0010
1000
0100
1000
0001
0010
0100
1000
0100
,
0010
0001
1000
0100
0010
0100
1000
0001
0100
0010
0100
0001
1000
0010
0100
0001
,
1000
0010
0100
0001
0100
0010
0100
0001
1000
0100
1000
0001
0010
0100
1000
0100
,
0010
0001
1000
0010
0100
0010
1000
0001
0100
0010
0100
0001
1000
0100
0010
0001
,
1000
0010
0100
0001
0010
0001
0100
0010
1000
0100
1000
0001
0010
0100
1000
0100
,
0010
0001
1000
0010
0100
0001
0010
0100
0010
0001
0010
0100
1000
0010
0100
0001
,
1000
0010
0100
0001
0100
0001
0100
0010
1000
0100
1000
0001
0100
0010
0100
0001
,
0100
0010
1000
0100
1000
0100
1000
0001
0100
0010
0100
0001
1000
0100
0010
0001
,
1000
0010
0100
0001
0100
0001
0100
0010
1000
0100
1000
0001
0100
0010
0100
0010
,
1000
0001
0010
0100
1000
0100
0010
0100
1000
0001
1000
0010
0100
0001
0010
0001
,
1000
0010
0100
0001
0010
0001
1000
0010
1000
0100
1000
0001
0100
0010
1000
0001
,
0010
0100
1000
0001
0010
0001
1000
0100
0010
0001
0010
0100
1000
0001
0100
0010
,
1000
0100
1000
0001
1000
0001
1000
0010
0100
0001
0100
0010
1000
0100
1000
0100
,
0010
0001
0100
0010
0100
0010
1000
0001
0100
0010
0100
0001
1000
0001
0010
0001
,
M010
0001
0100
0010
0100
0001
0100
0010
1000
0100
1000
0001
0100
0010
0100
0001
,
1000
0010
0100
0001
0100
0001
0100
0010
1000
0100
1000
0001
0010
0100
1000
0100
,
0010
0001
1000
0010
0100
0010
1000
0001
0010
0100
1000
0010
0100
0001
0010
0001
,
0100
0010
1000
0100
1000
0010
1000
0001
0100
0010
0100
0001
1000
0100
1000
0010
,
0100
0001
0010
0100
1000
0100
0010
0001
1000
0010
0100
0001
1000
0100
1000
0010
,
0100
0001
0010
0100
0010
0100
0010
0001
1000
0010
0100
0001
1000
0100
0010
0001
,
0100
0010
1000
0001
0010
0001
1000
0010
0100
0010
0100
0001
1000
0100
1000
0001
,
0100
0010
0100
0001
0100
0010
0100
0001
1000
0100
1000
0001
0100
0010
0100
0010
,
1000
0001
1000
0100
1000
0100
1000
0001
0100
0010
0100
0001
1000
0100
0010
0001
,
1000
0010
0100
0001
0100
0001
0100
0010
1000
0100
1000
0001
0010
0100
1000
0100
,
0010
0001
1000
0010
0100
0010
1000
0001
0100
0010
0100
0001
0010
0100
1000
0100
,
0010
0001
0100
0010
1000
0001
0010
0001
0100
0010
0100
0001
1000
0100
0010
0001
,
1000
0010
0100
0001
0010
0001
0100
0010
1000
0100
1000
0001
0010
0100
1000
0100
,
0010
0001
0010
0100
1000
0010
0100
0001
0100
0010
0100
0001
1000
0100
0010
0001
,
1000
0000
0010
0100
0010
0100
0010
0000
1000
0100
1000
0000
0001
0100
0001
1000
,
0010
1000
0001
0010
0100
1000
0001
0100
0010
0100
0001
0010
0001
1000
0100
0010
,
0001
0100
0010
1000
0010
0100
0001
1000
0010
0100
0001
1000
0100
0010
0100
1000
,
0001
0100
0010
1000
0010
1000
0100
1000
0010
0100
0010
1000
0001
0010
0100
1000
,
0010
0100
0001
0010
0001
0100
0001
1000
0100
0010
0100
1000
0001
0100
0010
1000
,
0001
1000
0100
0010
0100
1000
0001
0100
0010
1000
0010
0100
0001
0010
0100
1000
,
0100
0010
0100
1000
0010
1000
0100
0010
0100
1000
0001
0100
0010
1000
0100
1000
,
0001
0100
0010
1000
0010
0100
0001
1000
0010
0100
0010
1000
0001
0010
0100
1000
,
0100
0010
0001
1000
0010
0100
0001
1000
0010
0100
0010
1000
0001
0010
0100
1000
,
0010
0100
0001
0010
0001
1000
0010
0100
0001
0010
0001
1000
0100
0010
0001
0010
,
0100
1000
0001
0100
0010
0100
0001
1000
0001
0010
0001
1000
0010
0100
0010
1000
,
0001
0100
0010
1000
0010
0100
0001
1000
0100
0010
0100
1000
0001
0010
0100
1000
,
0001
0100
0001
0010
0001
1000
0100
0010
0100
1000
0010
0100
0001
0010
0001
1000
,
0010
0100
0001
0010
0001
1000
0001
0100
0010
1000
0100
0010
0001
0100
0010
1000
,
0001
1000
0010
0100
0001
1000
0100
0010
0001
1000
0001
0100
0010
1000
0010
0100
,
0001
1000
0100
0010
0100
1000
0001
0010
0001
1000
0001
0100
0010
1000
0010
0100
,
0001
1000
0100
0010
0100
1000
0001
0100
0010
1000
0010
0100
0001
0010
0001
1000
,
0010
0100
0001
0010
0001
1000
0100
0010
0100
1000
0001
0100
0010
1000
0001
0100
,
00M1
1000
0100
0010
0100
1000
0001
0100
0010
1000
0010
0100
0001
0010
0100
1000
,
0100
0010
0001
1000
0010
0100
0001
1000
0100
0010
0100
1000
0001
0010
0001
0100
,
0001
1000
0010
0100
0001
0100
0010
1000
0100
0010
0100
1000
0001
0010
0001
0100
,
0010
1000
0100
0010
0100
1000
0100
0010
0001
1000
0001
0100
0010
1000
0010
0100
,
0001
1000
0100
0010
0100
1000
0001
0010
0100
1000
0100
0010
0001
1000
0001
0100
,
0010
1000
0100
0010
0001
0010
0100
1000
0001
0100
0010
1000
0001
0010
0001
1000
,
0100
0010
0001
1000
0010
0100
0001
1000
0100
0010
0100
1000
0001
0010
0001
0100
,
0010
1000
0100
1000
0001
0010
0001
1000
0100
0010
0001
0010
0100
1000
0001
0100
,
0010
0100
0001
0010
0001
1000
0100
0010
0001
0010
0100
1000
0001
0100
0010
1000
,
0001
0010
0001
0100
0010
1000
0001
0010
0100
1000
0100
0010
0001
1000
0010
0100
,
0001
1000
0100
0010
0100
1000
0001
0010
0100
1000
0100
0010
0001
0100
0010
1000
,
0001
0010
0100
1000
0100
0010
0001
0100
0010
1000
0010
0100
0001
0010
0001
1000
,
0010
0100
0001
0010
0100
1000
0001
0100
0010
1000
0100
0010
0001
1000
0010
0100
,
0001
0010
0100
1000
0001
0100
0010
0100
0001
0010
0001
1000
0100
0010
0001
0010
,
0100
1000
0001
0100
0010
1000
0001
0010
0100
1000
0001
0100
0010
0100
0001
0010
,
0001
1000
0100
0010
0001
0010
0100
1000
0001
0100
0010
1000
0001
0010
0100
1000
,
0001
0000
0010
0100
1000
0100
0010
0001
0200
0000
0320
0000
2030
0000
3001
0100
,
0001
0000
0010
0100
1000
0100
0010
0001
2000
0000
3020
0000
0230
0000
0301
1000
,
0010
0000
0100
0001
0100
0010
1000
0001
0020
0000
0230
0000
2300
0000
3001
0100
,
0010
0000
0100
0001
0100
0010
1000
0001
0020
0000
0230
0000
0320
0000
0031
1000
,
0010
0000
0100
0001
0010
0001
1000
0100
2000
0000
3002
0000
0203
0000
0310
1000
,
0001
0000
0100
0010
1000
0001
0010
0100
0020
0000
0032
0000
0203
0000
0310
1000
,
0010
0000
0100
0001
0010
0001
1000
0010
0200
0000
0302
0000
0203
0000
0310
1000
,
0010
0000
0100
0001
0100
0010
1000
0100
0020
0030
0002
0000
0203
0000
0310
1000
,
0001
0000
1000
0100
1000
0001
1000
0001
2000
0000
3002
0000
2003
0000
3001
1000
,
0001
0000
1000
0100
1000
0001
0010
0100
2000
0000
3020
0000
0230
0000
0301
1000
,
0010
0000
0100
0001
0010
0001
0100
0010
2000
0000
3020
0030
0200
0000
0301
0010
,
0100
0000
1000
0001
0100
0010
1000
0100
0020
0000
0230
0000
0320
0000
0130
1000
,
0001
0000
0100
0010
0100
0001
0010
0100
0020
0000
0032
0000
0203
0000
0310
1000
,
0001
0000
0100
0010
1000
0001
0010
0100
2000
0000
3020
0000
0230
0000
0301
0010
,
0100
0000
1000
0010
0100
0001
0010
0001
2000
0000
3020
0000
0230
0000
0301
0010
,
0100
0000
1000
0001
0010
0100
1000
0010
2000
0000
3002
0000
2003
0000
3001
1000
,
0002
0003
1000
0100
1000
0001
0010
0100
2000
0000
3020
0000
2030
0000
3100
0010
,
0001
0000
1000
0100
1000
0001
0010
0100
2000
0000
3020
0000
0230
0000
0301
0010
,
0100
0000
1000
0001
0010
0001
1000
0100
0020
0000
0032
0000
0203
0000
0310
1000
,
0010
0000
0100
0001
0010
0001
0100
0010
2000
0000
3020
0000
0230
0000
0301
0010
,
0100
0000
1000
0001
0010
0001
1000
0100
0020
0000
0032
0000
0203
0000
0310
1000
,
0010
0000
0100
0001
0010
0001
1000
0100
0010
0000
0002
0000
2003
0000
3010
0100
,
0020
0000
0000
0000
1030
0100
1000
0001
0020
0000
0230
0000
2300
0000
3001
0100
,
0020
0000
0000
0000
1030
0100
1000
0001
0020
0000
0230
0000
0320
0000
0031
1000
,
0020
0000
0000
0000
0130
0001
0100
0010
2000
0000
3200
0000
0320
0000
0130
1000
,
0002
0000
0000
0000
0103
0010
1000
0010
0200
0000
0302
0000
0023
0000
0031
1000
,
0020
0000
0000
0000
0130
0001
1000
0100
2000
0000
3020
0000
0230
0000
0301
0010
,
0200
0000
0000
0000
1300
0010
0100
0001
2000
0000
3020
0000
0230
0000
0301
0010
,
0002
0000
0000
0000
0013
0100
0010
0001
0100
0000
0010
0000
1000
0000
0001
0010
,
0200
0000
0000
0000
0310
0001
1000
0010
0100
0000
0001
0000
0100
0000
0010
1000
,
0002
0000
0000
0000
1003
0100
1000
0001
0010
0000
0100
0000
1000
0000
0001
0100
,
0010
1000
0001
0010
0001
1000
0100
0010
0001
1000
0010
0100
0001
0010
0001
1000
,
0100
0000
0000
0000
,
0000
0000
0000
0000
,
1000
0010
0100
0001
1000
0100
0010
0001
0010
0100
1000
0010
0100
0001
1000
0100
,
0010
0001
0100
0010
0100
0001
1000
0100
0010
0001
1000
0010
0100
0001
1000
0100
,
0010
0001
0100
0001
1000
0010
0100
0001
1000
0010
1000
0100
0010
0001
0100
0001
,
1000
0010
0100
0001
1000
0100
0010
0100
1000
0010
1000
0001
0100
0010
1000
0001
,
0010
0100
1000
0010
0100
0001
1000
0010
1000
0100
1000
0001
0100
0001
0010
0001
,
1000
0010
0100
0001
1000
0100
0010
0001
0100
0010
0100
0001
1000
0001
0100
0001
,
1000
0010
1000
0100
0010
0001
1000
0100
0010
0001
0100
0010
1000
0001
0010
0001
,
1000
0100
0010
0001
0010
0100
1000
0010
1000
0001
0100
0010
1000
0010
0100
0001
,
1000
0100
0010
0100
1000
0010
0100
0001
1000
0100
0010
0001
0100
0010
1000
0001
,
0010
0100
1000
0100
0010
0001
0100
0010
1000
0001
1000
0100
0010
0001
0100
0001
,
0010
0100
1000
0010
1000
0001
1000
0100
0010
0001
0010
0100
1000
0010
1000
0001
,
0100
0010
0100
0001
0100
0010
1000
0100
0010
0001
0010
0100
1000
0001
0100
0001
,
1000
0100
0010
0001
0100
0001
1000
0010
0100
0001
1000
0100
0010
0001
1000
0010
,
0100
0001
1000
0010
1000
0100
0010
0001
0100
0010
0100
0001
1000
0100
0010
0001
,
1000
0010
0100
0001
1000
0100
0010
0001
0100
0010
0100
0001
1000
0010
0100
0001
,
1000
0100
0010
0001
1000
0010
0100
0001
0100
0010
1000
0100
0010
0001
1000
0001
,
01M0
0001
1000
0001
0010
0001
1000
0010
0100
0001
1000
0010
0100
0001
1000
0100
,
1000
0001
0100
0001
1000
0010
1000
0001
0100
0010
1000
0010
0100
0001
1000
0010
,
1000
0100
0010
0001
1000
0010
0100
0001
1000
0100
0010
0100
1000
0001
0010
0100
,
1000
0001
0100
0010
1000
0010
0100
0001
1000
0100
0010
0100
1000
0010
1000
0001
,
0010
0100
1000
0010
1000
0001
0100
0010
1000
0001
0010
0100
1000
0010
1000
0001
,
0010
0100
1000
0001
0100
0001
1000
0010
0100
0001
1000
0100
0010
0100
1000
0001
,
0100
0010
0100
0001
1000
0100
0010
0001
1000
0010
0100
0001
1000
0100
0010
0100
,
1000
0010
1000
0001
0100
0010
1000
0010
0100
0001
1000
0100
0010
0100
1000
0001
,
0010
0001
1000
0100
1000
0010
0100
0001
0100
0010
1000
0001
0010
0100
1000
0100
,
0010
0001
1000
0100
1000
0001
0100
0001
0010
0001
1000
0010
0100
0001
0010
0100
,
0010
0001
1000
0100
0010
0100
1000
0001
0010
0100
1000
0010
1000
0001
0100
0010
,
1000
0010
0100
0001
1000
0100
0010
0100
1000
0001
0100
0001
1000
0010
1000
0100
,
0010
0001
0100
0010
0100
0001
1000
0100
0010
0001
0010
0100
1000
0010
1000
0001
,
0010
0100
1000
0010
1000
0001
0100
0010
0100
0001
1000
0100
0010
0001
1000
0010
,
1000
0000
0001
0010
0100
1000
0001
0100
0010
0000
1000
0000
0100
0000
0010
0001
,
1000
0010
1000
0001
0100
0010
1000
0001
0010
0100
1000
0001
0010
0100
1000
0001
,
1000
0010
0100
0001
1000
0010
1000
0001
0100
0010
1000
0001
0010
0100
1000
0010
,
0100
0001
1000
0100
0010
0100
1000
0010
1000
0001
0100
0010
1000
0001
0010
0100
,
1000
0010
1000
0001
0100
0010
1000
0010
0100
0001
1000
0100
0010
0100
1000
0010
,
1000
0001
0100
0010
1000
0001
0010
0100
1000
0010
1000
0001
0100
0010
1000
0010
,
0100
0001
1000
0100
0010
0100
1000
0010
0100
0001
1000
0100
0010
0100
1000
0010
,
1000
0001
0100
0010
1000
0010
0100
0001
1000
0100
0010
0100
1000
0010
1000
0001
,
0100
0010
1000
0001
0010
0100
1000
0010
1000
0001
0100
0010
1000
0010
0100
0001
,
1000
0100
0010
0100
1000
0010
1000
0100
1000
0001
0100
0001
0010
0100
1000
0010
,
0100
0001
1000
0100
0010
0001
0100
0010
1000
0010
0100
0001
1000
0100
0010
0100
,
1000
0010
1000
0001
0100
0010
1000
0010
0100
0001
1000
0100
0010
0001
1000
0010
,
1000
0001
0100
0010
1000
0010
0100
0001
1000
0100
0010
0100
1000
0010
1000
0001
,
0100
0010
1000
0001
0010
0001
1000
0010
1000
0100
0010
0001
0010
0100
1000
0010
,
0100
0001
1000
0100
0010
0100
1000
0010
1000
0001
0010
0001
1000
0010
0100
0001
,
1000
0010
1000
0001
0100
0001
1000
0100
0010
0001
0100
0010
0100
0001
1000
0010
,
0100
0001
1000
0100
0010
0100
1000
0010
1000
0001
0100
0010
1000
0001
0010
0100
,
1000
0010
0100
0001
1000
0100
0010
0100
1000
0010
1000
0001
0100
0010
1000
0001
,
01M0
0001
1000
0010
1000
0001
0010
0100
1000
0010
1000
0001
0100
0010
1000
0010
,
0100
0001
1000
0100
0010
0100
1000
0010
1000
0001
1000
0100
0010
0001
0100
0010
,
1000
0010
0100
0001
1000
0100
0010
0001
1000
0010
0100
0001
1000
0100
0010
0100
,
1000
0010
1000
0001
0100
0001
1000
0010
0100
0001
1000
0100
0010
0100
1000
0010
,
1000
0001
0100
0001
1000
0010
0100
0001
1000
0010
1000
0001
0010
0100
1000
0100
,
0010
0001
0100
0010
1000
0010
0100
0001
1000
0100
0010
0100
1000
0100
0010
0001
,
1000
0010
0100
0001
1000
0100
0010
0100
1000
0010
1000
0001
0010
0100
1000
0010
,
1000
0001
0100
0010
1000
0010
0100
0001
1000
0100
0010
0100
1000
0010
1000
0001
,
0100
0001
1000
0010
0100
0001
1000
0100
0010
0100
1000
0010
1000
0001
0100
0010
,
1000
0001
0010
0001
1000
0010
0100
0001
1000
0100
0010
0001
1000
0010
1000
0001
,
0100
0010
1000
0010
0100
0001
1000
0100
0010
0001
1000
0010
0100
0001
1000
0100
,
0010
0100
1000
0010
1000
0001
0100
0010
0100
0001
1000
0100
0010
0100
1000
0010
,
1000
0001
0010
0100
1000
0010
0100
0001
1000
0100
0010
0100
1000
0010
1000
0001
,
0100
0010
1000
0001
0010
0100
1000
0010
1000
0001
0100
0001
1000
0100
0010
0100
,
1000
0001
0010
0100
1000
0100
0010
0001
1000
0100
0010
0001
0100
0001
1000
0100
,
0010
0001
0100
0010
1000
0010
0100
0001
1000
0100
0010
0001
1000
0010
0100
0001
,
0010
0001
1000
0010
0100
0001
1000
0010
1000
0001
0100
0010
1000
0001
0010
0100
,
1000
0010
1000
0001
0010
0100
1000
0010
0100
0001
1000
0100
0010
0100
1000
0010
,
1000
0001
0100
0001
1000
0010
0100
0001
1000
0100
0010
0100
1000
0010
1000
0001
,
0100
0001
1000
0010
0100
0001
1000
0100
0010
0100
1000
0010
1000
0001
0100
0001
,
1000
0010
0100
0001
1000
0100
0010
0100
1000
0010
1000
0001
1000
0010
1000
0001
,
0100
0001
0010
0001
0100
0001
1000
0010
0100
0001
1000
0100
0010
0100
1000
0010
,
1000
0001
1000
0100
0010
0001
1000
0010
0100
0001
0100
0010
1000
0001
0010
0001
,
1000
0010
0100
0001
1000
0010
1000
0100
0010
0001
1000
0010
0100
0001
1000
0100
,
0010
0100
1000
0010
0100
0001
1000
0100
0010
0001
1000
0100
0010
0001
1000
0010
,
0100
0001
1000
0010
1000
0001
0010
0100
1000
0001
0100
0010
1000
0100
0010
0001
,
1000
0010
0100
0001
0010
0100
1000
0010
1000
0001
0100
0010
1000
0100
0010
0001
,
1000
0010
0100
0001
1000
0010
1000
0100
1000
0001
0010
0001
1000
0100
0010
0001
,
0100
0010
1000
0010
0100
0001
1000
0100
0010
0100
1000
0010
0100
0001
1000
0100
,
0010
0100
1000
0010
1000
0001
0100
0010
0100
0001
1000
0100
0010
0100
1000
0001
,
0010
0100
1000
0100
0010
0100
1000
0010
0100
0010
1000
0100
0010
0100
1000
0010
,
0100
0010
1000
0100
0010
0001
1000
0010
0100
0001
1000
0100
0010
0001
0100
0001
,
10M0
0001
0100
0010
0100
0001
1000
0010
1000
0100
0010
0001
1000
0001
0100
0001
,
1000
0010
0100
0001
1000
0100
0010
0100
1000
0010
1000
0001
0100
0010
1000
0010
,
0100
0001
1000
0100
0010
0001
1000
0010
0100
0001
1000
0100
0010
0100
1000
0010
,
1000
0001
0100
0010
1000
0001
0010
0100
1000
0010
0100
0001
1000
0100
0010
0100
,
1000
0010
1000
0001
0100
0010
1000
0001
0010
0001
1000
0010
1000
0100
0010
0001
,
1000
0010
0100
0001
1000
0100
0010
0001
0100
0010
1000
0001
1000
0100
1000
0010
,
0100
0001
0010
0100
1000
0010
1000
0001
0100
0010
1000
0001
0010
0100
1000
0010
,
1000
0001
0100
0001
1000
0100
0010
0100
1000
0001
1000
0010
1000
0001
0100
0001
,
1000
0100
0010
0100
1000
0010
0100
0001
1000
0010
1000
0001
0100
0010
1000
0010
,
0100
0001
1000
0100
0010
0100
1000
0010
1000
0001
0100
0010
1000
0001
0010
0100
,
1000
0010
1000
0001
0100
0010
0100
0001
0010
0100
1000
0010
1000
0001
0100
0001
,
1000
0010
0100
0001
1000
0100
0010
0100
1000
0010
0100
0001
1000
0100
0010
0100
,
1000
0010
1000
0001
0100
0010
1000
0001
0010
0100
1000
0010
0100
0001
1000
0100
,
0010
0100
1000
0001
0100
0010
1000
0001
0010
0100
1000
0100
0010
0001
1000
0001
,
0100
0000
0001
1000
0100
0010
0001
0000
0010
0100
1000
0001
0010
0000
0100
1000
,
0001
1000
0100
1000
0001
1000
0100
1000
0010
1000
0001
0100
0010
1000
0010
0100
,
0001
1000
0001
0010
0001
0100
0010
1000
0010
0100
0001
1000
0100
0010
0100
1000
,
0001
1000
0001
0100
0010
1000
0010
0100
0001
1000
0100
0010
0100
1000
0001
0100
,
0001
1000
0100
0010
0100
1000
0001
0100
0010
1000
0010
0100
0001
1000
0100
0010
,
0100
1000
0010
1000
0001
0100
0010
1000
0010
0100
0001
1000
0100
0010
0100
1000
,
0010
1000
0001
0100
0010
1000
0001
0010
0100
1000
0010
0100
0001
1000
0100
0010
,
0100
1000
0010
1000
0001
0100
0010
1000
0001
0010
0100
1000
0010
0100
0001
1000
,
0100
0010
0001
1000
0010
0100
0001
1000
0010
1000
0001
0100
0010
1000
0001
0010
,
0100
1000
0010
1000
0001
0100
0010
1000
0001
0010
0100
1000
0010
0100
0001
1000
,
0100
0010
0100
1000
0010
1000
0001
0100
0010
0100
0001
1000
0100
0010
0001
1000
,
0010
0100
0001
1000
0010
1000
0001
0100
0001
1000
0010
0100
0001
0010
0100
1000
,
0010
1000
0001
0100
0010
1000
0001
0010
0100
1000
0010
0100
0001
1000
0100
0010
,
0100
1000
0010
1000
0001
0100
0010
1000
0001
0010
0001
0100
0001
1000
0010
1000
,
0100
1000
0001
0100
0010
1000
0010
0100
0001
1000
0100
0010
0100
1000
0010
0100
,
0001
1000
0010
1000
0100
0010
0001
1000
0010
0100
0010
1000
0001
0010
0100
1000
,
0001
0100
0010
0100
0001
1000
0100
0010
0001
0100
0001
1000
0010
1000
0100
0010
,
0001
1000
0010
0100
0001
1000
0100
0010
0001
0100
0010
1000
0010
0100
0001
1000
,
0010
1000
0001
0100
0010
1000
0010
0100
0001
1000
0100
0010
0001
0100
0010
1000
,
0010
0100
0001
1000
0100
0010
0100
1000
0010
1000
0001
0100
0010
1000
0001
0010
,
0100
1000
0010
0100
0001
1000
0100
0010
0100
1000
0010
1000
0001
0100
0010
1000
,
0010
0100
0001
1000
0100
0010
0100
1000
0010
1000
0001
0100
0010
0100
0001
1000
,
0010
0100
0001
1000
0100
0010
0100
1000
0010
1000
0001
0100
0001
1000
0010
0100
,
0001
1000
0100
0010
0100
1000
0010
1000
0001
0100
0010
1000
0010
0100
0001
1000
,
0100
0010
0001
1000
0010
0100
0001
1000
0100
0010
0001
0100
0010
1000
0001
0010
,
0100
1000
0001
0100
0010
1000
0010
0100
0001
1000
0100
0010
0100
1000
0010
1000
,
0001
0100
0010
0100
0001
1000
0100
0010
0001
1000
0010
0100
0001
1000
0100
0010
,
0100
1000
0010
1000
0001
0100
0001
1000
0010
0100
0001
1000
0100
0010
0100
1000
,
0010
0100
0001
1000
0100
0010
0001
0100
0001
1000
0010
0100
0001
1000
0100
0010
,
0100
1000
0010
0100
0010
1000
0001
0010
0100
1000
0010
1000
0001
0100
0010
1000
,
0001
0010
0100
1000
0010
0100
0010
1000
0001
0010
0100
1000
0010
1000
0001
0100
,
0010
1000
0001
0010
0100
1000
0010
0100
0001
0100
0010
1000
0001
0010
0100
1000
,
0010
1000
0001
0100
0010
1000
0010
0100
0001
1000
0100
0010
0100
1000
0010
1000
,
0001
0100
0010
1000
0010
0100
0001
1000
0100
0010
0100
1000
0001
0010
0001
0100
,
0001
0000
1000
0100
0010
0001
0100
0010
1000
0010
0100
0001
1000
0100
0010
0001
,
0100
0000
0010
1000
0100
0010
0001
1000
0010
0100
0001
1000
0100
0010
0100
1000
,
0001
0000
0100
0010
0100
0001
1000
0100
0010
0001
1000
0010
0100
0001
1000
0100
,
0010
0000
0001
1000
0010
0100
0001
1000
0100
0010
0001
0100
0010
1000
0001
0010
,
0100
0000
1000
0010
0100
0001
1000
0100
0010
0100
1000
0010
1000
0001
0100
0010
,
1000
0000
0001
0010
0100
1000
0010
0100
0001
1000
0100
0010
0001
1000
0100
0010
,
0001
0000
0100
0010
0100
0001
0010
0100
1000
0001
0100
0010
0100
0001
1000
0100
,
0010
0000
0001
0100
0001
1000
0001
0100
0001
1000
0010
0100
0001
1000
0100
0010
,
0001
0000
0100
0010
0100
0001
1000
0010
0100
0001
1000
0100
0010
0100
1000
0001
,
0100
0000
0010
0100
0001
1000
0010
1000
0100
0010
0001
1000
0100
0010
0001
1000
,
0010
0000
0100
0001
1000
0100
0010
0100
1000
0010
1000
0001
0100
0010
1000
0001
,
0010
0000
0100
1000
0010
1000
0001
0100
0010
1000
0010
0100
0001
1000
0100
0010
,
0001
0000
1000
0010
0100
0010
1000
0001
0010
0100
1000
0010
1000
0001
0100
0010
,
0100
0000
0001
1000
0010
1000
0100
0010
0001
0100
0010
1000
0100
0010
0001
1000
,
0100
0000
0010
0001
0100
0010
1000
0100
0010
0001
1000
0010
1000
0100
0010
0001
,
1000
0000
0100
0010
0001
1000
0010
0100
0001
1000
0100
0010
0100
1000
0100
0010
,
0001
0000
0100
0010
0100
0001
1000
0100
0010
0001
0100
0010
0100
0001
1000
0100
,
0010
0000
0001
0100
0001
1000
0010
0100
0001
1000
0100
0010
0100
1000
0010
1000
,
0001
0000
0010
0100
1000
0010
1000
0001
0100
0010
1000
0010
0100
0001
1000
0100
,
0010
0000
0001
0010
0100
1000
0010
1000
0001
0100
0001
1000
0010
0100
0001
1000
,
0100
0000
0010
0001
1000
0010
0100
0001
1000
0100
0010
0100
1000
0010
1000
0001
,
0010
0000
0100
1000
0010
1000
0001
0100
0010
1000
0100
0010
0001
1000
0010
0100
,
0010
0000
1000
0100
0010
0001
1000
0010
1000
0100
0010
0001
1000
0010
1000
0100
,
0010
0000
0100
1000
0010
1000
0100
0010
0001
1000
0010
1000
0001
0100
0010
1000
,
0100
0000
0010
0001
1000
0010
1000
0100
0010
0001
1000
0010
1000
0100
0010
0001
,
1000
0000
0010
0100
0010
1000
0100
0010
0001
1000
0010
1000
0001
0100
0001
1000
,
0100
0000
0010
0001
1000
0010
0100
0001
1000
0100
0010
0100
1000
0010
1000
0001
,
0010
0000
0100
1000
0010
1000
0001
0100
0010
1000
0001
0010
0100
1000
0010
1000
,
0001
0000
0010
0100
1000
0010
1000
0001
1000
0010
0100
0010
1000
0100
0010
0001
,
1000
0000
0100
0010
0100
1000
0010
1000
0001
0100
0010
1000
0001
0010
0100
1000
,
0001
0000
0010
0100
1000
0010
1000
0001
0100
0010
1000
0010
0100
0001
1000
0100
,
0010
0000
0100
1000
0010
1000
0001
0100
0010
1000
0010
0100
0001
1000
0100
0010
,
0001
0000
0000
0000
;

//---------------dance-single - 21- (Owem)----------------
#NOTES:
     dance-single:
     21- (Owem):
     Challenge:
     21:
     1.000,1.000,0.000,0.178,1.000,6605.000,0.000,93.000,1.000,0.000:
1000
0000
0001
0100
0000
0010
1000
0000
0001
0100
0001
0000
0100
0001
1000
0010
,
1000
0000
0001
0100
0000
0010
1000
0000
0001
0100
0001
0000
1000
0010
1000
0010
,
0100
0000
0001
1000
0000
1000
0001
0000
1000
0100
1000
0010
0100
0001
0010
0001
,
1000
0000
0100
0010
0000
0001
1000
0000
0010
0100
0001
0000
1000
0100
0010
0001
,
1000
0000
0001
0100
0000
0010
1000
0000
0001
0100
0001
0000
1000
0100
1000
0001
,
1000
0000
0010
0100
0000
0001
0100
0000
0010
1000
0010
0000
0100
0001
0100
0001
,
1000
0000
0010
0100
0000
0001
0100
0000
0010
1000
0010
0000
0100
0001
0100
0001
,
0010
0000
0100
1000
0000
0100
0010
0000
0100
1000
0001
0000
0100
0010
0100
0001
,
1000
0000
0100
0010
0000
0001
0010
0000
0100
1000
0100
0010
0001
1000
0010
0100
,
0001
0100
0010
1000
0000
1000
0100
0000
0010
0001
0100
0010
1000
0001
0010
0100
,
1000
0000
0001
0100
0000
0010
1000
0000
0100
1000
0100
0010
0100
1000
0010
0100
,
0001
0000
1000
0100
0000
0010
0001
0000
0100
0010
0100
0010
1000
0001
0100
0010
,
1000
0000
0001
0100
0000
0010
1000
0000
0001
0010
0001
0000
1000
0010
1000
0010
,
0100
0000
0001
0010
0000
0100
1000
0000
0100
0010
0100
0000
0010
0001
0010
0001
,
1000
0000
0010
0100
0000
0010
0100
0000
0001
1000
0001
0000
1000
0100
1000
0010
,
0100
0000
0010
1000
0000
1000
0010
0000
1000
0100
0010
0000
0001
0010
0100
1000
,
00M1
0100
0001
1000
0100
1000
0001
0010
0001
1000
0100
0010
0001
1000
0001
1000
,
0010
0100
0001
0010
0001
1000
0100
1000
0001
0010
0100
1000
0001
0100
0001
0100
,
0010
1000
0001
0010
0100
1000
0001
0100
0010
1000
0100
1000
0001
0100
0001
0100
,
0010
1000
0100
1000
0001
0010
0001
0100
0010
1000
0001
0100
0010
1000
0010
1000
,
0001
0100
0010
1000
0001
0010
0100
1000
0100
0010
0001
1000
0010
0100
0010
0100
,
0001
1000
0100
1000
0001
0010
0100
1000
0001
0100
0010
1000
0001
0100
0001
0100
,
0010
1000
0100
1000
0001
0010
0001
0100
0010
1000
0100
1000
0001
0100
0010
0100
,
0001
1000
0100
1000
0001
0100
0010
1000
0001
0100
0010
1000
0001
0100
0010
1000
,
0010
1000
0100
1000
0001
0010
0100
1000
0100
0010
0001
1000
0001
0010
0001
0010
,
0100
1000
0001
0100
0010
1000
0100
0010
0001
1000
0010
0100
0001
0010
0001
0010
,
0100
1000
0001
0100
0010
0100
0001
0010
0001
1000
0100
0010
0001
1000
0001
1000
,
0010
0100
0001
0010
0001
1000
0100
1000
0001
0010
0100
1000
0001
0010
0001
0010
,
0100
1000
0001
0100
0010
0100
0001
0010
0001
1000
0010
0100
0001
0010
0001
0010
,
0100
0010
0001
0100
0010
1000
0001
0010
0100
1000
0001
0100
0010
1000
0010
1000
,
0001
0010
0100
1000
0001
0100
0010
0100
0001
0010
0001
1000
0100
0010
0100
0010
,
0001
1000
0100
1000
0010
1000
0001
0010
0001
0100
0010
1000
0001
0100
0010
1000
,
0001
0010
0100
1000
0001
0100
0010
0100
0001
1000
0010
1000
0001
0100
0010
1000
0001
0100
0001
0010
0100
1000
0001
0010
,
0001
1000
0010
0100
0001
0100
0010
1000
0001
0100
0001
0010
0100
1000
0001
0010
0001
0100
0010
1000
0001
0100
0010
0100
,
0001
1000
0010
0100
0001
1000
0100
0010
0001
1000
0001
0010
0100
1000
0001
0100
0010
1000
0001
0010
0001
1000
0100
1000
,
0001
0100
0010
1000
0001
0010
0001
1000
0100
0010
0001
1000
0100
1000
0010
0100
0001
0100
0010
1000
0001
0010
0001
1000
,
0100
0010
0001
1000
0100
1000
0010
0100
0001
1000
0001
0100
0010
0100
0001
1000
0100
0010
0001
1000
0100
1000
0001
0010
,
0100
1000
0001
0100
0001
1000
0010
0100
0001
0100
0010
1000
0001
0010
0001
1000
0001
0100
0010
0100
0001
0100
0010
1000
,
0001
0100
0001
1000
0100
0010
0001
1000
0010
0100
0001
1000
0100
1000
0010
0100
0001
0100
0010
1000
0001
1000
0100
0010
,
0100
1000
0001
0010
0001
0100
0010
1000
0001
0010
0100
1000
0001
0010
0001
0100
0010
0100
0001
1000
0100
0010
0001
1000
,
0001
0100
0010
1000
0001
0010
0001
0100
0010
1000
0001
0100
0001
1000
0100
0010
0001
1000
0010
0100
0001
0100
0010
1000
,
0001
1000
0100
0010
0100
1000
0001
0100
0001
0010
0100
1000
0001
0100
0010
1000
0001
0100
0001
0010
0100
1000
0001
0010
,
0001
1000
0010
0100
0001
0100
0010
1000
0001
1000
0100
0010
0100
1000
0001
0010
0001
1000
0010
0100
0001
0100
0010
1000
,
0001
0100
0001
0010
0100
1000
0001
0010
0001
1000
0010
0100
0001
1000
0100
0010
0001
1000
0010
1000
0001
0100
0001
0010
,
0100
1000
0001
0010
0001
0100
0010
1000
0001
0100
0001
1000
0100
0010
0001
1000
0010
0100
0001
0100
0010
1000
0001
0010
,
0001
1000
0100
0010
0001
1000
0010
0100
0001
1000
0100
1000
0001
0100
0001
0010
0100
1000
0001
1000
0010
0100
0001
1000
,
0100
0010
0100
1000
0001
0100
0001
0010
0100
1000
0100
0010
0001
1000
0001
0100
0010
0100
0001
0100
0010
1000
0001
1000
,
0100
0010
0100
1000
0001
0010
0001
1000
0010
1000
0001
0010
0100
1000
0001
0010
0001
0100
0010
1000
0001
0100
0010
0100
,
0001
1000
0100
0010
0001
1000
0010
0100
0001
0100
0010
1000
0001
0100
0001
1000
0010
0100
0001
1000
0100
0010
0001
1000
,
0010
0100
0001
0100
0010
1000
0001
0010
0100
1000
0001
0010
0001
1000
0010
0100
0001
0100
0010
1000
0001
1000
0100
0010
,
0100
1000
0001
0010
0001
0100
0010
1000
0001
0100
0001
1000
0010
0100
0001
1000
0100
0010
0001
1000
0100
1000
0001
0010
,
0001
0100
0010
0100
0001
1000
0010
1000
0100
0010
0100
1000
0001
0010
0001
1000
0001
0100
0010
1000
0001
0010
0100
1000
,
0001
0010
0001
0100
0010
1000
0001
0010
0100
1000
0100
0010
0001
1000
0010
0100
0001
1000
0100
1000
0001
0100
0010
1000
,
0001
0010
0001
1000
0100
0010
0001
1000
0010
0100
0001
1000
0100
1000
0001
0100
0001
0010
0100
1000
0001
0010
0001
1000
,
0010
0100
0001
0100
0010
1000
0001
0100
0010
0100
0001
1000
0100
0010
0100
1000
0001
0010
0001
0010
0100
1000
0001
0010
,
0001
1000
0001
0100
0010
1000
0001
0100
0001
1000
0100
0010
0001
1000
0010
0100
0001
1000
0100
0010
0100
1000
0001
0010
,
0001
0100
0010
1000
0001
0100
0001
0010
0100
1000
0001
0010
0001
1000
0100
0010
0001
1000
0010
0100
0001
0100
0010
1000
,
0001
0100
0001
0010
0100
1000
0001
0100
0010
1000
0001
0100
0010
0100
0001
1000
0100
0010
0001
1000
0100
1000
0001
0010
,
0100
1000
0001
0010
0001
0100
0010
0100
0001
1000
0100
0010
0001
1000
0001
0100
0010
0100
0001
0100
0010
1000
0001
0100
,
0001
1000
0100
0010
0001
1000
0010
0100
0001
1000
0100
1000
0001
0100
0010
1000
0001
0010
0001
0100
0010
1000
0001
0100
,
0001
0010
0100
1000
0001
0010
0001
1000
0100
0010
0001
1000
0010
0100
0001
1000
0001
0100
0010
0100
0001
1000
0100
1000
,
0001
0010
0100
0010
0001
1000
0100
1000
0001
0100
0001
0010
0100
1000
0001
0100
0010
1000
0010
0100
0001
1000
0010
0100
,
0001
0000
1000
0010
1000
0010
1000
0000
0001
0100
0001
0000
1000
0010
1000
0010
,
0100
0001
0010
0001
1000
0100
1000
0001
1000
0001
0010
0001
0100
0010
1000
0001
,
1000
0100
0010
0001
1000
0010
0100
0001
0100
0010
1000
0001
0010
0100
1000
0001
0010
0001
1000
0010
0100
0001
0100
0010
,
1000
0001
1000
0100
0010
0100
1000
0001
0010
0001
0100
0010
1000
0001
0100
0001
1000
0010
0100
0001
1000
0100
0010
0001
,
1000
0100
1000
0001
0010
0001
0100
0010
0100
0001
1000
0010
1000
0100
0010
0100
1000
0001
0010
0001
1000
0001
0100
0010
,
1000
0001
0010
0100
1000
0001
0010
0001
0100
0010
1000
0001
0010
0100
1000
0100
0010
0001
1000
0010
0100
0001
1000
0100
,
1000
0001
0100
0010
1000
0001
0010
0001
1000
0100
0010
0001
1000
0010
0100
0001
1000
0100
1000
0001
0100
0001
0010
0100
,
1000
0001
0010
0001
1000
0010
0100
0001
0100
0010
1000
0001
0100
0010
0100
0001
1000
0100
0010
0100
1000
0001
0010
0001
,
0010
0100
1000
0001
0010
0001
1000
0001
0100
0010
1000
0001
0100
0001
1000
0100
0010
0001
1000
0010
0100
0001
1000
0100
,
0010
0100
1000
0001
0010
0001
0100
0010
1000
0001
0100
0001
0010
0100
1000
0001
0010
0001
1000
0100
0010
0001
1000
0010
,
0100
0001
0100
0010
1000
0001
0100
0001
0010
0100
1000
0001
0100
0010
1000
0001
0100
0010
0100
0001
1000
0100
0010
0001
,
1000
0100
1000
0001
0010
0100
1000
0001
0010
0001
0100
0010
0100
0001
1000
0100
0010
0001
1000
0001
0100
0010
0100
0001
,
0100
0010
1000
0001
0100
0001
1000
0100
0010
0001
1000
0010
0100
0001
1000
0100
1000
0001
0100
0010
1000
0001
0010
0001
,
0100
0010
1000
0001
0100
0001
0010
0100
1000
0001
0010
0001
1000
0100
0010
0001
1000
0010
0100
0001
0100
0010
1000
0001
,
0010
0100
1000
0001
0010
0001
1000
0010
0100
0001
0100
0010
1000
0001
1000
0100
0010
0100
1000
0001
0010
0001
0100
0010
,
1000
0001
0100
0001
1000
0010
0100
0001
1000
0100
0010
0001
1000
0100
1000
0001
0010
0001
0100
0010
0100
0001
1000
0010
,
1000
0100
0010
0100
1000
0001
0010
0001
1000
0001
0100
0010
1000
0001
0010
0100
1000
0001
0010
0001
0100
0010
1000
0001
,
0010
0100
1000
0100
0010
0001
1000
0010
0100
0001
1000
0100
1000
0001
0100
0010
1000
0001
0010
0001
1000
0100
0010
0001
,
1000
0010
0100
0001
1000
0100
1000
0001
0100
0001
0010
0100
1000
0001
0010
0001
1000
0010
0100
0001
0100
0010
1000
0001
,
0100
0010
0100
0001
1000
0100
0010
0100
1000
0001
0010
0001
0010
0100
1000
0001
0010
0001
1000
0001
0100
0010
1000
0001
,
0100
0001
1000
0100
0010
0001
1000
0010
0100
0001
1000
0100
0010
0100
1000
0001
0010
0001
0100
0010
1000
0001
0100
0001
,
0010
0100
1000
0001
0010
0001
1000
0100
0010
0001
1000
0010
0100
0001
0100
0010
1000
0001
0100
0001
0010
0100
1000
0001
,
0100
0010
1000
0001
0100
0010
0100
0001
1000
0100
0010
0001
1000
0100
1000
0001
0010
0100
1000
0001
0010
0001
0100
0010
,
0100
0001
1000
0100
0010
0001
1000
0001
0100
0010
0100
0001
0100
0010
1000
0001
0100
0001
1000
0100
0010
0001
1000
0010
,
0100
0001
1000
0100
1000
0001
0100
0010
1000
0001
0010
0001
0100
0010
1000
0001
0100
0001
0010
0100
1000
0001
0010
0001
,
1000
0100
0010
0001
1000
0010
0100
0001
1000
0001
0100
0010
0100
0001
1000
0100
1000
0001
0010
0100
1000
0001
1000
0010
,
0100
0001
1000
0010
1000
0100
0010
0001
1000
0100
1000
0001
0100
0010
1000
0001
0100
0001
0010
0100
1000
0001
0010
0001
,
1000
0010
0100
0001
0100
0010
1000
0001
0100
0001
1000
0100
0010
0001
1000
0100
1000
0001
0010
0001
0100
0010
0100
0001
,
1000
0100
0010
0100
1000
0001
0010
0001
1000
0010
0100
0001
0100
0010
1000
0001
0100
0001
1000
0100
0010
0001
1000
0010
,
0100
0001
1000
0100
1000
0001
0100
0001
0010
0100
1000
0001
0010
0001
1000
0010
0100
0001
1000
0100
1000
0001
0010
0100
,
1000
0100
0010
0001
1000
0001
0100
0010
0100
0001
1000
0001
0010
0100
1000
0001
0100
0001
0010
0100
1000
0001
0010
0001
,
0100
0010
0100
0001
1000
0100
0010
0100
1000
0001
0100
0010
1000
0001
0100
0001
1000
0010
0100
0001
1000
0100
0010
0001
,
1000
0000
0010
0100
0010
0100
0010
0000
1000
0100
1000
0000
0001
0100
0001
1000
,
0010
1000
0001
0010
0100
1000
0001
0100
0010
0100
0001
0010
0001
1000
0100
0010
,
0001
1000
0100
0010
0001
0100
0010
1000
0001
0010
0100
1000
0001
0010
0001
1000
0010
0100
0001
0100
0010
1000
0001
1000
,
0100
0010
0100
1000
0001
0010
0001
0100
0010
1000
0001
0100
0001
1000
0010
0100
0001
1000
0100
0010
0001
1000
0100
1000
,
0001
0010
0001
0100
0010
0100
0001
1000
0010
1000
0100
0010
0100
1000
0001
0010
0001
1000
0001
0100
0010
1000
0001
0010
,
0100
1000
0001
0010
0001
0100
0010
1000
0001
0010
0100
1000
0100
0010
0001
1000
0010
0100
0001
1000
0100
1000
0001
0100
,
0010
1000
0001
0010
0001
1000
0100
0010
0001
1000
0010
0100
0001
1000
0100
1000
0001
0100
0001
0010
0100
1000
0001
0010
,
0001
1000
0010
0100
0001
0100
0010
1000
0001
0100
0010
0100
0001
1000
0100
0010
0100
1000
0001
0010
0001
0010
0100
1000
,
0001
0010
0001
1000
0001
0100
0010
1000
0001
0100
0001
1000
0100
0010
0001
1000
0010
0100
0001
1000
0100
0010
0100
1000
,
0001
0010
0001
0100
0010
1000
0001
0100
0001
0010
0100
1000
0001
0010
0001
1000
0100
0010
0001
1000
0010
0100
0001
0100
,
0010
1000
0001
0100
0001
0010
0100
1000
0001
0100
0010
1000
0001
0100
0010
0100
0001
1000
0100
0010
0001
1000
0100
1000
,
0001
0010
0100
1000
0001
0010
0001
0100
0010
0100
0001
1000
0100
0010
0001
1000
0001
0100
0010
0100
0001
0100
0010
1000
,
0001
0100
0001
1000
0100
0010
0001
1000
0010
0100
0001
1000
0100
1000
0001
0100
0010
1000
0001
0010
0001
0100
0010
1000
,
0001
0100
0001
0010
0100
1000
0001
0010
0001
1000
0100
0010
0001
1000
0010
0100
0001
0100
0010
1000
0001
0010
0100
1000
,
0001
0010
0001
1000
0010
0100
0001
0100
0010
1000
0001
1000
0100
0010
0100
1000
0001
0010
0001
0100
0010
1000
0001
0100
,
0001
1000
0010
0100
0001
1000
0100
0010
0001
1000
0100
1000
0001
0010
0001
0100
0010
0100
0001
1000
0010
1000
0100
0010
,
0100
1000
0001
0010
0001
1000
0001
0100
0010
1000
0001
0010
0100
1000
0001
0010
0001
0100
0010
1000
0001
0010
0100
1000
,
0100
0010
0001
1000
0010
0100
0001
1000
0100
1000
0001
0100
0010
1000
0001
0010
0001
1000
0100
0010
0001
1000
0010
0100
,
0001
1000
0100
1000
0001
0100
0001
0010
0100
1000
0001
0010
0001
1000
0010
0100
0001
0100
0010
1000
0001
0100
0010
0100
,
0001
1000
0100
0010
0100
1000
0001
0010
0001
0010
0100
1000
0001
0010
0001
1000
0001
0100
0010
1000
0001
0100
0001
1000
,
0100
0010
0001
1000
0010
0100
0001
1000
0100
0010
0100
1000
0001
0010
0001
0100
0010
1000
0001
0100
0001
0010
0100
1000
,
0001
0010
0001
1000
0100
0010
0001
1000
0010
0100
0001
0100
0010
1000
0001
0100
0001
0010
0100
1000
0001
0100
0010
1000
,
0001
0100
0010
0100
0001
1000
0100
0010
0001
1000
0100
1000
0001
0010
0100
1000
0001
0010
0001
0100
0010
0100
0001
1000
,
0100
0010
0001
1000
0001
0100
0010
0100
0001
0100
0010
1000
0001
0100
0001
1000
0100
0010
0001
1000
0010
0100
0001
1000
,
0100
1000
0001
0100
0010
1000
0001
0010
0001
0100
0010
1000
0001
0100
0001
0010
0100
1000
0001
0010
0001
1000
0100
0010
,
0001
1000
0010
0100
0001
1000
0001
0100
0010
0100
0001
1000
0100
1000
0001
0010
0100
1000
0001
1000
0010
0100
0001
1000
,
0010
1000
0100
0010
0001
1000
0100
1000
0001
0100
0010
1000
0001
0100
0001
0010
0100
1000
0001
0010
0001
1000
0010
0100
,
0001
0100
0010
1000
0001
0100
0001
1000
0100
0010
0001
1000
0100
1000
0001
0010
0001
0100
0010
0100
0001
1000
0100
0010
,
0100
1000
0001
0010
0001
1000
0010
0100
0001
0100
0010
1000
0001
0100
0001
1000
0100
0010
0001
1000
0010
0100
0001
1000
,
0100
1000
0001
0100
0001
0010
0100
1000
0001
0010
0001
1000
0010
0100
0001
1000
0100
1000
0001
0010
0100
1000
0100
0010
,
0001
1000
0001
0100
0010
0100
0001
1000
0001
0010
0100
1000
0001
0100
0001
0010
0100
1000
0001
0010
0001
1000
0010
0100
,
0001
1000
0100
1000
0001
0100
0010
1000
0001
0010
0001
1000
0100
0010
0001
1000
0010
0100
0001
1000
0010
1000
0001
0100
,
0001
1000
0100
0010
0001
1000
0010
0100
0001
0100
0010
1000
0001
0010
0001
1000
0100
0010
0001
1000
0010
0100
0001
1000
,
0100
0010
0001
1000
0100
1000
0001
0010
0001
0100
0010
1000
0001
0100
0001
1000
0100
0010
0001
1000
0010
0100
0001
1000
,
0001
0000
0010
0100
1000
0100
0010
0001
0200
0000
0320
0000
2030
0000
3001
0100
,
0001
0000
0010
0100
1000
0100
0010
0001
2000
0000
3020
0000
0230
0000
0301
1000
,
0010
0000
0100
0001
0100
0010
1000
0001
0020
0000
0230
0000
2300
0000
3001
0100
,
0010
0000
0100
0001
0100
0010
1000
0001
0020
0000
0230
0000
0320
0000
0031
1000
,
0010
0000
0100
0001
0010
0001
1000
0100
2000
0000
3002
0000
0203
0000
0310
1000
,
0001
0000
0100
0010
1000
0001
0010
0100
0020
0000
0032
0000
0203
0000
0310
1000
,
0010
0000
0100
0001
0010
0001
1000
0010
0200
0000
0302
0000
0203
0000
0310
1000
,
0010
0000
0100
0001
0100
0010
1000
0100
0020
0030
0002
0000
0203
0000
0310
1000
,
0001
0000
1000
0100
1000
0001
1000
0001
2000
0000
3002
0000
2003
0000
3001
1000
,
0001
0000
1000
0100
1000
0001
0010
0100
2000
0000
3020
0000
0230
0000
0301
1000
,
0010
0000
0100
0001
0010
0001
0100
0010
2000
0000
3020
0030
0200
0000
0301
0010
,
0100
0000
1000
0001
0100
0010
1000
0100
0020
0000
0230
0000
0320
0000
0130
1000
,
0001
0000
0100
0010
0100
0001
0010
0100
0020
0000
0032
0000
0203
0000
0310
1000
,
0001
0000
0100
0010
1000
0001
0010
0100
2000
0000
3020
0000
0230
0000
0301
0010
,
0100
0000
1000
0010
0100
0001
0010
0001
2000
0000
3020
0000
0230
0000
0301
0010
,
0100
0000
1000
0001
0010
0100
1000
0010
2000
0000
3002
0000
2003
0000
3001
1000
,
0002
0003
1000
0100
1000
0001
0010
0100
2000
0000
3020
0000
2030
0000
3100
0010
,
0001
0000
1000
0100
1000
0001
0010
0100
2000
0000
3020
0000
0230
0000
0301
0010
,
0100
0000
1000
0001
0010
0001
1000
0100
0020
0000
0032
0000
0203
0000
0310
1000
,
0010
0000
0100
0001
0010
0001
0100
0010
2000
0000
3020
0000
0230
0000
0301
0010
,
0100
0000
1000
0001
0010
0001
1000
0100
0020
0000
0032
0000
0203
0000
0310
1000
,
0010
0000
0100
0001
0010
0001
1000
0100
0010
0000
0002
0000
2003
0000
3010
0100
,
0020
0000
0000
0000
1030
0100
1000
0001
0020
0000
0230
0000
2300
0000
3001
0100
,
0020
0000
0000
0000
1030
0100
1000
0001
0020
0000
0230
0000
0320
0000
0031
1000
,
0020
0000
0000
0000
0130
0001
0100
0010
2000
0000
3200
0000
0320
0000
0130
1000
,
0002
0000
0000
0000
0103
0010
1000
0010
0200
0000
0302
0000
0023
0000
0031
1000
,
0020
0000
0000
0000
0130
0001
1000
0100
2000
0000
3020
0000
0230
0000
0301
0010
,
0200
0000
0000
0000
1300
0010
0100
0001
2000
0000
3020
0000
0230
0000
0301
0010
,
0002
0000
0000
0000
0013
0100
0010
0001
0100
0000
0010
0000
1000
0000
0001
0010
,
0200
0000
0000
0000
0310
0001
1000
0010
0100
0000
0001
0000
0100
0000
0010
1000
,
0002
0000
0000
0000
1003
0100
1000
0001
0010
0000
0100
0000
1000
0000
0001
0100
,
0010
1000
0001
0010
0001
1000
0100
0010
0001
1000
0010
0100
0001
0010
0001
1000
,
0100
0000
0000
0000
,
0000
0000
0000
0000
,
1000
0100
0010
0001
1000
0010
0100
0001
1000
0100
0010
0001
1000
0100
1000
0001
0100
0010
1000
0001
0010
0001
0100
0010
,
1000
0001
0100
0001
0010
0100
1000
0001
0010
0001
1000
0100
0010
0001
1000
0010
0100
0001
0100
0010
1000
0001
0010
0100
,
1000
0001
0010
0001
1000
0010
0100
0001
0100
0010
1000
0001
1000
0100
0010
0100
1000
0001
0010
0001
0100
0010
1000
0001
,
0100
0001
1000
0010
0100
0001
1000
0100
0010
0001
1000
0100
1000
0001
0010
0001
0100
0010
0100
0001
1000
0010
1000
0100
,
0010
0100
1000
0001
0010
0001
1000
0001
0100
0010
1000
0001
0010
0100
1000
0001
0010
0001
0100
0010
1000
0001
0010
0100
,
1000
0100
0010
0001
1000
0010
0100
0001
1000
0100
1000
0001
0100
0010
1000
0001
0010
0001
1000
0100
0010
0001
1000
0010
,
0100
0001
1000
0100
1000
0001
0100
0001
0010
0100
1000
0001
0010
0001
1000
0010
0100
0001
0100
0010
1000
0001
0100
0010
,
0100
0001
1000
0100
0010
0100
1000
0001
0010
0001
0010
0100
1000
0001
0010
0001
1000
0001
0100
0010
1000
0001
0100
0001
,
1000
0100
0010
0001
1000
0010
0100
0001
1000
0100
0010
0100
1000
0001
0010
0001
0100
0010
1000
0001
0100
0001
0010
0100
,
1000
0001
0010
0001
1000
0100
0010
0001
1000
0010
0100
0001
0100
0010
1000
0001
0100
0001
0010
0100
1000
0001
0100
0010
,
1000
0001
0100
0010
0100
0001
1000
0100
0010
0001
1000
0100
1000
0001
0010
0100
1000
0001
0010
0001
0100
0010
0100
0001
,
1000
0100
0010
0001
1000
0001
0100
0010
0100
0001
0100
0010
1000
0001
0100
0001
1000
0100
0010
0001
1000
0010
0100
0001
,
1000
0100
1000
0001
0100
0010
1000
0001
0010
0001
0100
0010
1000
0001
0100
0001
0010
0100
1000
0001
0010
0001
1000
0100
,
0010
0001
1000
0010
0100
0001
1000
0001
0100
0010
0100
0001
1000
0100
1000
0001
0010
0100
1000
0001
1000
0010
0100
0001
,
1000
0010
1000
0100
0010
0001
1000
0100
1000
0001
0100
0010
1000
0001
0100
0001
0010
0100
1000
0001
0010
0001
1000
0010
,
0100
0001
0100
0010
1000
0001
0100
0001
1000
0100
0010
0001
1000
0100
1000
0001
0010
0001
0100
0010
0100
0001
1000
0100
,
0010
0100
1000
0001
0010
0001
1000
0010
0100
0001
0100
0010
1000
0001
0100
0001
1000
0100
0010
0001
1000
0010
0100
0001
,
1000
0100
1000
0001
0100
0001
0010
0100
1000
0001
0010
0001
1000
0010
0100
0001
1000
0100
1000
0001
0010
0100
1000
0100
,
0010
0001
1000
0010
0100
0001
1000
0100
1000
0001
0100
0010
1000
0001
0010
0001
0100
0001
1000
0010
0100
0001
0100
0010
,
1000
0001
1000
0100
0010
0001
1000
0100
1000
0100
0010
0001
0100
0001
0100
0010
1000
0001
0100
0001
0010
0100
1000
0001
,
0010
0001
0100
0010
1000
0001
0100
0010
0100
0001
1000
0100
0010
0001
1000
0010
0100
0001
0100
0010
1000
0001
0010
0001
,
1000
0100
0010
0001
1000
0010
1000
0001
0100
0001
0010
0100
1000
0001
0010
0001
1000
0010
0100
0001
0100
0010
1000
0001
,
0010
0001
1000
0100
0010
0001
1000
0001
0100
0010
0100
0001
1000
0100
0010
0001
1000
0010
0100
0001
0100
0010
1000
0001
,
0010
0001
1000
0100
0010
0001
1000
0010
0100
0001
0100
0010
1000
0001
0010
0001
1000
0100
1000
0001
0100
0010
1000
0001
,
0010
0001
0100
0010
0100
0001
1000
0100
0010
0100
1000
0001
0100
0001
1000
0010
0100
0001
0100
0010
1000
0001
0010
0100
,
1000
0100
0010
0001
1000
0010
0100
0001
0100
0010
1000
0001
0010
0001
1000
0001
0100
0010
0100
0001
0100
0010
1000
0001
,
0010
0001
1000
0100
1000
0100
0010
0001
1000
0001
0100
0010
1000
0001
0010
0100
1000
0001
0010
0001
0100
0010
1000
0001
,
0010
0100
1000
0100
0010
0001
1000
0010
0100
0001
0100
0010
1000
0001
0010
0001
0100
0010
1000
0001
0100
0010
1000
0100
,
1000
0001
0100
0010
0100
0001
1000
0100
0010
0100
1000
0001
0010
0100
1000
0001
1000
0100
0010
0100
1000
0001
0010
0001
,
0100
0001
1000
0010
0100
0001
0100
0010
1000
0100
1000
0010
1000
0001
1000
0010
0100
0001
0100
0010
1000
0001
0010
0100
,
1000
0000
0001
0010
0100
1000
0001
0100
0010
0000
1000
0000
0100
0000
0010
0001
,
1000
0010
1000
0001
0100
0010
1000
0001
0010
0100
1000
0001
0010
0100
1000
0001
,
1000
0010
1000
0001
0010
0100
1000
0001
0010
0001
1000
0010
0100
0001
0100
0010
1000
0001
0100
0001
0010
0100
1000
0001
,
0010
0001
0100
0010
1000
0001
0100
0010
0100
0001
1000
0010
0100
0001
1000
0100
0010
0001
1000
0001
0010
0100
1000
0001
,
0100
0010
1000
0001
0010
0001
1000
0100
1000
0001
0100
0010
1000
0001
0010
0001
1000
0100
0010
0001
1000
0100
1000
0010
,
0100
0001
0100
0010
1000
0001
0010
0001
1000
0100
0010
0001
1000
0100
1000
0010
0100
0001
1000
0001
0100
0010
0100
0001
,
1000
0100
0010
0001
1000
0100
1000
0001
0010
0100
1000
0001
0100
0001
1000
0010
0100
0001
0100
0010
1000
0001
0010
0001
,
1000
0001
0100
0010
0100
0001
0100
0010
1000
0001
0100
0001
1000
0100
0010
0001
1000
0010
0100
0001
1000
0100
1000
0010
,
0100
0001
0100
0010
1000
0001
1000
0100
0010
0100
1000
0001
0010
0001
0100
0010
1000
0001
0010
0100
1000
0001
0010
0001
,
0100
0010
0100
0001
1000
0100
0010
0001
1000
0001
0100
0010
1000
0001
0010
0001
0100
0010
1000
0001
0100
0001
1000
0100
,
0010
0001
1000
0010
0100
0001
0100
0010
1000
0001
1000
0100
0010
0100
1000
0001
0100
0001
0010
0100
1000
0001
0100
0010
,
1000
0001
0100
0001
0010
0100
1000
0001
0010
0001
1000
0010
0100
0001
0100
0010
1000
0001
1000
0100
0010
0100
1000
0001
,
0010
0001
1000
0010
0100
0001
0100
0010
1000
0001
0100
0001
0010
0100
1000
0001
0010
0001
1000
0010
0100
0001
1000
0100
,
0010
0001
1000
0010
1000
0001
0100
0001
0010
0100
1000
0001
0010
0001
0100
0010
1000
0001
0100
0001
1000
0100
0010
0001
,
1000
0010
0100
0001
0100
0010
1000
0001
0010
0001
1000
0100
0010
0001
1000
0010
0100
0001
1000
0100
1000
0001
0100
0001
,
0010
0100
1000
0001
1000
0010
0100
0001
1000
0100
0010
0100
1000
0001
0100
0001
0010
0100
1000
0100
0010
0001
1000
0001
,
0100
0010
0100
0001
0100
0010
1000
0001
1000
0100
0010
0100
1000
0001
0010
0001
1000
0010
1000
0001
0010
0100
1000
0001
,
0010
0001
0100
0010
1000
0001
0100
0010
0100
0001
1000
0100
0010
0001
1000
0010
0100
0001
0100
0010
1000
0001
0100
0001
,
1000
0010
0100
0001
1000
0100
0010
0001
1000
0010
0100
0001
0100
0010
1000
0001
0010
0100
1000
0001
0010
0001
1000
0010
,
0100
0001
0100
0010
1000
0001
1000
0100
0010
0100
1000
0001
0010
0001
0100
0010
1000
0001
0100
0001
1000
0010
0100
0001
,
1000
0100
0010
0001
1000
0100
1000
0001
0010
0001
0100
0010
0100
0001
1000
0010
1000
0100
0010
0100
1000
0001
0010
0001
,
1000
0001
0100
0010
1000
0001
0010
0100
1000
0001
0010
0001
0100
0010
1000
0001
0010
0100
1000
0100
0010
0001
1000
0010
,
0100
0001
1000
0100
1000
0001
0100
0010
1000
0001
0010
0001
1000
0100
0010
0001
1000
0010
0100
0001
1000
0100
1000
0001
,
0100
0001
0010
0100
1000
0001
0010
0001
1000
0010
0100
0001
0100
0010
1000
0001
0100
0010
0100
0001
1000
0100
0010
0100
,
1000
0001
0010
0001
0010
0100
1000
0001
0010
0001
1000
0001
0100
0010
1000
0001
0100
0001
1000
0100
0010
0001
1000
0010
,
0100
0001
1000
0100
0010
0100
1000
0001
0010
0001
0100
0010
1000
0001
0100
0001
0010
0100
1000
0001
0010
0001
1000
0100
,
0010
0001
1000
0010
0100
0001
0100
0010
1000
0001
0100
0001
0010
0100
1000
0001
0100
0010
1000
0001
0100
0010
0100
0001
,
1000
0100
0010
0001
1000
0100
1000
0001
0010
0100
1000
0001
0010
0001
0100
0010
0100
0001
1000
0100
0010
0001
1000
0001
,
0100
0010
0100
0001
0100
0010
1000
0001
0100
0001
1000
0100
0010
0001
1000
0010
0100
0001
1000
0100
1000
0001
0100
0010
,
1000
0001
0010
0001
0100
0010
1000
0001
0100
0001
0010
0100
1000
0001
0010
0001
1000
0100
0010
0001
1000
0010
0100
0001
,
1000
0001
0100
0010
0100
0001
1000
0100
1000
0001
0010
0100
0010
0001
1000
0100
1000
0001
0100
0001
0010
0100
1000
0001
,
0100
0010
1000
0001
0100
0001
0010
0100
1000
0001
0010
0001
1000
0010
0100
0001
0100
0010
1000
0001
0100
0001
0010
0100
,
1000
0001
0010
0001
0100
0010
1000
0001
0100
0010
0100
0001
1000
0010
0100
0001
1000
0100
0010
0001
1000
0001
0010
0100
,
1000
0001
0100
0010
1000
0001
0010
0001
1000
0100
1000
0001
0100
0010
1000
0001
0010
0001
1000
0100
0010
0001
1000
0100
,
1000
0010
0100
0001
0100
0010
1000
0001
0010
0001
1000
0100
0010
0001
1000
0100
1000
0010
0100
0001
1000
0001
0100
0010
,
0100
0001
1000
0100
0010
0001
1000
0100
1000
0001
0010
0100
1000
0001
0100
0001
1000
0010
0100
0001
0100
0010
1000
0001
,
0010
0001
1000
0001
0100
0010
0100
0001
0100
0010
1000
0001
0100
0001
1000
0100
0010
0001
1000
0010
0100
0001
1000
0100
,
1000
0010
0100
0001
0100
0010
1000
0001
1000
0100
0010
0100
1000
0001
0010
0001
0100
0010
1000
0001
0010
0100
1000
0001
,
0010
0001
0100
0010
0100
0001
1000
0100
0010
0001
1000
0001
0100
0010
1000
0001
0010
0001
0100
0010
1000
0001
0100
0001
,
1000
0100
0010
0001
1000
0010
0100
0001
0100
0010
1000
0001
1000
0100
0010
0100
1000
0001
0100
0001
0010
0100
1000
0001
,
0100
0010
1000
0001
0100
0001
0010
0100
1000
0001
0010
0001
1000
0010
0100
0001
0100
0010
1000
0001
1000
0100
0010
0100
,
1000
0001
0010
0001
1000
0010
0100
0001
0100
0010
1000
0001
0100
0001
0010
0100
1000
0001
0010
0001
1000
0010
0100
0001
,
1000
0100
0010
0001
1000
0010
1000
0001
0100
0001
0010
0100
1000
0001
0010
0001
0100
0010
1000
0001
0100
0001
1000
0100
,
0010
0001
1000
0010
0100
0001
0100
0010
1000
0001
0010
0001
1000
0100
0010
0001
1000
0010
0100
0001
1000
0100
1000
0001
,
0100
0001
0010
0100
1000
0001
1000
0010
0100
0001
1000
0100
0010
0100
1000
0001
0100
0001
0010
0100
1000
0100
0010
0001
,
1000
0001
0100
0010
0100
0001
0100
0010
1000
0001
1000
0100
0010
0100
1000
0001
0010
0001
1000
0010
1000
0001
0010
0100
,
1000
0001
0010
0001
0100
0010
1000
0001
0100
0010
0100
0001
1000
0100
0010
0001
1000
0010
0100
0001
0100
0010
1000
0001
,
0100
0001
1000
0010
0100
0001
1000
0100
0010
0001
1000
0010
0100
0001
0100
0010
1000
0001
0010
0100
1000
0001
0010
0001
,
1000
0010
0100
0001
0100
0010
1000
0001
1000
0100
0010
0100
1000
0001
0010
0001
0100
0010
1000
0001
0100
0001
1000
0010
,
0100
0001
1000
0100
0010
0001
1000
0100
1000
0001
0010
0001
0100
0010
0100
0001
1000
0010
1000
0100
0010
0100
1000
0001
,
0010
0001
1000
0001
0100
0010
1000
0001
0010
0100
1000
0001
0010
0001
0100
0010
1000
0001
0010
0100
1000
0100
0010
0001
,
1000
0010
0100
0001
1000
0100
1000
0001
0100
0010
1000
0001
0010
0001
1000
0100
0010
0001
1000
0010
0100
0001
1000
0100
,
1000
0001
0100
0001
0010
0100
1000
0001
0010
0001
1000
0010
0100
0001
0100
0010
1000
0001
0100
0010
0100
0001
1000
0100
,
0010
0100
1000
0001
0010
0001
0010
0100
1000
0001
0010
0001
1000
0001
0100
0010
1000
0001
0100
0001
1000
0100
0010
0001
,
1000
0010
0100
0001
1000
0100
0010
0100
1000
0001
0010
0001
0100
0010
1000
0001
0100
0001
0010
0100
1000
0001
0010
0001
,
1000
0100
0010
0001
1000
0010
0100
0001
0100
0010
1000
0001
0100
0001
0010
0100
1000
0001
0100
0010
1000
0001
0100
0010
,
0100
0001
1000
0100
0010
0001
1000
0100
1000
0001
0010
0100
1000
0001
0010
0001
0100
0010
0100
0001
1000
0100
0010
0001
,
1000
0001
0100
0010
0100
0001
0100
0010
1000
0001
0100
0001
1000
0100
0010
0001
1000
0010
0100
0001
1000
0100
1000
0001
,
0100
0010
1000
0001
0010
0001
0100
0010
1000
0001
0100
0001
0010
0100
1000
0001
0010
0001
1000
0100
0010
0001
1000
0010
,
0100
0001
1000
0001
0100
0010
0100
0001
1000
0100
1000
0001
0010
0100
0010
0001
1000
0100
1000
0001
0010
0001
0010
0100
,
1000
0001
0100
0010
1000
0001
0100
0001
0010
0100
1000
0001
0010
0001
0100
0010
0100
0001
1000
0010
0100
0001
0100
0010
,
1000
0001
0010
0100
1000
0001
1000
0100
0010
0001
0010
0100
1000
0001
1000
0010
1000
0001
0100
0001
0100
0010
1000
0001
,
0100
0001
0010
0100
1000
0001
0010
0001
1000
0010
0100
0001
0100
0010
1000
0001
0010
0001
1000
0100
0010
0001
1000
0010
,
0100
0001
0100
0010
1000
0001
0010
0001
0100
0010
0100
0001
1000
0100
0010
0100
1000
0001
0010
0001
0100
0010
1000
0001
,
0100
0000
0001
1000
0100
0010
0001
0000
0010
0100
1000
0001
0010
0000
0100
1000
,
0001
1000
0100
1000
0001
1000
0100
1000
0010
1000
0001
0100
0010
1000
0010
0100
,
0001
0010
0100
1000
0001
0010
0001
1000
0010
0100
0001
0100
0010
1000
0001
0100
0010
0100
0001
1000
0100
0010
0100
1000
,
0001
0010
0001
0010
0100
1000
0001
0010
0001
1000
0001
0100
0010
1000
0001
0100
0001
1000
0100
0010
0001
1000
0010
0100
,
0001
1000
0100
0010
0100
1000
0001
0010
0001
0100
0010
1000
0001
0100
0001
0010
0100
1000
0001
0010
0001
1000
0100
0010
,
0001
1000
0010
0100
0001
0100
0010
1000
0001
0100
0001
0010
0100
1000
0001
0100
0010
1000
0001
0100
0010
0100
0001
1000
,
0100
0010
0001
1000
0100
1000
0001
0010
0100
1000
0001
0010
0001
0100
0010
0100
0001
1000
0100
0010
0001
1000
0001
0100
,
0010
0100
0001
0100
0010
1000
0001
0100
0001
1000
0100
0010
0001
1000
0010
0100
0001
1000
0100
1000
0001
0100
0010
1000
,
0001
0010
0001
0100
0010
1000
0001
0100
0001
0010
0100
1000
0001
0010
0001
1000
0100
0010
0001
1000
0010
0100
0001
0100
,
0010
1000
0001
0010
0100
1000
0001
0010
0001
1000
0010
0100
0001
0100
0010
1000
0001
1000
0100
0010
0100
1000
0001
0010
,
0001
0100
0010
1000
0001
0100
0001
1000
0010
0100
0001
1000
0100
0010
0001
1000
0100
1000
0001
0010
0001
0100
0010
0100
,
0001
1000
0010
1000
0100
0010
0100
1000
0001
0010
0001
1000
0001
0100
0010
1000
0001
0010
0100
1000
0001
0010
0001
0100
,
0010
1000
0001
0010
0100
1000
0100
0010
0001
1000
0010
0100
0001
1000
0100
1000
0001
0100
0010
1000
0001
0010
0001
1000
,
0100
0010
0001
1000
0010
0100
0001
1000
0100
1000
0001
0100
0001
0010
0100
1000
0001
0010
0001
1000
0010
0100
0001
0100
,
0010
1000
0001
0100
0010
0100
0001
1000
0100
0010
0100
1000
0001
0010
0001
0010
0100
1000
0001
0010
0001
1000
0001
0100
,
0010
1000
0001
0100
0001
1000
0100
0010
0001
1000
0010
0100
0001
1000
0100
0010
0100
1000
0001
0010
0001
0100
0010
1000
,
0001
0100
0001
0010
0100
1000
0001
0010
0001
1000
0100
0010
0001
1000
0010
0100
0001
0100
0010
1000
0001
0100
0001
0010
,
0100
1000
0001
0100
0010
1000
0001
0100
0010
0100
0001
1000
0100
0010
0001
1000
0100
1000
0001
0010
0100
1000
0001
0010
,
0001
0100
0010
0100
0001
1000
0100
0010
0001
1000
0001
0100
0010
0100
0001
0100
0010
1000
0001
0100
0001
1000
0100
0010
,
0001
1000
0010
0100
0001
1000
0100
1000
0001
0100
0010
1000
0001
0010
0001
0100
0010
1000
0001
0100
0001
0010
0100
1000
,
0001
0010
0001
1000
0100
0010
0001
1000
0010
0100
0001
1000
0001
0100
0010
0100
0001
1000
0100
1000
0001
0010
0100
1000
,
0001
1000
0010
0100
0001
1000
0010
1000
0100
0010
0001
1000
0100
1000
0001
0100
0010
1000
0001
0100
0001
0010
0100
1000
,
0001
0010
0001
1000
0010
0100
0001
0100
0010
1000
0001
0100
0001
1000
0100
0010
0001
1000
0100
1000
0001
0010
0001
0100
,
0010
0100
0001
1000
0100
0010
0100
1000
0001
0010
0001
1000
0010
0100
0001
0100
0010
1000
0001
0100
0001
1000
0100
0010
,
0001
1000
0010
0100
0001
1000
0100
1000
0001
0100
0001
0010
0100
1000
0001
0010
0001
1000
0010
0100
0001
1000
0100
1000
,
0001
0010
0100
1000
0100
0010
0001
1000
0001
0100
0010
0100
0001
1000
0001
0010
0100
1000
0001
0100
0001
0010
0100
1000
,
0001
0010
0001
1000
0010
0100
0001
1000
0100
1000
0001
0100
0010
1000
0001
0010
0001
1000
0100
0010
0001
1000
0010
0100
,
0001
1000
0010
1000
0001
0100
0001
1000
0100
0010
0001
1000
0010
0100
0001
0100
0010
1000
0001
0010
0001
1000
0100
0010
,
0001
1000
0010
0100
0001
1000
0100
0010
0001
1000
0100
1000
0001
0010
0001
0100
0010
1000
0001
0100
0001
1000
0100
0010
,
0001
1000
0010
0100
0001
1000
0100
1000
0001
0010
0001
0100
0010
1000
0001
0100
0001
1000
0010
1000
0001
0010
0001
1000
,
0100
1000
0001
1000
0010
0100
0001
0100
0010
1000
0001
0100
0010
0100
0001
0100
0010
1000
0001
0010
0001
1000
0001
0100
,
0010
1000
0001
0010
0100
1000
0100
0010
0001
0010
0100
1000
0001
0010
0001
0100
0010
1000
0001
0100
0001
1000
0010
0100
,
0001
0100
0010
1000
0001
0010
0100
1000
0001
0100
0010
1000
0001
0010
0001
1000
0100
0010
0001
1000
0010
0100
0001
0100
,
0010
1000
0001
0100
0001
0010
0100
1000
0001
1000
0100
0010
0001
1000
0010
0100
0001
1000
0100
0010
0001
1000
0010
1000
,
0001
0000
1000
0100
0010
0001
0100
0010
1000
0010
0100
0001
1000
0100
0010
0001
,
0100
0000
0010
1000
0100
0010
0001
1000
0010
0100
0001
1000
0100
0010
0100
1000
,
0001
0000
0100
0010
0100
0001
1000
0100
0010
0001
1000
0010
0100
0001
1000
0100
,
0010
0000
0001
1000
0010
0100
0001
1000
0100
0010
0001
0100
0010
1000
0001
0010
,
0100
0000
1000
0010
0100
0001
1000
0100
0010
0100
1000
0010
1000
0001
0100
0010
,
1000
0000
0001
0010
0100
1000
0010
0100
0001
1000
0100
0010
0001
1000
0100
0010
,
0001
0000
0100
0010
0100
0001
0010
0100
1000
0001
0100
0010
0100
0001
1000
0100
,
0010
0000
0001
0100
0001
1000
0001
0100
0001
1000
0010
0100
0001
1000
0100
0010
,
0001
0000
0100
0010
0100
0001
1000
0010
0100
0001
1000
0100
0010
0100
1000
0001
,
0100
0000
0010
0100
0001
1000
0010
1000
0100
0010
0001
1000
0100
0010
0001
1000
,
0010
0000
0100
0001
1000
0100
0010
0100
1000
0010
1000
0001
0100
0010
1000
0001
,
0010
0000
0100
1000
0010
1000
0001
0100
0010
1000
0010
0100
0001
1000
0100
0010
,
0001
0000
1000
0010
0100
0010
1000
0001
0010
0100
1000
0010
1000
0001
0100
0010
,
0100
0000
0001
1000
0010
1000
0100
0010
0001
0100
0010
1000
0100
0010
0001
1000
,
0100
0000
0010
0001
0100
0010
1000
0100
0010
0001
1000
0010
1000
0100
0010
0001
,
1000
0000
0100
0010
0001
1000
0010
0100
0001
1000
0100
0010
0100
1000
0100
0010
,
0001
0000
0100
0010
0100
0001
1000
0100
0010
0001
0100
0010
0100
0001
1000
0100
,
0010
0000
0001
0100
0001
1000
0010
0100
0001
1000
0100
0010
0100
1000
0010
1000
,
0001
0000
0010
0100
1000
0010
1000
0001
0100
0010
1000
0010
0100
0001
1000
0100
,
0010
0000
0001
0010
0100
1000
0010
1000
0001
0100
0001
1000
0010
0100
0001
1000
,
0100
0000
0010
0001
1000
0010
0100
0001
1000
0100
0010
0100
1000
0010
1000
0001
,
0010
0000
0100
1000
0010
1000
0001
0100
0010
1000
0100
0010
0001
1000
0010
0100
,
0010
0000
1000
0100
0010
0001
1000
0010
1000
0100
0010
0001
1000
0010
1000
0100
,
0010
0000
0100
1000
0010
1000
0100
0010
0001
1000
0010
1000
0001
0100
0010
1000
,
0100
0000
0010
0001
1000
0010
1000
0100
0010
0001
1000
0010
1000
0100
0010
0001
,
1000
0000
0010
0100
0010
1000
0100
0010
0001
1000
0010
1000
0001
0100
0001
1000
,
0100
0000
0010
0001
1000
0010
0100
0001
1000
0100
0010
0100
1000
0010
1000
0001
,
0010
0000
0100
1000
0010
1000
0001
0100
0010
1000
0001
0010
0100
1000
0010
1000
,
0001
0000
0010
0100
1000
0010
1000
0001
1000
0010
0100
0010
1000
0100
0010
0001
,
1000
0000
0100
0010
0100
1000
0010
1000
0001
0100
0010
1000
0001
0010
0100
1000
,
0001
0000
0010
0100
1000
0010
1000
0001
0100
0010
1000
0010
0100
0001
1000
0100
,
0010
0000
0100
1000
0010
1000
0001
0100
0010
1000
0010
0100
0001
1000
0100
0010
,
0001
0000
0000
0000
;
