#TITLE:PARANOiA Dreams;
#SUBTITLE:;
#ARTIST:DC17;
#TITLETRANSLIT:;
#SUBTITLETRANSLIT:;
#ARTISTTRANSLIT:;
#CREDIT:;
#BANNER:bn.png;
#BACKGROUND:bgintro.png;
#LYRICSPATH:;
#CDTITLE:;
#MUSIC:Paranoia Dreams.ogg;
#OFFSET:-1.488;
#SAMPLESTART:36.739;
#SAMPLELENGTH:29.999;
#SELECTABLE:YES;
#DISPLAYBPM:*;
#BPMS:0.000=170.419,256.000=171.454,257.000=170.624,258.000=170.874,259.000=170.924,260.000=1000.000,261.000=170.419;
#STOPS:68.000=0.020
,81.000=0.020
,103.000=0.020
,121.500=0.020
,125.500=0.020
,180.000=0.020
,188.250=0.040
,237.792=0.020
,260.500=1.400
,286.000=0.001
,312.917=0.020
,320.917=0.016
,328.917=0.010
;
#BGCHANGES:35.500=2.png=1.000=0=0=1,
36.000=3.png=1.000=0=0=1,
44.000=4.png=1.000=0=0=1,
51.500=5.png=1.000=0=0=1,
52.000=6.png=1.000=0=0=1,
56.000=5.png=1.000=0=0=1,
60.000=4.png=1.000=0=0=1,
62.000=3.png=1.000=0=0=1,
64.000=2.png=1.000=0=0=1,
65.000=1.png=1.000=0=0=1,
66.000=3.png=1.000=0=0=1,
66.500=5.png=1.000=0=0=1,
67.000=1.png=1.000=0=0=1,
67.250=6.png=1.000=0=0=1,
67.500=1.png=1.000=0=0=1,
67.750=6.png=1.000=0=0=1,
188.500=2.png=1.000=0=0=1,
188.750=4.png=1.000=0=0=1,
189.000=3.png=1.000=0=0=1,
189.500=5.png=1.000=0=0=1,
189.750=6.png=1.000=0=0=1,
190.250=4.png=1.000=0=0=1,
190.500=2.png=1.000=0=0=1,
191.000=6.png=1.000=0=0=1,
192.000=5.png=1.000=0=0=1,
192.750=4.png=1.000=0=0=1,
193.500=3.png=1.000=0=0=1,
194.250=2.png=1.000=0=0=1,
195.000=1.png=1.000=0=0=1,
264.000=1duringfinale.png=1.000=0=0=1,
99999=-nosongbg-=1.000=0=0=0 // don't automatically add -songbackground-
;
#FGCHANGES:0.000=flash=1.000=0=0=1
,68.000=flash=1.000=0=0=1
,269.000=flash=1.000=0=0=1
;
// cache tags:
#FIRSTBEAT:0.000;
#LASTBEAT:336.000;
#SONGFILENAME:Songs/owenviau1 (2016) (Pad & Index)/PARANOiA Dreams - [Jose_Varela & owenviau1] v1.0.7/Paranoia Dreams.sm;
#HASMUSIC:1;
#HASBANNER:1;
#MUSICLENGTH:121.521;
// end cache tags

//---------------dance-single - 13.44 (13+) (jose_Va----------------
#NOTES:
     dance-single:
     13.44 (13+) (jose_Va:
     Hard:
     13:
     1.000,1.000,0.313,0.041,1.000,956.000,38.000,5.000,59.000,0.000:
000M
0M00
00M0
M000
0M00
00M0
000M
00M0
0M00
0000
0000
0000
0000
0000
0000
0000
,
0001
0100
0010
1000
0100
0010
0001
0010
0100
0010
0001
0010
0100
0010
1000
0100
,
0010
0001
0010
0100
1000
0100
0010
0001
0100
0010
1000
0010
0100
0010
0001
0010
,
0100
0001
1000
0010
0001
1000
0010
1000
0010
0100
0010
0001
0010
0100
1000
0100
,
0010
0001
0100
0010
1000
0010
0100
0010
0100
0010
0001
0010
0100
1000
0100
0010
,
0001
0100
0010
1000
0100
0010
0001
0010
0100
0010
1000
0100
0010
0001
0100
0010
,
1000
0010
0100
0001
0100
0001
1000
0100
0010
0001
0010
0100
0020
0130
0010
1000
,
0100
0010
0001
0010
0100
1000
0010
0100
0001
0100
0010
1000
0010
0100
0001
0100
,
0010
0100
0010
0001
0010
0100
0010
1000
0010
0100
0001
0100
0010
0001
1010
0000
,
1001
0010
0100
1000
0100
0010
0001
0010
0100
1000
0100
0010
0001
0000
MMMM
0000
,
1000
0100
0010
0001
0100
0010
1000
0010
0100
0010
0001
0100
0010
0000
MMMM
0000
,
1001
0100
0010
0001
0010
0100
0010
1000
0010
0100
0010
1000
0010
0000
MMMM
0000
,
0100
0010
0001
0100
0010
1000
0010
0100
0001
0100
0010
0100
1000
0000
0101
0000
,
0101
1000
0100
0010
0001
0010
0100
0010
1000
0100
0010
0001
0010
0000
0000
0000
,
0010
0100
0010
0001
0010
0100
0010
1000
0010
0100
0001
0100
0010
0000
0000
0000
,
0001
0000
0001
0000
,
0100
0000
0000
0000
0010
0000
0000
0000
0100
0000
0001
0000
1000
0010
1000
0010
,
1000
0100
0010
0001
0010
0100
1000
0100
0010
0100
0010
1000
0010
0100
0001
0100
,
0010
1000
0100
0010
0001
0010
0100
1000
0100
0010
1000
0010
0100
0001
0100
0010
,
1000
0100
0010
0001
0010
0100
0010
1000
0010
0100
0001
1000
0100
0010
0001
0010
,
0100
0010
1000
0010
0100
0001
0100
0010
1000
0100
0010
0001
0100
0010
0001
1000
,
0001
0010
0100
0001
0100
0010
1000
0010
0100
0001
0100
0010
1000
0100
0010
0001
,
0010
0100
0010
1000
0001
0100
0001
0100
0010
0100
1000
0100
0010
0001
0010
0100
,
0010
1000
0010
0100
0001
0100
0001
1000
0100
0010
0001
0010
0100
1000
0100
0010
,
0001
0010
0100
0001
1000
0100
0010
0001
0010
0100
0010
1000
0010
0100
0001
0010
,
0100
0010
0001
0010
0100
1000
0100
0010
0001
0010
0100
0010
2000
0000
0000
0000
,
3001
0010
0100
0010
0001
0100
0010
1000
0010
0100
0001
0100
0010
1000
0100
0010
,
0001
0010
0100
1000
0100
0010
0100
0001
1000
0010
0100
1000
0100
0010
0100
0001
,
1000
0100
0010
1000
0010
0100
0001
0100
0010
1000
0010
0100
0001
2000
3010
0100
,
0001
1000
0010
0100
1000
0100
0010
0001
1000
0010
0100
0010
1000
0100
0010
0001
,
0010
0100
1000
0010
0001
0010
0100
0010
1000
0010
0100
0001
0010
0100
1000
0100
,
0010
0001
0010
0100
0010
0001
0100
1000
0010
1000
0010
0100
0010
1000
0001
0100
,
0001
0010
0100
0010
0100
0001
0010
1000
0100
0010
0001
0010
0100
0000
0001
0000
,
1010
0010
0010
0000
1010
0000
0100
0101
,
0000
1000
1010
0000
0000
0000
0000
0000
,
0001
1000
0001
1000
0001
1000
0001
1000
0001
0100
0010
0001
0010
0100
0010
1000
,
0010
0010
0010
0000
0010
0000
0010
0000
0010
0000
0000
0000
0000
0000
1010
0000
,
1010
0000
0101
0000
1001
0000
0110
0110
,
0000
1010
1010
0000
0000
0000
0110
0000
,
0000
0000
0001
1000
0001
0000
0100
0010
0000
1000
0010
0000
0001
0100
0000
1000
,
0010
0000
0000
0001
0000
0000
0100
0000
0000
1000
0000
0000
0001
0000
0000
0000
,
1001
0000
1001
0000
0110
0000
1010
1010
,
0000
0101
0101
0000
0000
0000
0000
0000
,
1000
0100
0010
0001
0010
0100
0010
1000
0010
0100
0010
0001
1000
0000
0000
0000
,
0000
0000
0000
0000
0000
0000
0000
1001
,
1001
0000
1010
0000
0101
0000
1010
1010
,
0000
0101
0101
0000
0000
0000
0201
0000
,
0300
0000
0001
1000
0001
0000
0100
0010
0000
1000
0010
0000
0001
0000
0000
0000
,
0100
0000
0000
1000
0000
0000
0001
0000
0000
0010
0000
0000
0100
0000
0000
0000
,
1000
0100
0010
0001
0010
0100
1000
0001
,
0100
0000
0010
0000
1000
0000
0001
0000
0010
0000
0100
0000
0001
1000
0001
0000
,
0100
0010
0001
0010
0100
0010
1000
0010
,
0100
0001
0100
0010
1000
0001
0100
0010
,
1001
0100
0010
0001
0100
0010
1000
0100
,
0010
0001
0010
0100
0010
1000
0010
0100
,
0001
1000
0100
0010
0001
0010
0100
1000
,
0010
0000
0100
0000
0001
0000
0010
0000
0100
0000
0001
1000
0001
1000
0001
1000
,
0001
0100
0010
0001
1000
0100
0010
0001
,
0100
0010
1000
0010
0100
0010
0001
0010
,
0100
1000
0100
0010
0001
0100
0010
1000
,
0100
0010
0001
0010
0100
0010
0100
1000
,
0100
0010
0001
0010
0100
0010
0001
0010
,
0100
0010
1000
0100
0010
0001
0010
0100
,
1000
0100
0010
0001
0010
1000
0010
0100
,
1001
0000
0010
0000
0100
0000
0010
0000
0100
0000
0010
0000
0001
1000
0001
1000
,
0002
0000
0000
0000
0000
0000
0000
0000
0000
0003
0000
0000
0000
0000
0000
0000
0000
0000
0000
0000
0000
0000
0000
0000
0000
0000
0000
0000
0000
0000
0000
0000
0000
0000
0000
0000
0000
0000
0000
0000
0000
0000
0000
0000
0000
0000
0000
0000
0000
0000
0000
0000
0000
0000
0000
0000
0000
0000
0000
0000
0000
0000
0000
0000
,
F00F
0000
0000
0000
MMMM
MMMM
MMMM
MMMM
MMMM
MMMM
MMMM
MMMM
MMMM
0000
0000
0000
,
1001
0000
0000
0000
1000
0100
0010
0001
0010
0100
0010
1000
0010
0100
0010
0001
,
0100
0010
1000
0010
0100
0001
0100
0010
0100
0010
0001
0010
0100
0010
1000
0100
,
0010
0001
0010
0100
0010
0100
0001
0010
0100
0010
0001
0010
0100
0010
1000
0100
,
0010
0001
0010
0100
1000
0100
0010
1000
0010
0100
0010
0100
0001
1000
0100
0010
,
0001
0010
0100
0010
1000
0100
0010
0001
0010
0100
0010
1000
0100
0010
0001
0010
,
0100
1000
0001
0100
0010
0001
0100
1000
0100
0010
0001
0010
0100
0010
1000
0010
,
0100
0001
0100
0010
1000
0010
0100
0001
0100
0010
1000
0010
0100
0010
0001
0010
,
0100
0010
0100
0010
0001
0010
0100
1000
0100
0010
0001
0100
0010
1000
0010
0100
,
0010
0001
0010
0100
1000
0100
0010
0001
0010
0100
1000
0100
0010
0001
1000
0100
,
0010
0001
0010
0100
1000
0100
0010
0001
0100
0010
1000
0010
0100
0010
0001
0010
,
0100
0001
0100
0001
0100
0010
1000
0010
1000
0001
0010
0100
1000
0100
0010
0001
,
0100
0010
1000
0010
0100
0001
0100
0010
1000
0100
0010
0001
0010
0100
1000
0100
,
0010
0001
0100
0010
1000
0010
0100
0001
0100
0010
1000
0001
0010
0100
0010
0001
,
0010
0100
0010
1000
0100
0010
0001
0010
0100
1000
0100
0010
0001
0100
0010
1000
,
0010
0100
0001
0100
0001
1000
0100
0010
0001
0010
0100
1000
0100
0010
0001
0100
,
0010
1000
0010
1000
0010
0100
0001
0100
0010
1000
0100
0010
0001
0010
0100
1000
,
0010
0100
0010
0100
F00F
0000
0000
0000
0000
0000
0000
0000
0000
0000
0000
0000
,
1MM1
0000
0000
0000
;

//---------------dance-single - 14.74 (15-) (owenvia----------------
#NOTES:
     dance-single:
     14.74 (15-) (owenvia:
     Edit:
     15:
     1.000,1.000,0.280,0.016,1.000,999.000,34.000,2.000,47.000,0.000:

M000
0M00
00M0
000M
0M00
00M0
M000
000M
0M00
0000
0000
0000
0000
0000
0000
0000
,
1000
0100
0010
0001
0100
0010
1000
0001
0100
0010
1000
0100
0010
0001
0100
0010
,
1000
0001
0010
0001
0100
0010
1000
0100
0010
0001
1000
0010
1000
0001
0100
0010
,
1000
0001
0010
0100
1000
0010
0100
0001
0100
0010
1000
0001
0010
0001
0100
0010
,
1000
0001
0100
0010
1000
0100
0010
0001
0100
0001
1000
0010
0100
0010
1000
0001
,
0010
0100
1000
0010
0100
0001
0100
0010
1000
0001
0010
0100
1000
0001
0100
0010
,
0100
0001
1000
0100
0010
0001
1000
0010
1000
0001
0100
0010
1000
0001
0010
0001
,
0100
0010
1000
0100
0010
0001
0100
0001
1000
0010
0100
0001
1000
0100
0010
0001
,
0100
0010
1000
0001
0010
0100
1000
0010
0100
0001
1000
0100
0010
0001
0100
0010
,
1000
0001
0010
0001
0100
0010
0100
0001
1000
0010
1000
0100
0010
0001
0100
0010
,
1000
0001
0010
0100
1000
0010
0100
0010
1000
0001
0010
0001
0100
0010
1000
0001
,
0100
0001
1000
0010
0100
0001
0100
0010
1000
0100
0010
0001
0100
0010
1000
0010
,
0100
0001
1000
0001
0010
0100
1000
0010
0100
0001
0100
0010
1000
0100
1000
0001
,
0010
0001
0100
0010
1000
0001
0010
0100
1000
0010
0100
0001
0100
0010
1000
0001
,
1000
0100
0010
0001
0100
0010
1000
0001
0010
0001
0100
0010
1000
0100
0010
0001
,
0100
0010
1000
0001
0010
0100
1000
0010
0100
0001
1000
0001
0010
0100
1000
0010
,
0100
0001
0010
0100
1000
0010
0100
0001
1000
0100
0010
0001
0100
0001
1000
0010
,
0100
0010
1000
0100
0010
0001
0100
0010
1000
0001
0010
0100
1000
0001
0010
0001
,
1000
0100
1000
0010
0100
0001
0100
0010
1000
0001
1000
0100
0010
0001
0100
0010
,
1000
0001
0010
0001
0100
0010
1000
0100
0010
0001
1000
0010
1000
0100
0010
0001
,
0100
0010
1000
0001
0100
0001
0010
0100
1000
0010
0100
0001
1000
0100
0010
0001
,
0100
0010
1000
0001
0010
0001
0100
0010
1000
0001
0100
0001
0010
0100
1000
0010
,
0100
0001
1000
0100
0010
0001
0100
0010
0100
0001
1000
0010
0100
0010
1000
0001
,
0010
0001
0100
0010
1000
0100
0010
0001
1000
0010
1000
0001
0100
0010
1000
0100
,
0010
0001
0100
0010
1000
0001
0010
0001
1000
0100
0010
0001
0100
0010
1000
0010
,
0100
0001
1000
0001
0010
0100
1000
0010
0100
0010
1000
0100
0010
0001
0100
0010
,
0100
0001
1000
0010
0100
0001
0010
0100
1000
0010
0100
0001
1000
0100
0010
0001
,
0100
0010
1000
0100
0010
0001
0100
0001
1000
0010
0100
0001
1000
0001
0010
0100
,
1000
0010
0100
0001
1000
0100
0010
0001
0010
0100
1000
0010
0100
0010
1000
0001
,
0010
0001
0100
0010
1000
0001
0100
0001
0010
0100
1000
0010
0100
0001
1000
0100
,
0010
0001
1000
0010
1000
0001
0100
0001
1000
0100
1000
0010
0100
0001
0010
0001
,
1000
0100
0010
0001
0100
0010
0100
0001
1000
0010
1000
0100
0010
0001
0100
0010
,
1000
0001
0010
0100
1000
0010
0100
0001
1000
0100
0010
0001
0100
0001
1000
0000
,
0110
0010
0010
0000
1001
0000
0100
0101
,
0000
1000
1010
0000
0000
0000
0000
0000
,
0001
0010
0100
1000
0010
0100
0001
1000
0100
0010
0001
1000
0010
1000
0001
0010
,
0100
0100
0100
0000
0100
0000
0100
0000
0100
0000
0000
0000
0000
0000
1010
0000
,
1010
0000
0101
0000
1001
0000
0110
0110
,
0000
1010
1010
0000
0000
0000
0110
0000
,
0000
0000
0001
1000
0001
0000
0100
0010
0000
1000
0010
0000
0100
0001
0000
0010
,
0100
0000
0000
1000
0000
0000
0010
0000
0000
1000
0000
0000
0001
0000
0000
0000
,
1001
0000
1001
0000
0110
0000
1010
1010
,
0000
0101
0101
0000
0000
0000
0000
0000
,
1000
0100
0010
0001
0100
0010
1000
0001
0010
0100
1000
0001
0100
0000
0000
0000
,
0000
0000
0000
0000
0000
0000
0000
1001
,
1001
0000
1010
0000
0101
0000
1010
1010
,
0000
0101
0101
0000
0000
0000
0201
0000
,
0300
0000
0001
1000
0001
0000
0100
0010
0000
1000
0010
0000
0100
0000
0000
0000
,
0001
0000
0000
1000
0000
0000
0001
0000
0000
0010
0000
0000
0100
0000
0000
0000
,
1000
0100
0010
0001
0010
0100
1000
0001
,
0100
0000
0010
0000
1000
0000
0001
0000
0010
0000
0100
0000
1000
0001
1000
0000
,
0100
0010
0001
0100
0010
1000
0100
0010
,
0001
0100
0010
1000
0100
1000
0010
0100
,
1001
0100
0010
0001
0100
0010
1000
0100
,
0010
0001
0010
0100
1000
0010
0100
0010
,
1000
0100
0010
0001
1000
0010
1000
0001
,
0010
0000
0100
0000
1000
0000
0010
0000
0100
0000
0001
1000
0001
1000
0001
1000
,
0001
0010
0100
1000
0010
0100
0010
1000
,
0100
0010
0001
0100
0010
1000
0001
0010
,
0100
1000
0100
0010
0001
0100
0010
1000
,
0100
0010
0001
0100
0010
1000
0100
0010
,
0001
0100
0010
1000
0100
0010
0001
0100
,
0001
1000
0100
0010
0001
0100
0010
1000
,
0001
0010
0100
1000
0001
0100
0010
1000
,
1001
0000
0010
0000
0100
0000
0010
0000
0100
0000
0010
0000
1000
0001
1000
0000
,
0002
0003
0000
0000
0000
0000
0000
0000
,
F00F
0000
0000
0000
MMMM
MMMM
MMMM
MMMM
MMMM
MMMM
MMMM
MMMM
MMMM
0000
0000
0000
,
1001
0000
0000
0000
1000
0100
0010
0001
0100
0010
1000
0001
0100
0001
1000
0010
,
0100
0001
1000
0100
0010
0001
0100
0010
1000
0001
0010
0001
0100
0010
0100
0001
,
1000
0010
0100
0010
1000
0001
1000
0010
0100
0001
1000
0100
0010
0001
1000
0001
,
0010
0100
1000
0010
0100
0001
0010
0100
1000
0001
0010
0001
0100
0010
1000
0001
,
0100
0001
1000
0010
0100
0001
0100
0010
1000
0001
0010
0100
1000
0001
0010
0001
,
0100
0010
1000
0001
0100
0001
0010
0100
1000
0010
0100
0001
1000
0100
0010
0001
,
0100
0010
1000
0001
0010
0001
0100
0010
1000
0001
0100
0001
1000
0010
0100
0001
,
0010
0100
1000
0001
0010
0001
0100
0010
1000
0001
0100
0001
0010
0100
1000
0010
,
0100
0001
1000
0010
1000
0100
0010
0001
0100
0010
0100
0001
1000
0100
0010
0001
,
0100
0010
1000
0001
0010
0100
1000
0001
0100
0001
0010
0100
1000
0010
0100
0001
,
1000
0100
1000
0010
0100
0010
1000
0001
0010
0001
0100
0010
1000
0001
0100
0001
,
0010
0100
1000
0010
0100
0001
1000
0100
0010
0001
0100
0001
1000
0010
0100
0010
,
1000
0001
0100
0001
0010
0100
1000
0010
0100
0001
1000
0100
1000
0010
0100
0001
,
1000
0100
0010
0001
0100
0010
1000
0001
0100
0001
0010
0100
1000
0010
0100
0001
,
1000
0100
1000
0010
0100
0001
1000
0100
0010
0001
0100
0010
1000
0001
0100
0001
,
1000
0010
0100
0010
1000
0001
0010
0100
1000
0010
0100
0001
0010
0100
1000
0010
,
0100
0001
1000
0000
1001
0000
0000
0000
0000
0000
0000
0000
0000
0000
0000
0000
,
1MM1
0000
0000
0000
;
