#TITLE:Bow Down;
#SUBTITLE:The New Reign (2007);
#ARTIST:Born of Osiris;
#TITLETRANSLIT:;
#SUBTITLETRANSLIT:;
#ARTISTTRANSLIT:;
#CREDIT:SulferDragon;
#BANNER:bowdown-bn.png;
#BACKGROUND:bowdown-bg.png;
#LYRICSPATH:;
#CDTITLE:!SulferDragon.png;
#MUSIC:Bow Down.mp3;
#OFFSET:-0.310;
#SAMPLESTART:46.677;
#SAMPLELENGTH:13.420;
#SELECTABLE:YES;
#BPMS:0.000=140.000,11.500=280.000,12.500=140.000,20.000=280.000,22.500=140.000,23.000=280.000,28.500=419.998,30.000=280.000,31.500=140.000,32.000=280.000,36.000=140.000,77.000=70.000,93.000=140.000,125.000=70.000,127.000=140.000,131.000=280.000,131.500=140.000,132.000=280.000,132.500=140.000,133.000=280.000,133.500=140.000,134.500=280.000,135.500=140.000,159.000=280.000,160.000=140.000,167.500=280.000,168.500=140.000,176.000=280.000,177.000=140.000,184.500=280.000,185.500=140.000,200.500=280.000,201.500=140.000,209.000=280.000,211.500=140.000,212.000=280.000,217.500=419.998,219.000=280.000,220.500=140.000,221.000=280.000,225.000=140.000;
#STOPS:21.000=0.050
,21.250=0.055
,21.500=0.105
,22.000=0.110
,23.000=0.105
,23.500=0.110
,24.000=0.055
,24.250=0.055
,24.500=0.110
,25.000=0.105
,25.500=0.055
,25.750=0.055
,26.000=0.055
,26.250=0.050
,26.500=0.055
,26.750=0.055
,27.000=0.030
,27.167=0.030
,27.333=0.035
,27.500=0.110
,28.000=0.110
,30.000=0.055
,30.250=0.050
,30.500=0.110
,31.000=0.110
,32.000=0.105
,32.500=0.105
,33.000=0.055
,33.250=0.055
,33.500=0.110
,34.000=0.105
,34.500=0.055
,34.750=0.055
,35.000=0.050
,35.250=0.055
,35.500=0.055
,35.750=0.055
,36.500=0.415
,131.000=0.040
,131.167=0.035
,131.333=0.040
,132.000=0.040
,132.167=0.035
,132.333=0.040
,133.000=0.040
,133.167=0.035
,133.333=0.035
,192.500=0.210
,210.000=0.050
,210.250=0.055
,210.500=0.100
,211.000=0.110
,212.000=0.110
,212.500=0.110
,213.000=0.055
,213.250=0.050
,213.500=0.105
,214.000=0.110
,214.500=0.055
,214.750=0.055
,215.000=0.055
,215.250=0.055
,215.500=0.055
,215.750=0.055
,216.000=0.030
,216.167=0.030
,216.333=0.030
,216.500=0.105
,217.000=0.105
,219.000=0.050
,219.250=0.055
,219.500=0.105
,220.000=0.110
,221.000=0.110
,221.500=0.110
,222.000=0.055
,222.250=0.055
,222.500=0.110
,223.000=0.105
,223.500=0.055
,223.750=0.055
,224.000=0.055
,224.250=0.055
,224.500=0.055
,224.750=0.055
,225.500=0.415
;
#BGCHANGES:;
// cache tags:
#FIRSTBEAT:4.000;
#LASTBEAT:265.250;
#SONGFILENAME:Songs/Astronomic Metal Collection 2/(SulferDragon) Bow Down/Bow Down.sm;
#HASMUSIC:1;
#HASBANNER:1;
#MUSICLENGTH:121.973;
// end cache tags

//---------------dance-single - ----------------
#NOTES:
     dance-single:
     :
     Challenge:
     16:
     1.000,1.000,1.000,0.779,1.000,831.000,158.000,95.000,0.000,37.000:
0000
0000
0000
0000
,
1000
0000
0000
1000
0000
0000
1000
0000
0000
0000
0000
0000
1000
0000
0000
0000
0000
0000
1000
0000
0001
0000
0010
0000
1001
0000
0000
0000
0000
0000
1000
0000
0000
0000
0000
0000
1000
0000
0000
1000
0000
0000
1000
0000
0000
0000
0000
0000
,
1000
0000
0000
0000
0000
0000
1000
0000
0000
1000
0000
0000
1000
0000
0000
1000
0000
0000
1000
0000
0000
1000
0000
0000
1001
0000
1000
0000
1000
0000
1000
0000
0000
0000
0000
0000
1000
0000
0000
0000
0000
0000
1002
0000
0000
0000
0000
0000
,
0000
0000
0000
0000
0000
0000
1003
0000
0000
1000
0000
0000
1000
0000
0000
0000
0000
0000
1000
0000
0000
0000
0000
0000
1000
0000
0001
0000
0010
0000
1001
0000
0000
0000
0000
0000
1000
0000
0000
0000
0000
0000
1000
0000
0000
1000
0000
0000
,
1000
0000
0000
0000
0000
0000
1000
0000
0000
0000
0000
0000
1000
0000
0000
1000
0000
0000
1000
0000
0000
1000
0000
0000
1000
0000
0000
1000
0000
0000
1001
0000
1000
0000
1000
0000
1000
0000
0000
0000
0000
0000
1000
0000
0000
0000
0000
0000
,
1002
0000
0000
0000
0000
0000
0000
0000
0000
0000
0000
0000
1003
0000
0000
1000
0000
0000
1000
0000
0000
0000
0000
0000
1000
0000
0000
0000
0000
0000
1000
0000
0001
0000
0010
0000
1001
0000
0000
0000
0000
0000
1000
0000
0000
0000
0000
0000
,
1000
0000
0000
1000
0000
0000
1000
0000
0000
0000
0000
0000
1000
0000
0000
0000
0000
0000
1000
0000
0000
1000
0000
0000
1000
0000
0000
1000
0000
0000
1000
0000
0000
1000
0000
0000
1001
0000
1000
0000
1000
0000
1000
0000
0000
0000
0000
0000
,
1000
0000
0000
0000
0000
0000
1002
0000
0000
0000
0000
0000
0000
0000
0000
0000
0000
0000
0000
0000
0000
0000
0000
0000
1003
0000
0000
1000
0000
0000
1000
0000
0000
0000
0000
0000
1000
0000
0000
0000
0000
0000
1000
0000
0001
0000
0010
0000
,
1001
0000
1000
0000
1000
1000
1000
0000
1000
0000
1000
1000
1000
1000
1000
1000
,
1001
0000
0010
0000
0001
0000
1000
0000
0000
0000
0000
0000
0010
0000
0000
0010
0000
0000
0000
0000
0000
0010
0000
0000
0000
0000
0000
0010
0000
0000
1000
0000
0000
0000
0000
0000
0011
0000
0000
0000
0000
0000
0010
0000
0000
0010
0000
0000
,
0000
0010
0000
1000
0000
0100
1000
0000
0100
1000
0000
0100
0011
0000
0010
0010
,
0000
0010
1100
0000
0010
0010
0000
0010
0000
0010
0100
0000
1100
0000
0010
0010
,
0000
0010
0000
1000
0000
0100
1000
0000
0100
1000
0000
0100
0011
0000
0010
0010
,
0000
0010
0000
0000
0010
0010
0000
0200
0300
0010
0010
0000
0012
0003
0010
0010
,
0000
0200
0300
2000
3000
0010
0010
0000
0010
0010
0000
0010
0011
0000
0010
0010
,
0000
0010
1100
0000
0010
0010
0000
0200
0300
0010
0010
0000
0012
0003
0010
0010
,
0000
2000
3000
0002
0003
0010
0010
0000
0010
0010
0000
0010
0011
0000
0010
0010
,
0000
0010
0000
0000
0010
0010
0000
0200
0300
0010
0010
0000
0201
0300
0010
0010
,
0000
0200
0300
0010
0000
1000
0010
0200
0310
0010
0000
0010
0011
0000
0010
0010
,
0000
0000
1010
0000
0000
0000
0000
0000
0020
1000
0000
1000
0000
1000
0001
0000
0101
0000
1000
1000
0032
1000
0000
0010
0203
1000
0010
0000
1000
0010
0000
1000
,
0321
0000
0000
0000
0000
0000
0000
0000
0000
0000
0000
0000
1000
0000
0000
0000
0000
0000
1000
0000
0000
0000
0000
0000
0000
0000
0000
0000
0000
0000
1000
0000
0000
0000
0000
0000
0000
0000
0000
0000
0000
0000
1030
0000
0000
0000
0000
0000
0200
0000
0000
0000
0000
0000
0010
0000
0000
0000
0000
0000
0300
0000
0000
0000
0000
0000
2000
0000
0000
0000
0000
0000
0000
0000
0000
0000
0000
0000
3010
0000
0000
0000
0000
0000
0200
0000
0000
0000
0000
0000
0000
0000
0000
0000
0000
0000
1301
0000
0000
0000
0020
0000
0000
0000
0000
0000
0000
0000
1000
0000
0000
0000
0000
0000
1000
0000
0000
0000
0000
0000
0000
0000
0000
0000
0000
0000
1000
0000
0000
0000
0000
0000
0000
0000
0000
0000
0000
0000
0100
0000
0000
0000
0000
0000
0000
0000
0000
0000
0000
0000
1000
0000
0000
0000
0000
0000
0100
0000
0000
0000
0000
0000
0000
0000
0000
0000
0000
0000
1000
0000
0000
0000
0000
0000
0100
0000
0000
0000
0000
0000
0000
0000
0000
0000
0000
0000
1000
0000
0000
0000
0000
0000
,
0132
0000
1000
1000
0000
1000
0110
0000
2003
0010
3200
1000
0320
1000
0032
0000
1203
0000
0320
0001
0230
0001
2300
0100
3020
1000
0100
0000
1000
0100
0000
1000
,
0101
0000
1000
1000
0000
1000
0000
0001
0230
0010
0300
2000
0000
3010
0200
0300
0021
0000
1000
1000
0000
1000
0000
0100
0000
1000
0100
0000
1000
0100
0000
1000
,
0101
0000
0000
0000
0000
0000
0000
0000
0000
0000
0000
0000
1000
0000
0000
0000
0000
0000
1000
0000
0000
0000
0000
0000
0000
0000
0000
0000
0000
0000
1000
0000
0000
0000
0000
0000
0101
0000
0000
0000
0000
0000
0000
0000
0000
0000
0000
0000
0130
0000
0000
0000
0000
0000
0000
0000
0000
0000
0000
0000
0000
0000
0000
0000
0000
0000
0000
0000
0000
0000
0000
0000
0020
0000
0000
0000
0030
0000
0000
0000
0002
0000
0000
0000
0103
0000
0000
0000
0020
0000
0000
0000
0030
0000
0000
0000
2001
0000
0000
0000
0000
0000
0000
0000
0000
0000
0000
0000
0000
0000
0000
0000
0000
0000
0000
0000
0000
0000
0000
0000
3200
0000
0000
0000
0000
0000
0000
0000
0000
0000
0000
0000
1001
0000
0000
0000
0000
0000
0000
0000
0000
0000
0000
0000
0320
0000
0000
0000
0000
0000
0000
0000
0000
0000
0000
0000
0000
0000
0000
0000
0000
0000
0000
0000
0000
0000
0000
0000
1032
0000
0000
0000
0000
0000
0000
0000
0000
0000
0000
0000
0000
0000
0000
0000
0000
0000
0000
0000
0000
0000
0000
0000
,
0203
0011
2300
0000
3201
0000
0320
1000
0032
1000
0010
1000
0010
1000
0010
1000
,
0023
0000
0000
1000
0000
0000
0100
0000
0000
1000
0000
0000
0230
0000
0000
0000
0000
0000
0010
0000
1000
0000
0001
0000
1010
0000
0000
0000
0000
0000
0320
0000
0000
0230
0000
0000
2300
0000
0000
0010
0000
0000
0000
0000
0000
0101
0000
0000
,
0000
0010
0000
0100
0000
0000
0010
3001
2000
0001
0010
0001
3210
1000
0010
1000
,
0320
0000
0000
0100
0000
0000
0001
0000
0000
0100
0000
0000
0032
0000
0000
0000
0000
0000
0100
0000
1000
0000
0010
0000
1100
0000
0000
0000
0000
0000
0000
0000
0000
1100
0000
0000
0000
0000
0000
0000
0000
0000
1100
0000
0000
0000
0000
0000
,
0000
0000
0000
1100
0000
0000
0000
0000
0000
0000
0000
0000
1103
0000
0000
0000
0000
0000
1020
0030
0002
1103
0020
0030
2001
0000
0000
0101
0000
0000
3201
0000
0000
0011
0000
0000
1320
0000
0000
1001
0000
0000
0132
0000
0000
1100
0000
0000
,
0213
0000
0000
1010
0000
0000
2301
0000
0000
0011
0000
0000
3201
0000
0000
0000
0000
0000
0320
0000
1000
0000
0100
0000
1032
0000
0000
0000
0000
0000
0010
0000
0000
1000
0000
0000
0000
0000
0000
0100
0000
0000
0000
0000
0000
1010
0000
0000
,
0203
0010
0000
1000
0320
0000
0100
0001
0100
0001
0100
0001
1230
0001
0010
0001
,
0010
0000
0000
0001
0000
0000
0010
0000
0000
0300
0000
0000
2002
0000
0000
0000
0000
0000
0000
0000
0000
0000
0000
0000
0000
0000
0000
0000
0000
0000
0000
0000
0000
3003
0000
0000
1100
0000
0011
0000
1100
0000
0011
0000
0000
0000
0000
0000
,
1100
0011
1100
0011
0000
0000
1100
0011
1100
0011
0000
0000
1100
0011
1100
0011
0000
0000
0001
0010
0001
0010
0000
0000
,
0001
0010
0001
0010
0000
0000
0001
0010
0001
0010
0000
0000
0100
0000
0000
0002
0000
0000
0000
0000
0000
1003
1000
1000
,
1000
0000
0000
1001
1000
1000
1000
0000
0000
1000
1000
1000
1000
0000
0000
1001
1000
1000
1000
0000
0000
1000
1000
1000
,
1000
0000
0000
0000
0000
0000
1001
0000
1000
0000
1000
0000
1000
0000
0000
0000
0000
0000
1000
0000
1000
0000
1000
0000
1000
0000
0000
0000
0000
0000
1001
0000
1000
0000
1000
0000
1000
0000
0000
0000
0000
0000
1000
0000
0000
1000
0000
0000
,
1000
0000
1000
1000
1000
0000
1001
1000
1000
0000
1000
1000
1000
0000
1000
1000
,
1000
0000
0000
0000
0000
0000
1000
0000
0000
1000
0000
0000
1000
0000
0000
0000
0000
0000
1001
0000
0000
1000
0000
0000
1000
0000
0000
0000
0000
0000
1000
0000
0000
1000
0000
0000
1000
0000
0000
0000
0000
0000
0011
0000
0011
0000
0011
0000
,
0011
0000
0000
1100
0011
1100
0011
0011
0011
0011
0000
0000
0011
0011
0011
0011
0000
0000
1100
0011
1100
0011
0011
0011
,
0011
0000
0000
0011
0011
0011
0011
0000
0000
0011
0011
0011
0011
0000
0000
0100
0000
0000
0002
0000
0000
0000
0000
0000
,
1003
1000
1000
1000
0000
0000
1001
1000
1000
1000
1000
1000
1000
0000
0000
1000
1000
1000
1001
0000
0000
1000
1000
1000
,
1000
1000
1000
1000
0000
0000
1001
1000
1000
1000
0000
0000
1000
1000
1000
1000
0000
0000
1001
0000
0000
0002
0000
0000
,
0000
0000
0000
1003
1000
1000
1000
0000
0000
1001
1000
1000
1000
1000
1000
1000
0000
0000
1000
1000
1000
1001
0000
0000
,
1000
1000
1000
1000
1000
1000
1000
0000
0000
1001
1000
1000
1000
0000
0000
1000
1000
1000
1000
0000
0000
1001
0000
0020
,
0000
0000
0000
0000
0000
0000
1030
1000
1000
1000
0000
0000
1001
1000
1000
1000
1000
1000
1000
0000
0000
1000
1000
1000
,
1001
0000
0000
1000
1000
1000
1000
1000
1000
1000
0000
0000
1001
1000
1000
1000
0000
0000
1000
1000
1000
1000
0000
0000
,
1001
0000
0000
0002
0000
0000
0000
0000
0000
1003
1000
1000
1000
0000
0000
1001
1000
1000
1000
1000
1000
1000
0000
0000
,
1000
1000
1000
1001
0000
0000
1000
1000
1000
1000
1000
1000
1000
0000
0000
1001
1000
1000
1000
0000
0000
1000
1000
1000
,
1000
0000
0000
0000
0000
0000
1001
0000
0000
0000
0000
0000
1000
0000
0000
1000
0000
0000
1000
0000
0000
0000
0000
0000
1000
0000
0000
0000
0000
0000
1000
0000
0001
0000
0010
0000
1001
0000
0000
0000
0000
0000
1000
0000
0000
0000
0000
0000
,
1000
0000
0000
1000
0000
0000
1000
0000
0000
0000
0000
0000
1000
0000
0000
0000
0000
0000
1000
0000
0000
1000
0000
0000
1000
0000
0000
1000
0000
0000
1000
0000
0000
1000
0000
0000
1001
0000
1000
0000
1000
0000
1000
0000
0000
0000
0000
0000
,
1000
0000
0000
0000
0000
0000
1002
0000
0000
0000
0000
0000
0000
0000
0000
0000
0000
0000
1003
0000
0000
1000
0000
0000
1000
0000
0000
0000
0000
0000
1000
0000
0000
0000
0000
0000
1000
0000
0001
0000
0010
0000
1001
0000
0000
0000
0000
0000
,
1000
0000
0000
0000
0000
0000
1000
0000
0000
1000
0000
0000
1000
0000
0000
0000
0000
0000
1000
0000
0000
0000
0000
0000
1000
0000
0000
1000
0000
0000
1000
0000
0000
1000
0000
0000
1000
0000
0000
1000
0000
0000
1001
0000
1000
0000
1000
0000
,
1000
0000
0000
0000
0000
0000
1000
0000
0000
0000
0000
0000
1002
0000
0000
0000
0000
0000
0000
0000
0000
0000
0000
0000
1003
0000
0000
1000
0000
0000
1000
0000
0000
0000
0000
0000
1000
0000
0000
0000
0000
0000
1000
0000
0001
0000
0010
0000
,
1001
0000
1000
0000
1000
1000
1000
0000
1000
0000
1000
1000
1000
1000
1000
1000
,
1001
0000
1000
0000
1000
0000
1000
0000
0000
0000
0000
0000
1000
0000
0000
0000
0000
0000
1002
0000
0000
0000
0000
0000
0000
0000
0000
0000
0000
0000
0000
0000
0000
0000
0000
0000
1003
0000
0000
1000
0000
0000
1000
0000
0000
0000
0000
0000
,
1000
0000
0000
0000
0000
0000
1000
0000
0001
0000
0010
0000
1001
0000
0000
0000
0000
0000
1000
0000
0000
0000
0000
0000
1000
0000
0000
1000
0000
0000
1000
0000
0000
0000
0000
0000
1000
0000
0000
0000
0000
0000
1000
0000
0000
1000
0000
0000
,
1000
0000
0000
1000
0000
0000
1000
0000
0000
1000
0000
0000
1001
0000
0010
0000
0001
0000
1000
0000
0000
0000
0000
0000
0010
0000
0000
0010
0000
0000
0000
0000
0000
0010
0000
0000
0000
0000
0000
0010
0000
0000
1000
0000
0000
0000
0000
0000
,
0011
0000
0010
0010
0000
0010
0000
1000
0000
0100
1000
0000
0100
1000
0000
0100
,
0011
0000
0010
0010
0000
0010
1100
0000
0010
0010
0000
0010
0000
0010
0100
0000
,
1100
0000
0010
0010
0000
0010
0000
1000
0000
0100
1000
0000
0100
1000
0000
0100
,
0011
0000
0010
0010
0000
0010
0000
0000
0010
0010
0000
0200
0300
0010
0010
0000
,
0012
0003
0010
0010
0000
0200
0300
2000
3000
0010
0010
0000
0010
0010
0000
0010
,
0011
0000
0010
0010
0000
0010
1100
0000
0010
0010
0000
0200
0300
0010
0010
0000
,
0012
0003
0010
0010
0000
2000
3000
0002
0003
0010
0010
0000
0010
0010
0000
0010
,
0011
0000
0010
0010
0000
0010
0000
0000
0010
0010
0000
0200
0300
0010
0010
0000
,
0201
0300
0010
0010
0000
0200
0300
0010
0000
1000
0010
0200
0310
0010
0000
0010
,
0011
0000
0010
0010
0000
1010
0000
0000
0000
0000
0000
0000
0000
0000
0000
0000
;

//---------------dance-single - ----------------
#NOTES:
     dance-single:
     :
     Hard:
     12:
     1.000,1.000,1.000,0.484,1.000,768.000,153.000,59.000,0.000,4.000:
0000
0000
0000
0000
,
1000
0000
0000
1000
0000
0000
1000
0000
0000
0000
0000
0000
1000
0000
0000
0000
0000
0000
1000
0000
0001
0000
0010
0000
1001
0000
0000
0000
0000
0000
1000
0000
0000
0000
0000
0000
1000
0000
0000
1000
0000
0000
1000
0000
0000
0000
0000
0000
,
1000
0000
0000
0000
0000
0000
1000
0000
0000
0010
0000
0000
1000
0000
0000
0010
0000
0000
1000
0000
0000
0010
0000
0000
1001
0000
0100
0000
0010
0000
0001
0000
0000
0000
0000
0000
1000
0000
0000
0000
0000
0000
1002
0000
0000
0000
0000
0000
,
0000
0000
0000
0000
0000
0000
1003
0000
0000
1000
0000
0000
1000
0000
0000
0000
0000
0000
1000
0000
0000
0000
0000
0000
1000
0000
0001
0000
0010
0000
1001
0000
0000
0000
0000
0000
1000
0000
0000
0000
0000
0000
1000
0000
0000
1000
0000
0000
,
1000
0000
0000
0000
0000
0000
1000
0000
0000
0000
0000
0000
1000
0000
0000
0010
0000
0000
1000
0000
0000
0010
0000
0000
1000
0000
0000
0010
0000
0000
1001
0000
0100
0000
0010
0000
0001
0000
0000
0000
0000
0000
1000
0000
0000
0000
0000
0000
,
1002
0000
0000
0000
0000
0000
0000
0000
0000
0000
0000
0000
1003
0000
0000
1000
0000
0000
1000
0000
0000
0000
0000
0000
1000
0000
0000
0000
0000
0000
1000
0000
0001
0000
0010
0000
1001
0000
0000
0000
0000
0000
1000
0000
0000
0000
0000
0000
,
1000
0000
0000
1000
0000
0000
1000
0000
0000
0000
0000
0000
1000
0000
0000
0000
0000
0000
1000
0000
0000
0010
0000
0000
1000
0000
0000
0010
0000
0000
1000
0000
0000
0010
0000
0000
1001
0000
0100
0000
0010
0000
0001
0000
0000
0000
0000
0000
,
1000
0000
0000
0000
0000
0000
1002
0000
0000
0000
0000
0000
0000
0000
0000
0000
0000
0000
0000
0000
0000
0000
0000
0000
1003
0000
0000
1000
0000
0000
1000
0000
0000
0000
0000
0000
1000
0000
0000
0000
0000
0000
1000
0000
0001
0000
0010
0000
,
1001
0000
1000
0000
1000
1000
1000
0000
1000
0000
1000
0010
1000
0010
1000
0010
,
1001
0000
0100
0000
0001
0000
1000
0000
0000
0000
0000
0000
0010
0000
0000
0010
0000
0000
0000
0000
0000
0010
0000
0000
0000
0000
0000
0010
0000
0000
1000
0000
0000
0000
0000
0000
0011
0000
0000
0000
0000
0000
0010
0000
0000
0010
0000
0000
,
0000
0010
0000
1000
0000
0100
1000
0000
0100
1000
0000
0100
0011
0000
0010
0010
,
0000
0010
1100
0000
0010
0010
0000
0010
0000
0010
0100
0000
1100
0000
0010
0010
,
0000
0010
0000
1000
0000
0100
1000
0000
0100
1000
0000
0100
0011
0000
0010
0010
,
0000
0010
0000
0000
0010
0010
0000
0200
0300
0010
0010
0000
0012
0003
0010
0010
,
0000
0200
0300
2000
3000
0010
0010
0000
0010
0010
0000
0010
0011
0000
0010
0010
,
0000
0010
1100
0000
0010
0010
0000
0200
0300
0010
0010
0000
0012
0003
0010
0010
,
0000
2000
3000
0002
0003
0010
0010
0000
0010
0010
0000
0010
0011
0000
0010
0010
,
0000
0010
0000
0000
0010
0010
0000
0200
0300
0010
0010
0000
0201
0300
0010
0010
,
0000
0200
0300
0010
0000
1000
0010
0200
0310
0010
0000
0010
0011
0000
0010
0010
,
0000
1010
0000
0000
0020
0000
0000
0000
1000
0000
0032
0000
0203
0000
0000
0000
,
1320
0000
0000
0000
0000
0000
0000
0000
0000
0000
0000
0000
0000
0000
0000
0000
0000
0000
0000
0000
0000
0000
0000
0000
0000
0000
0000
0000
0000
0000
0000
0000
0000
0000
0000
0000
0000
0000
0000
0000
0000
0000
0030
0000
0000
0000
0000
0000
0200
0000
0000
0000
0000
0000
0000
0000
0000
0000
0000
0000
0300
0000
0000
0000
0000
0000
2000
0000
0000
0000
0000
0000
0000
0000
0000
0000
0000
0000
3000
0000
0000
0000
0000
0000
0200
0000
0000
0000
0000
0000
0000
0000
0000
0000
0000
0000
1301
0000
0000
0000
0020
0000
0000
0000
0000
0000
0000
0000
0000
0000
0000
0000
0000
0000
0000
0000
0000
0000
0000
0000
0000
0000
0000
0000
0000
0000
0000
0000
0000
0000
0000
0000
0000
0000
0000
0000
0000
0000
0000
0000
0000
0000
0000
0000
0000
0000
0000
0000
0000
0000
0000
0000
0000
0000
0000
0000
0000
0000
0000
0000
0000
0000
0000
0000
0000
0000
0000
0000
0000
0000
0000
0000
0000
0000
0000
0000
0000
0000
0000
0000
0000
0000
0000
0000
0000
0000
0000
0000
0000
0000
0000
0000
,
0132
0000
0000
0100
2003
3200
0320
0032
1203
0320
0230
2300
3020
0000
0000
0000
,
1000
0000
0000
0000
0000
0000
0000
0000
0230
0000
0300
2000
0000
3000
0200
0300
0021
0000
0000
0000
0000
0000
0000
0000
0000
0000
0000
0000
0000
0000
0000
0000
,
1000
0000
0000
0000
0000
0000
0000
0000
0000
0100
0000
0000
1030
0000
0000
0000
0000
0000
0010
0000
0001
0000
0010
0000
1001
0000
0000
0000
0000
0000
0100
0000
0000
1001
0000
0000
0010
0000
0000
0000
0000
0000
1001
0000
0000
0000
0000
0000
,
0100
1001
0010
0000
1001
0000
0010
1000
0010
1000
0010
1000
0010
1000
0010
1000
,
0010
0000
0000
1000
0000
0000
0010
0000
0000
1000
0000
0000
0010
0000
0000
0000
0000
0000
0100
0000
0001
0000
0010
0000
1001
0000
0000
0000
0000
0000
0010
0000
0000
0100
0000
0000
1000
0000
0000
0001
0000
0000
0000
0000
0000
1010
0000
0000
,
0000
0100
0000
1000
0000
0000
0010
0100
0010
0100
0010
0100
0011
0100
0010
0100
,
0010
0000
0000
0100
0000
0000
0010
0000
0000
0100
0000
0000
0010
0000
0000
0000
0000
0000
1000
0000
0001
0000
0100
0000
0011
0000
0000
0000
0000
0000
0000
0000
0000
0011
0000
0000
0000
0000
0000
0000
0000
0000
0011
0000
0000
0000
0000
0000
,
0000
0011
0000
0000
0011
0000
1100
0011
1100
0011
1100
0011
1100
0011
1100
0011
,
1100
0000
0000
0011
0000
0000
1100
0000
0000
0011
0000
0000
1100
0000
0000
0000
0000
0000
0100
0000
0001
0000
0010
0000
1001
0000
0000
0000
0000
0000
0010
0000
0000
0100
0000
0000
0000
0000
0000
0001
0000
0000
0000
0000
0000
1010
0000
0000
,
0001
0100
0000
1000
0010
0000
0100
0001
0100
0001
0100
0001
1100
0001
0100
0001
,
0100
0000
0000
0001
0000
0000
0100
0000
0000
0000
0000
0000
2002
0000
0000
0000
0000
0000
0000
0000
0000
0000
0000
0000
0000
0000
0000
0000
0000
0000
0000
0000
0000
3003
0000
0000
1100
0000
0011
0000
1100
0000
0011
0000
0000
0000
0000
0000
,
1100
0011
1100
0011
0000
0000
1100
0011
1100
0011
0000
0000
1100
0011
1100
0011
0000
0000
0100
0010
1000
0001
0000
0000
,
0100
0010
1000
0001
0000
0000
0100
0010
1000
0001
0000
0000
0100
0000
0000
0002
0000
0000
0000
0000
0000
1003
0010
1000
,
0010
0000
0000
1100
0001
0100
0001
0000
0000
1000
0010
1000
0010
0000
0000
1100
0001
0100
0001
0000
0000
1000
0010
1000
,
0010
0000
0000
0000
0000
0000
1100
0000
0001
0000
0100
0000
0001
0000
0000
0000
0000
0000
1000
0000
0010
0000
1000
0000
0010
0000
0000
0000
0000
0000
1100
0000
0001
0000
0100
0000
0001
0000
0000
0000
0000
0000
1000
0000
0000
0100
0000
0000
,
0010
0000
1000
0100
0010
0000
1001
0100
0010
0000
1000
0100
0010
0000
1000
0100
,
0010
0000
0000
0000
0000
0000
1000
0000
0000
0100
0000
0000
0010
0000
0000
0000
0000
0000
1001
0000
0000
0100
0000
0000
0010
0000
0000
0000
0000
0000
1000
0000
0000
0100
0000
0000
0010
0000
0000
0000
0000
0000
0011
0000
1100
0000
0011
0000
,
1100
0000
0000
1100
0011
1100
0011
1100
0011
1100
0000
0000
0011
1100
0011
1100
0000
0000
1100
0011
1100
0011
1100
0011
,
1100
0000
0000
0011
1100
0011
1100
0000
0000
0011
1100
0011
1100
0000
0000
0100
0000
0000
0002
0000
0000
0000
0000
0000
,
1003
0001
0100
0010
0000
0000
1001
0010
0001
0100
0010
1000
0001
0000
0000
1000
0010
0100
1001
0000
0000
1000
0001
1000
,
0001
1000
0001
1000
0000
0000
1001
0100
0001
0010
0000
0000
0001
1000
0010
1000
0000
0000
1001
0000
0000
0002
0000
0000
,
0000
0000
0000
1003
0001
0100
0010
0000
0000
1001
0010
0001
0100
0010
1000
0001
0000
0000
1000
0010
0100
1001
0000
0000
,
1000
0001
1000
0001
1000
0001
1000
0000
0000
1001
0100
0001
0010
0000
0000
0001
1000
0010
1000
0000
0000
1001
0000
0020
,
0000
0000
0000
0000
0000
0000
1030
0001
0100
0010
0000
0000
1001
0010
0001
0100
0010
1000
0001
0000
0000
1000
0010
0100
,
1001
0000
0000
1000
0001
1000
0001
1000
0001
1000
0000
0000
1001
0100
0001
0010
0000
0000
0001
1000
0010
1000
0000
0000
,
1001
0000
0000
0002
0000
0000
0000
0000
0000
1003
0001
0100
0010
0000
0000
1001
0010
0001
0100
0010
1000
0001
0000
0000
,
1000
0010
0100
1001
0000
0000
1000
0001
1000
0001
1000
0001
1000
0000
0000
1001
0100
0001
0010
0000
0000
0001
1000
0010
,
1000
0000
0000
0000
0000
0000
1001
0000
0000
0000
0000
0000
1000
0000
0000
1000
0000
0000
1000
0000
0000
0000
0000
0000
1000
0000
0000
0000
0000
0000
1000
0000
0001
0000
0010
0000
1001
0000
0000
0000
0000
0000
1000
0000
0000
0000
0000
0000
,
1000
0000
0000
1000
0000
0000
1000
0000
0000
0000
0000
0000
1000
0000
0000
0000
0000
0000
1000
0000
0000
0010
0000
0000
1000
0000
0000
0010
0000
0000
1000
0000
0000
0010
0000
0000
1001
0000
0100
0000
0010
0000
0001
0000
0000
0000
0000
0000
,
1000
0000
0000
0000
0000
0000
1002
0000
0000
0000
0000
0000
0000
0000
0000
0000
0000
0000
1003
0000
0000
1000
0000
0000
1000
0000
0000
0000
0000
0000
1000
0000
0000
0000
0000
0000
1000
0000
0001
0000
0010
0000
1001
0000
0000
0000
0000
0000
,
1000
0000
0000
0000
0000
0000
1000
0000
0000
1000
0000
0000
1000
0000
0000
0000
0000
0000
1000
0000
0000
0000
0000
0000
1000
0000
0000
0010
0000
0000
1000
0000
0000
0010
0000
0000
1000
0000
0000
0010
0000
0000
1001
0000
0100
0000
0010
0000
,
0001
0000
0000
0000
0000
0000
1000
0000
0000
0000
0000
0000
1002
0000
0000
0000
0000
0000
0000
0000
0000
0000
0000
0000
1003
0000
0000
1000
0000
0000
1000
0000
0000
0000
0000
0000
1000
0000
0000
0000
0000
0000
1000
0000
0001
0000
0010
0000
,
1001
0000
1000
0000
1000
1000
1000
0000
1000
0000
1000
0010
1000
0010
1000
0010
,
1001
0000
0100
0000
0010
0000
0001
0000
0000
0000
0000
0000
1000
0000
0000
0000
0000
0000
1002
0000
0000
0000
0000
0000
0000
0000
0000
0000
0000
0000
0000
0000
0000
0000
0000
0000
1003
0000
0000
1000
0000
0000
1000
0000
0000
0000
0000
0000
,
1000
0000
0000
0000
0000
0000
1000
0000
0001
0000
0010
0000
1001
0000
0000
0000
0000
0000
1000
0000
0000
0000
0000
0000
1000
0000
0000
1000
0000
0000
1000
0000
0000
0000
0000
0000
1000
0000
0000
0000
0000
0000
1000
0000
0000
0010
0000
0000
,
1000
0000
0000
0010
0000
0000
1000
0000
0000
0010
0000
0000
1001
0000
0100
0000
0001
0000
1000
0000
0000
0000
0000
0000
0010
0000
0000
0010
0000
0000
0000
0000
0000
0010
0000
0000
0000
0000
0000
0010
0000
0000
1000
0000
0000
0000
0000
0000
,
0011
0000
0010
0010
0000
0010
0000
1000
0000
0100
1000
0000
0100
1000
0000
0100
,
0011
0000
0010
0010
0000
0010
1100
0000
0010
0010
0000
0010
0000
0010
0100
0000
,
1100
0000
0010
0010
0000
0010
0000
1000
0000
0100
1000
0000
0100
1000
0000
0100
,
0011
0000
0010
0010
0000
0010
0000
0000
0010
0010
0000
0200
0300
0010
0010
0000
,
0012
0003
0010
0010
0000
0200
0300
2000
3000
0010
0010
0000
0010
0010
0000
0010
,
0011
0000
0010
0010
0000
0010
1100
0000
0010
0010
0000
0200
0300
0010
0010
0000
,
0012
0003
0010
0010
0000
2000
3000
0002
0003
0010
0010
0000
0010
0010
0000
0010
,
0011
0000
0010
0010
0000
0010
0000
0000
0010
0010
0000
0200
0300
0010
0010
0000
,
0201
0300
0010
0010
0000
0200
0300
0010
0000
1000
0010
0200
0310
0010
0000
0010
,
0011
0000
0010
0010
0000
1010
0000
0000
0000
0000
0000
0000
0000
0000
0000
0000
;
