#TITLE:Tougen;
#SUBTITLE:;
#ARTIST:Some asian guy;
#TITLETRANSLIT:;
#SUBTITLETRANSLIT:;
#ARTISTTRANSLIT:;
#CREDIT:Mad Matt;
#BANNER:../Tachyon Gamma-bn.png;
#BACKGROUND:../Tachyon Gamma-bg.png;
#LYRICSPATH:;
#CDTITLE:;
#MUSIC:Tougen.ogg;
#OFFSET:0.706;
#SAMPLESTART:38.304;
#SAMPLELENGTH:12.000;
#SELECTABLE:YES;
#DISPLAYBPM:160.000;
#BPMS:0.000=160.000;
#STOPS:;
#BGCHANGES:;
// cache tags:
#FIRSTBEAT:24.000;
#LASTBEAT:298.500;
#SONGFILENAME:Songs/Tachyon Gamma/Tougen - [Mad Matt]/Tougen.sm;
#HASMUSIC:1;
#HASBANNER:1;
#MUSICLENGTH:114.356;
// end cache tags

//---------------dance-single - Mad Matt----------------
#NOTES:
     dance-single:
     Mad Matt:
     Challenge:
     12:
     0.909,1.000,0.227,0.551,1.000,638.000,26.000,63.000,0.000,0.000:

0000
0000
0000
0000
,
0000
0000
0000
0000
,
0000
0000
0000
0000
,
0000
0000
0000
0000
,
0000
0000
0000
0000
,
0000
0000
0000
0000
,
1001
0000
0000
0000
1001
0000
0001
0100
0000
0001
0100
0000
0000
0000
0010
0000
,
1000
0100
0000
1000
0001
0000
0010
0001
0000
0010
0001
0000
0000
0000
1001
0000
,
0101
0000
0000
0000
0110
0000
0010
1000
0000
0010
1000
0000
0000
0000
0001
0000
,
1000
0100
1000
0001
1000
0000
0010
0000
0100
0001
0100
0010
1000
0000
0000
0000
,
0100
1000
0100
0010
0100
1000
0001
0100
,
0000
0000
0000
0000
0000
0000
0110
0000
0000
0000
0000
0000
0000
0000
0000
0000
0000
0000
0010
0000
1000
0000
0010
0000
1000
0000
0000
0000
0000
0000
0001
0000
0000
0100
0000
0000
0000
0000
0000
0100
0000
0000
0010
0000
0000
0000
0000
0000
,
2000
0000
3010
0100
0001
0000
1000
0100
0010
0001
0000
0010
0001
0000
0100
0010
,
1000
0001
0100
0001
1000
0100
1000
0001
0100
0000
0000
0110
0000
0000
1001
0000
,
0001
0010
0100
1000
0001
0100
0010
1000
,
0000
0000
0000
0000
0000
0000
1001
0000
0000
0000
0000
0000
0000
0000
0000
0000
0000
0000
0001
0000
0100
0000
0001
0000
0100
0000
0000
0000
0000
0000
0010
0000
0000
1000
0000
0000
0000
0000
0000
1000
0000
0000
0001
0000
0000
0000
0000
0000
,
0020
0000
0130
1000
0001
0000
0100
0010
1000
0001
0000
1000
0001
0000
1000
0001
,
0010
0001
1000
0010
1000
0001
0100
0001
1000
0100
1000
0001
0020
0000
0000
0000
,
0031
0100
0001
0100
0001
0100
0001
0000
0000
0000
0000
0000
1000
0100
1000
0100
1000
0100
1000
0000
0000
0001
0000
0000
,
0000
0000
0000
0000
0000
0000
0011
0000
0000
0000
0000
0000
0000
0000
0000
0000
0000
0000
0010
0000
0100
0000
0010
0000
0100
0000
0000
0000
0000
0000
1000
0000
0000
0001
0000
0000
0000
0000
0000
0001
0000
0000
0100
0000
0000
0000
0000
0000
,
0020
0000
0130
0001
1000
0000
0100
1000
0001
0100
0000
0001
0100
0000
0010
1000
,
0001
0010
0001
1000
0100
1000
0001
0100
0001
0000
0000
1001
0000
0000
1100
0000
,
0100
0010
0100
1000
0100
0010
0001
0100
,
0000
0000
0000
0000
0000
0000
0110
0000
0000
0000
0000
0000
0000
0000
0000
0000
0000
0000
0010
0000
1000
0000
0010
0000
1000
0000
0000
0000
0000
0000
0001
0000
0000
0010
0000
0000
0000
0000
0000
0010
0000
0000
0100
0000
0000
0000
0000
0000
,
2000
0000
3100
0010
0001
0000
1000
0001
0100
0010
0000
0100
0010
0000
0100
0001
,
0010
0001
1000
0100
1000
0001
0100
0010
1000
0000
0000
1010
0000
0000
0110
0000
,
0100
0001
0100
0010
0100
0001
0100
0000
0000
0010
0000
0000
0000
0000
0000
1000
0001
1000
0100
0000
0000
0010
0000
0000
,
0000
0001
1000
0010
0100
0010
1000
0001
,
1000
0000
0100
0000
0010
0000
0100
0000
1000
0000
0100
0000
0010
0000
0000
0001
0000
0000
1000
0000
0000
0010
0000
0000
1000
0000
0001
0000
1000
0000
0100
0000
1000
0000
0001
0000
1000
0000
0000
0100
0000
0000
0010
0000
0000
0001
0000
0000
,
1000
0000
0010
0100
0010
0000
1000
0000
0001
0010
0100
1000
0001
0000
0100
0000
,
0001
1000
0001
0010
0001
1000
0001
0000
0000
0100
0000
0000
0000
0000
0000
0010
0100
0010
1000
0000
0000
0001
0000
0000
,
0000
1000
0001
1000
0010
1000
0100
1000
,
0001
0000
0010
0000
0100
0000
1000
0000
0100
0000
0010
0000
0001
0000
0000
1000
0000
0000
0001
0000
0000
1000
0000
0000
0010
0000
0000
0000
0000
0000
0010
0000
0000
0000
0000
0000
0100
0000
0000
0001
0000
0000
0100
0000
0000
0000
0000
0000
,
0000
0000
0000
0000
0000
0000
0100
0000
0000
0001
0000
0000
0100
0000
0000
0000
0000
0000
0010
0000
0000
0000
0000
0000
1000
0000
0001
0000
1000
0000
0010
0000
1000
0000
0001
0000
0100
0000
0000
0000
0000
0000
0000
0000
0000
0000
0000
0000
,
0001
0100
0001
1000
0100
1000
0001
0000
0000
1000
0000
0000
0000
0000
0000
0001
0010
0001
1000
0000
0000
0010
0000
0000
,
0100
0001
0000
0100
0001
0000
0100
0010
0000
1000
0010
0000
0100
0000
0001
0000
,
1000
0000
0010
0000
0100
0000
0001
0000
0100
0000
0010
0000
1000
0000
0000
0001
0000
0000
0010
0000
0000
0001
0000
0000
1000
0000
0100
0000
0010
0000
0001
0000
0010
0000
0100
0000
1000
0000
0000
0001
0000
0000
0100
0000
0000
0001
0000
0000
,
1000
0000
0010
1000
0010
0000
0100
0000
0001
0010
0100
1000
0001
0000
0100
0000
,
0010
1000
0010
0100
0001
1000
0001
0000
0000
0010
0000
0000
0000
0000
0000
0100
1000
0100
0010
0000
0000
0001
0000
0000
,
1000
0100
0000
1000
0100
0000
0010
0100
0000
0010
0001
0000
0010
0000
0100
0000
,
1000
0000
0010
0000
0100
0000
0001
0000
0100
0000
0010
0000
1000
0000
0000
0001
0000
0000
1000
0000
0000
0100
0000
0000
0010
0000
0000
0000
0000
0000
0010
0000
0000
0000
0000
0000
0100
0000
0000
1000
0000
0000
0100
0000
0000
0000
0000
0000
,
0000
0000
0100
1000
0100
0000
0010
0000
0001
0100
0010
1000
0200
0000
0320
0000
,
0031
2000
0000
0000
0000
0000
0000
0000
0000
0000
0000
0000
0000
0000
0000
0000
0000
0000
0000
0000
0000
0000
0000
0000
0000
0000
0000
0000
0000
0000
0000
0000
3002
0000
0000
0000
0000
0000
0000
0000
0000
0000
0000
0000
0000
0000
0000
0000
0000
0000
0000
0000
0000
0000
0000
0000
0000
0000
0000
0000
0000
0000
0000
0000
,
0023
0000
0000
0000
0000
0000
0000
0000
0000
0000
0000
0000
0000
0000
0000
0000
0230
0000
0000
0000
0000
0000
0000
0000
2300
0000
0000
0000
0000
0000
0000
0000
3001
0200
0000
0000
0000
0000
0000
0000
0000
0000
0000
0000
0000
0000
0000
0000
0000
0000
0000
0000
0000
0000
0000
0000
0320
0000
0000
0000
0000
0000
0000
0000
,
2030
0000
3200
0000
,
1300
0002
0000
0000
0000
0000
0000
0000
0000
0000
0000
0000
0000
0000
0000
0000
1003
0020
0000
0000
0000
0000
0000
0000
0000
0000
0000
0000
0000
0000
0000
0000
1030
0200
0000
0000
0000
0000
0000
0000
0000
0000
0000
0000
0000
0000
0000
0000
0310
0000
0000
0000
0000
0000
0000
0000
0002
0000
0000
0000
0003
0000
0000
0000
,
0200
0000
0320
0000
,
2030
0000
0000
0000
0000
0000
0000
0000
0000
0000
0000
0000
0000
0000
0000
0000
3020
0000
0000
0000
0000
0000
0000
0000
0230
0000
0000
0000
0000
0000
0000
0000
0301
2000
0000
0000
0000
0000
0000
0000
0000
0000
0000
0000
0000
0000
0000
0000
0000
0000
0000
0000
0000
0000
0000
0000
3002
0000
0000
0000
0000
0000
0000
0000
,
0023
0000
0000
0000
0230
0000
0320
0032
,
2003
0000
0010
0000
0010
0000
0000
3020
,
1030
0002
0000
0000
0000
0000
0000
0000
0000
0000
0000
0000
0000
0000
0000
0000
0000
0000
0000
0000
0000
0000
0000
0000
0000
0000
0000
0000
0000
0000
0000
0000
2003
0000
0000
0000
0000
0000
0000
0000
0000
0000
0000
0000
0000
0000
0000
0000
0000
0000
0000
0000
0000
0000
0000
0000
0000
0000
0000
0000
0000
0000
0000
0000
,
3200
0000
0000
0000
0000
0000
0000
0000
0000
0000
0000
0000
0000
0000
0000
0000
0320
0000
0000
0000
0000
0000
0000
0000
0032
0000
0000
0000
0000
0000
0000
0000
1003
0020
0000
0000
0000
0000
0000
0000
0000
0000
0000
0000
0000
0000
0000
0000
0000
0000
0000
0000
0000
0000
0000
0000
0230
0000
0000
0000
0000
0000
0000
0000
,
0302
0000
0023
0000
,
0031
2000
0000
0000
0000
0000
0000
0000
0000
0000
0000
0000
0000
0000
0000
0000
3001
0200
0000
0000
0000
0000
0000
0000
0000
0000
0000
0000
0000
0000
0000
0000
0301
0020
0000
0000
0000
0000
0000
0000
0000
0000
0000
0000
0000
0000
0000
0000
0130
0000
0000
0000
0000
0000
0000
0000
2000
0000
0000
0000
3000
0000
0000
0000
,
0020
0000
0000
0000
0230
0000
0000
0001
,
0302
0000
0000
0000
0000
0000
0000
0000
0000
0000
0000
0000
0000
0000
0000
0000
0203
0000
0000
0000
0000
0000
0000
0000
0320
0000
0000
0000
0000
0000
0000
0000
1030
0002
0000
0000
0000
0000
0000
0000
0000
0000
0000
0000
0000
0000
0000
0000
0000
0000
0000
0000
0000
0000
0000
0000
2003
0000
0000
0000
0000
0000
0000
0000
,
3200
0000
2300
3002
,
0403
0000
0000
0000
0000
0000
0000
0300
,
0010
1000
0010
0100
0010
1000
0001
0010
,
0000
0000
0000
0000
0000
0000
0110
0000
0000
0000
0000
0000
0000
0000
0000
0000
0000
0000
0100
0000
1000
0000
0100
0000
1000
0000
0000
0000
0000
0000
0001
0000
0000
0010
0000
0000
0000
0000
0000
0010
0000
0000
0100
0000
0000
0000
0000
0000
,
2000
0000
3100
0010
0001
0000
1000
0010
0100
0001
0000
0100
0001
0000
0010
0100
,
1000
0001
0010
0001
1000
0010
1000
0001
0010
0000
0000
0110
0000
0000
1001
0000
,
0001
0100
0010
1000
0001
0010
0100
1000
,
0000
0000
0000
0000
0000
0000
1001
0000
0000
0000
0000
0000
0000
0000
0000
0000
0000
0000
0001
0000
0010
0000
0001
0000
0010
0000
0000
0000
0000
0000
0100
0000
0000
1000
0000
0000
0000
0000
0000
1000
0000
0000
0001
0000
0000
0000
0000
0000
,
0200
0000
0310
1000
0001
0000
0010
0100
1000
0001
0000
1000
0001
0000
1000
0001
,
0100
0001
1000
0100
1000
0001
0010
0001
1000
0010
1000
0001
0200
0000
0000
0000
,
0301
0010
0001
0010
0001
0010
0001
0000
0000
0000
0000
0000
1000
0010
1000
0010
1000
0010
1000
0000
0000
0001
0000
0000
,
0000
0000
0000
0000
0000
0000
0101
0000
0000
0000
0000
0000
0000
0000
0000
0000
0000
0000
0100
0000
0010
0000
0100
0000
0010
0000
0000
0000
0000
0000
1000
0000
0000
0001
0000
0000
0000
0000
0000
0001
0000
0000
0010
0000
0000
0000
0000
0000
,
0200
0000
0310
0001
1000
0000
0010
1000
0001
0010
0000
0001
0010
0000
0100
1000
,
0001
0100
0001
1000
0010
1000
0001
0010
0001
0000
0000
1001
0000
0000
1010
0000
,
0010
0100
0010
1000
0010
0100
0001
0010
,
0000
0000
0000
0000
0000
0000
0110
0000
0000
0000
0000
0000
0000
0000
0000
0000
0000
0000
0100
0000
1000
0000
0100
0000
1000
0000
0000
0000
0000
0000
0001
0000
0000
0100
0000
0000
0000
0000
0000
0100
0000
0000
0010
0000
0000
0000
0000
0000
,
2000
0000
3010
0100
0001
0000
1000
0001
0010
0100
0000
0010
0100
0000
0010
0001
,
0100
0001
1000
0010
1000
0001
0010
0100
1000
0000
0000
1010
0000
0000
0110
0000
,
0202
0000
0000
0000
0000
0303
0000
0000
;
